<?xml version="1.0" standalone="no"?>
<!DOCTYPE svg PUBLIC "-//W3C//DTD SVG 1.1//EN" "http://www.w3.org/Graphics/SVG/1.1/DTD/svg11.dtd" >
<svg xmlns="http://www.w3.org/2000/svg">
<metadata>Generated by IcoMoon</metadata>
<defs>
<font id="icomoon" horiz-adv-x="1024">
<font-face units-per-em="1024" ascent="960" descent="-64" />
<missing-glyph horiz-adv-x="1024" />
<glyph unicode="&#x20;" horiz-adv-x="512" d="" />
<glyph unicode="&#xe900;" glyph-name="social-facebook" d="M0 957.12h1024v-1021.12h-1024v1021.12zM777.856 745.984c-13.504 1.792-59.456 5.824-113.088 5.824-104.704 0-173.952-67.52-173.952-191.104v-106.432h-126.144v-144.512h126.208v-370.88h136.768v370.88h125.824l19.264 144.512h-145.088v92.224c0 41.536 11.648 70.4 72.576 70.4h77.696v129.088z" />
<glyph unicode="&#xe901;" glyph-name="social-google" d="M0 960h1024v-1021.056h-1024v1021.056zM393.472 462.272c0 42.688 67.84 52.096 67.84 138.944 0 42.24-19.328 71.808-50.688 98.432h44.544l51.008 29.184h-133.504c-47.040 0-100.992-12.352-138.24-43.328-28.352-24.128-45.888-60.288-45.888-97.088 0-66.752 52.864-114.56 121.408-114.56 8 0 15.68 0.768 23.68 1.472-3.968-9.408-7.232-17.792-7.232-28.48 0-20.032 9.472-33.856 21.184-49.216-46.336-3.264-99.968-9.024-139.712-33.472-42.304-19.392-65.984-51.136-65.984-88.96 0-15.424 4.416-30.656 12.736-43.84 28.096-47.040 95.936-59.904 153.216-59.904 66.368 0 132.736 20.352 164.16 79.104 9.088 17.536 14.528 37.568 14.528 58.048-0.064 94.528-93.056 109.568-93.056 153.664zM344.192 494.336c-62.656 0-92.608 79.104-92.608 129.472 0 18.624 4.032 38.592 16.768 53.632 11.648 14.528 32.448 24.064 52.096 24.064 60.928 0 77.696-83.968 77.696-133.504 0-20.032-1.152-38.656-5.44-53.632-11.584-11.968-31.68-20.032-48.512-20.032zM345.024 201.856c-59.52 0-140.032 23.296-140.032 89.024 0 68.864 92.672 86.464 150.976 86.464 5.12 0 10.56 0 16-0.832 31.424-23.296 71.104-51.072 71.104-96.256 0-57.6-48.512-78.4-98.048-78.4zM626.496 495.424v72.576h-43.456v-72.576h-81.28v-36.032h81.28v-73.344h43.456v73.28h72.192v36.096h-72.192z" />
<glyph unicode="&#xe902;" glyph-name="social-tweeter" d="M0 958.528h1024v-1021.056h-1024v1021.056zM883.712 666.816c-28.096-12.032-58.816-20.8-90.496-24.128 32.896 19.328 57.6 49.92 69.248 86.464-30.208-18.24-64.192-31.36-99.904-38.016-28.416 30.656-69.312 49.216-114.56 49.216-87.040 0-157.12-70.016-157.12-156.352 0-12.352 1.472-24.448 4.032-36.096-130.624 6.912-246.592 68.992-323.84 164.096-13.888-23.296-21.504-49.92-21.504-79.104 0-54.272 27.712-102.464 70.016-130.496-25.92 1.024-49.984 8.384-71.168 20.032v-2.176c0-75.904 54.080-138.944 126.208-153.6-13.12-3.648-27.328-5.376-41.6-5.376-10.176 0-19.648 1.152-29.44 2.496 20.032-62.272 77.632-107.264 146.944-108.608-53.952-42.368-121.728-67.136-195.136-67.136-13.12 0-25.088 0.384-37.888 1.728 69.696-44.48 152.064-70.272 241.024-70.272 288.896 0 447.104 238.72 447.104 445.952 0 6.912 0 13.376-0.704 20.352 30.592 22.272 57.536 49.984 78.784 81.024z" />
<glyph unicode="&#xe903;" glyph-name="social-viber" d="M-2.944 960h1026.944v-1024h-1026.944v1024zM563.584 599.424c-10.24-0.384-20.224-1.472-23.872-12.096-5.44-15.68 6.208-19.392 17.984-21.568 39.872-6.272 61.12-29.312 64.704-68.032 1.152-10.624 8.128-19.072 18.688-17.92 14.272 1.408 15.744 14.272 14.976 26.304 0.768 43.584-49.728 94.4-92.48 93.312zM554.368 673.344c-14.976 1.792-35.072 8.704-38.4-11.776-3.648-21.568 18.304-19.328 32.576-22.336 97.28-21.504 131.328-55.936 147.008-150.656 2.624-13.44-2.24-35.072 21.568-31.424 17.92 2.624 11.392 20.864 12.8 31.808 0.768 90.688-78.144 172.992-175.552 184.384zM523.712 716.032c157.248-23.744 229.568-96.896 249.792-252.352 1.792-14.272-3.776-35.84 17.216-36.224 21.952-0.32 16.832 20.864 16.832 35.136 1.792 146.24-128 281.92-279.040 286.72-11.84-1.408-35.2 7.744-36.608-17.152-1.152-16.832 18.944-14.272 31.808-16.128zM765.056 292.928c-19.84 15.68-40.576 29.568-61.44 43.904-41.344 28.16-78.976 30.4-109.76-15.296-17.216-25.6-41.344-26.752-66.496-15.36-69.568 31.040-123.328 78.528-154.752 148.032-14.208 30.72-13.888 58.112 18.688 80.128 17.152 11.328 34.688 24.832 33.28 50.112-1.856 32.512-83.072 141.888-114.816 153.6-13.184 4.736-26.368 4.352-39.872 0-75.008-24.896-106.112-85.248-76.48-156.928 88.896-213.952 245.056-362.432 460.16-453.504 12.352-5.12 25.92-6.912 32.896-9.216 49.024-0.256 106.368 46.144 122.88 91.904 16.128 44.224-17.536 61.76-44.288 82.624z" />
<glyph unicode="&#xe904;" glyph-name="play, site-video, video" d="M384 663.424v-447.744l346.176 228.096zM512.064 925.504c-263.68 0-477.44-213.824-477.44-477.504s213.76-477.44 477.44-477.44c263.68 0 477.44 213.76 477.44 477.44s-213.76 477.504-477.44 477.504zM512.064 958.976c282.176 0 510.912-228.8 510.912-510.976s-228.736-510.976-510.912-510.976-510.976 228.8-510.976 510.976c0 282.24 228.8 510.976 510.976 510.976z" />
<glyph unicode="&#xe905;" glyph-name="coments-flat" d="M0 896h1024v-122.88h-1024v122.88zM0 650.24h1024v-122.88h-1024v122.88zM0 404.48h1024v-122.944h-1024v122.944zM0 158.656h1024v-122.88h-1024v122.88z" />
<glyph unicode="&#xe906;" glyph-name="downvote" d="M276.416 274.176h-251.904c-11.648 0-20.544 8.192-20.544 19.2v529.088c0 11.712 8.896 19.2 20.544 19.2h251.904c12.288 0 20.48-7.488 20.48-19.2v-527.040c0.064-11.648-10.176-21.248-20.48-21.248zM1017.728 389.184l-93.12 324.416c-14.976 53.376-65.6 91.008-125.248 91.008h-481.856v-491.52h3.392c87.616 0 162.24-56.768 182.72-138.24l26.688-114.944c8.896-35.584 41.088-60.288 80.064-60.288 45.184 0 80.768 34.24 80.768 78.144v217.6c0 9.6 9.024 19.2 20.608 19.2h243.712c42.432-1.408 72.512 35.648 62.272 74.624z" />
<glyph unicode="&#xe907;" glyph-name="gallery" d="M0 669.888h901.504v-568.256h-901.504v568.256zM124.672 794.368h901.568v-568.192h-85.184v483.264h-816.384v84.928z" />
<glyph unicode="&#xe908;" glyph-name="upvote" d="M274.048 619.904h-253.376c-11.712 0-20.672-7.616-20.672-19.264v-532.224c0-11.008 8.96-19.264 20.672-19.264h253.376c12.416 0 20.608 8.256 20.608 19.264v530.816c0 11.008-10.304 20.672-20.608 20.672zM1019.776 504.192l-93.76-326.336c-15.040-53.76-65.984-91.648-126.016-91.648h-484.672v494.464h3.456c88.128 0 163.2 57.152 183.808 139.072l26.88 115.648c8.96 35.776 41.28 60.608 79.872 60.608 46.080 0 81.792-34.432 81.792-78.528v-218.24c0-10.368 8.384-19.968 20.736-19.968h245.12c42.688 1.408 72.96-35.776 62.784-75.072z" />
<glyph unicode="&#xe909;" glyph-name="coments-tree" d="M0 896h1024v-122.88h-1024v122.88zM120 650.24h904v-122.88h-904v122.88zM245.312 404.48h778.688v-123.008h-778.688v123.008zM0 158.656h1024v-122.88h-1024v122.88z" />
<glyph unicode="&#xe90a;" glyph-name="attention" d="M989.504 247.744l-335.488 572.096c-29.888 50.88-85.504 82.496-145.216 82.496s-115.264-31.616-145.088-82.432l-339.52-578.752c-29.76-50.752-29.76-114.048 0-164.864 29.888-50.944 85.504-82.496 145.216-82.496h680.32c91.904 0.704 166.272 74.496 166.272 164.928 0.128 31.744-9.152 62.4-26.496 89.024zM508.928 705.92c66.176 0 82.304-48.96 78.336-77.12l-39.744-304.064c-1.344-27.52-23.040-37.952-38.592-37.952-17.344 0-37.056 9.024-38.592 37.952l-39.68 304.064c-4.032 28.928 12.48 77.12 78.272 77.12zM566.144 109.376c-14.848-14.784-35.84-23.488-57.216-23.488s-42.304 8.64-57.408 23.488c-15.040 14.848-23.616 35.456-23.616 56.576 0 20.928 8.576 41.344 23.616 56.256 15.104 14.784 36.032 23.232 57.408 23.232s42.304-8.448 57.216-23.232c15.232-14.848 23.872-35.456 23.872-56.256 0-21.12-8.64-41.728-23.872-56.576z" />
<glyph unicode="&#xe90b;" glyph-name="close-2" d="M999.744 97.344l-833.472 831.936c-34.88 34.816-91.456 34.816-126.336 0-34.88-34.752-34.88-91.264 0-126.016l833.472-831.936c34.944-34.88 91.52-34.88 126.336 0 34.944 34.88 34.944 91.328 0 126.016zM976.64 924.096c-34.432 34.368-90.368 34.368-124.8 0l-823.36-821.824c-34.496-34.24-34.496-90.24 0-124.544 34.432-34.368 90.304-34.368 124.736 0l823.424 821.76c34.432 34.496 34.432 90.112 0 124.608z" />
<glyph unicode="&#xe90c;" glyph-name="social-viber2" d="M618.816 713.472c-16.576-0.64-32.704-2.432-38.528-19.52-8.768-25.216 9.92-31.232 28.928-34.752 64.32-10.048 98.56-47.232 104.256-109.632 1.856-17.152 13.056-30.72 30.208-28.864 23.040 2.304 25.344 22.976 24.128 42.432 1.216 70.208-80.128 152.064-148.992 150.336zM603.904 832.576c-24.128 2.88-56.576 14.080-61.888-18.944-5.952-34.816 29.504-31.104 52.416-36.032 156.736-34.688 211.648-90.048 236.928-242.752 4.224-21.632-3.584-56.448 34.688-50.624 28.864 4.224 18.304 33.536 20.544 51.264 1.344 146.112-125.824 278.72-282.688 297.088zM554.432 901.376c253.44-38.272 369.856-156.096 402.432-406.592 2.88-23.040-6.016-57.792 27.904-58.368 35.328-0.576 27.136 33.6 27.136 56.576 2.88 235.648-206.272 454.208-449.664 461.952-19.136-2.24-56.768 12.544-59.008-27.584-1.92-27.136 30.464-23.040 51.2-25.984zM943.296 219.648c-31.936 25.344-65.344 47.68-98.944 70.72-66.624 45.376-127.296 49.088-176.896-24.768-27.776-41.152-66.624-43.008-107.136-24.64-112.064 50.048-198.72 126.528-249.344 238.528-22.848 49.472-22.4 93.568 30.080 129.088 27.712 18.24 55.936 40 53.632 80.704-2.944 52.416-133.824 228.736-185.024 247.616-21.248 7.552-42.432 6.976-64.192 0-120.832-40.192-170.944-137.408-123.2-252.928 143.232-344.896 394.88-584.064 741.376-730.688 19.904-8.256 41.792-11.264 53.184-14.912 78.848-0.384 171.392 74.304 197.952 148.096 25.984 71.296-28.352 99.52-71.488 133.184z" />
<glyph unicode="&#xe90d;" glyph-name="twitter, brand4, tweet, social4" d="M1024 733.6c-37.6-16.8-78.2-28-120.6-33 43.4 26 76.6 67.2 92.4 116.2-40.6-24-85.6-41.6-133.4-51-38.4 40.8-93 66.2-153.4 66.2-116 0-210-94-210-210 0-16.4 1.8-32.4 5.4-47.8-174.6 8.8-329.4 92.4-433 219.6-18-31-28.4-67.2-28.4-105.6 0-72.8 37-137.2 93.4-174.8-34.4 1-66.8 10.6-95.2 26.2 0-0.8 0-1.8 0-2.6 0-101.8 72.4-186.8 168.6-206-17.6-4.8-36.2-7.4-55.4-7.4-13.6 0-26.6 1.4-39.6 3.8 26.8-83.4 104.4-144.2 196.2-146-72-56.4-162.4-90-261-90-17 0-33.6 1-50.2 3 93.2-59.8 203.6-94.4 322.2-94.4 386.4 0 597.8 320.2 597.8 597.8 0 9.2-0.2 18.2-0.6 27.2 41 29.4 76.6 66.4 104.8 108.6z" />
<glyph unicode="&#xe90e;" glyph-name="chevron-right" horiz-adv-x="695" d="M632.571 449.714l-424-424c-14.286-14.286-37.143-14.286-51.429 0l-94.857 94.857c-14.286 14.286-14.286 37.143 0 51.429l303.429 303.429-303.429 303.429c-14.286 14.286-14.286 37.143 0 51.429l94.857 94.857c14.286 14.286 37.143 14.286 51.429 0l424-424c14.286-14.286 14.286-37.143 0-51.429z" />
<glyph unicode="&#xe90f;" glyph-name="chevron-left" horiz-adv-x="768" d="M669.143 778.857l-303.429-303.429 303.429-303.429c14.286-14.286 14.286-37.143 0-51.429l-94.857-94.857c-14.286-14.286-37.143-14.286-51.429 0l-424 424c-14.286 14.286-14.286 37.143 0 51.429l424 424c14.286 14.286 37.143 14.286 51.429 0l94.857-94.857c14.286-14.286 14.286-37.143 0-51.429z" />
<glyph unicode="&#xe910;" glyph-name="star-o" horiz-adv-x="951" d="M649.714 377.143l174.857 169.714-241.143 35.429-108 218.286-108-218.286-241.143-35.429 174.857-169.714-41.714-240.571 216 113.714 215.429-113.714zM950.857 581.143c0-10.286-7.429-20-14.857-27.429l-207.429-202.286 49.143-285.714c0.571-4 0.571-7.429 0.571-11.429 0-15.429-6.857-28.571-23.429-28.571-8 0-16 2.857-22.857 6.857l-256.571 134.857-256.571-134.857c-7.429-4-14.857-6.857-22.857-6.857-16.571 0-24 13.714-24 28.571 0 4 0.571 7.429 1.143 11.429l49.143 285.714-208 202.286c-6.857 7.429-14.286 17.143-14.286 27.429 0 17.143 17.714 24 32 26.286l286.857 41.714 128.571 260c5.143 10.857 14.857 23.429 28 23.429s22.857-12.571 28-23.429l128.571-260 286.857-41.714c13.714-2.286 32-9.143 32-26.286z" />
<glyph unicode="&#xe911;" glyph-name="bars" horiz-adv-x="878" d="M877.714 182.857v-73.143c0-20-16.571-36.571-36.571-36.571h-804.571c-20 0-36.571 16.571-36.571 36.571v73.143c0 20 16.571 36.571 36.571 36.571h804.571c20 0 36.571-16.571 36.571-36.571zM877.714 475.428v-73.143c0-20-16.571-36.571-36.571-36.571h-804.571c-20 0-36.571 16.571-36.571 36.571v73.143c0 20 16.571 36.571 36.571 36.571h804.571c20 0 36.571-16.571 36.571-36.571zM877.714 768v-73.143c0-20-16.571-36.571-36.571-36.571h-804.571c-20 0-36.571 16.571-36.571 36.571v73.143c0 20 16.571 36.571 36.571 36.571h804.571c20 0 36.571-16.571 36.571-36.571z" />
<glyph unicode="&#xe912;" glyph-name="expand" horiz-adv-x="878" d="M431.429 347.428c0-4.571-2.286-9.714-5.714-13.143l-189.714-189.714 82.286-82.286c6.857-6.857 10.857-16 10.857-25.714 0-20-16.571-36.571-36.571-36.571h-256c-20 0-36.571 16.571-36.571 36.571v256c0 20 16.571 36.571 36.571 36.571 9.714 0 18.857-4 25.714-10.857l82.286-82.286 189.714 189.714c3.429 3.429 8.571 5.714 13.143 5.714s9.714-2.286 13.143-5.714l65.143-65.143c3.429-3.429 5.714-8.571 5.714-13.143zM877.714 841.143v-256c0-20-16.571-36.571-36.571-36.571-9.714 0-18.857 4-25.714 10.857l-82.286 82.286-189.714-189.714c-3.429-3.429-8.571-5.714-13.143-5.714s-9.714 2.286-13.143 5.714l-65.143 65.143c-3.429 3.429-5.714 8.571-5.714 13.143s2.286 9.714 5.714 13.143l189.714 189.714-82.286 82.286c-6.857 6.857-10.857 16-10.857 25.714 0 20 16.571 36.571 36.571 36.571h256c20 0 36.571-16.571 36.571-36.571z" />
<glyph unicode="&#xe913;" glyph-name="bar-chart" horiz-adv-x="1170" d="M365.714 438.857v-292.571h-146.286v292.571h146.286zM585.143 731.428v-585.143h-146.286v585.143h146.286zM1170.286 73.143v-73.143h-1170.286v877.714h73.143v-804.571h1097.143zM804.571 585.143v-438.857h-146.286v438.857h146.286zM1024 804.571v-658.286h-146.286v658.286h146.286z" />
<glyph unicode="&#xe914;" glyph-name="chevron-right2" d="M669.867 456.534l-256 256c-17.067 17.067-42.667 17.067-59.733 0s-17.067-42.667 0-59.733l226.133-226.133-226.133-226.133c-17.067-17.067-17.067-42.667 0-59.733 8.533-8.533 17.067-12.8 29.867-12.8s21.333 4.267 29.867 12.8l256 256c17.067 17.067 17.067 42.667 0 59.733z" />
<glyph unicode="&#xe915;" glyph-name="chevron-down" d="M797.867 584.534c-17.067 17.067-42.667 17.067-59.733 0l-226.133-226.133-226.133 226.133c-17.067 17.067-42.667 17.067-59.733 0s-17.067-42.667 0-59.733l256-256c8.533-8.533 21.333-12.8 29.867-12.8s21.333 4.267 29.867 12.8l256 256c17.067 17.067 17.067 42.667 0 59.733z" />
<glyph unicode="&#xe916;" glyph-name="chevron-up" d="M961.714 190.286l-94.857-94.286c-14.286-14.286-37.143-14.286-51.429 0l-303.429 303.429-303.429-303.429c-14.286-14.286-37.143-14.286-51.429 0l-94.857 94.286c-14.286 14.286-14.286 37.714 0 52l424 423.429c14.286 14.286 37.143 14.286 51.429 0l424-423.429c14.286-14.286 14.286-37.714 0-52z" />
<glyph unicode="&#xe917;" glyph-name="linkedin-square" horiz-adv-x="878" d="M135.429 142.857h132v396.571h-132v-396.571zM276 661.714c-0.571 38.857-28.571 68.571-73.714 68.571s-74.857-29.714-74.857-68.571c0-37.714 28.571-68.571 73.143-68.571h0.571c46.286 0 74.857 30.857 74.857 68.571zM610.286 142.857h132v227.429c0 121.714-65.143 178.286-152 178.286-70.857 0-102.286-39.429-119.429-66.857h1.143v57.714h-132s1.714-37.143 0-396.571v0h132v221.714c0 11.429 0.571 23.429 4 32 9.714 23.429 31.429 48 68 48 47.429 0 66.286-36 66.286-89.714v-212zM877.714 713.143v-548.571c0-90.857-73.714-164.571-164.571-164.571h-548.571c-90.857 0-164.571 73.714-164.571 164.571v548.571c0 90.857 73.714 164.571 164.571 164.571h548.571c90.857 0 164.571-73.714 164.571-164.571z" />
<glyph unicode="&#xe918;" glyph-name="instagram" d="M870.4 921.6h-716.8c-56.32 0-102.4-46.080-102.4-102.4v-716.8c0-56.371 46.080-102.4 102.4-102.4h716.8c56.32 0 102.4 46.029 102.4 102.4v716.8c0 56.32-46.080 102.4-102.4 102.4zM511.181 178.022c156.621 0 283.546 127.027 283.546 283.597 0 17.306-2.202 33.997-5.274 50.381h80.947v-369.459c0-19.558-15.872-35.328-35.482-35.328h-645.837c-19.61 0-35.482 15.77-35.482 35.328v369.459h79.309c-3.123-16.384-5.325-33.075-5.325-50.381 0-156.621 127.027-283.597 283.597-283.597zM333.978 461.619c0 97.894 79.36 177.203 177.254 177.203 97.843 0 177.254-79.309 177.254-177.203s-79.411-177.254-177.254-177.254c-97.946 0-177.254 79.36-177.254 177.254zM834.918 665.6h-82.688c-19.558 0-35.43 15.974-35.43 35.43v82.79c0 19.558 15.872 35.379 35.379 35.379h82.688c19.661 0 35.533-15.821 35.533-35.379v-82.739c0-19.507-15.872-35.482-35.482-35.482z" />
<glyph unicode="&#xe919;" glyph-name="cancer-sign" d="M796.352 555.328c-125.376 0-227.52-102.016-227.52-227.456 0-46.144 13.888-89.28 37.632-125.12h-606.464v-102.528h796.352c125.504 0 227.648 102.144 227.648 227.648 0 125.44-102.144 227.456-227.648 227.456zM796.352 202.752c-68.992 0-125.12 56-125.12 125.12 0 68.992 56.128 125.12 125.12 125.12s125.12-56.128 125.12-125.12c0-69.12-56.128-125.12-125.12-125.12zM0 544.192c0-125.568 102.080-227.712 227.52-227.712s227.584 102.080 227.584 227.712c0 46.336-13.952 89.408-37.76 125.376h606.656v102.4h-796.48c-125.44 0-227.52-102.144-227.52-227.776zM352.704 544.192c0-69.12-56.128-125.312-125.184-125.312-68.992-0.064-125.12 56.192-125.12 125.312 0 69.184 56.128 125.376 125.184 125.376s125.12-56.192 125.12-125.376z" />
<glyph unicode="&#xe91a;" glyph-name="gemini-sign" d="M1002.688 883.968l-75.968 76.032c-126.272-69.888-271.296-109.696-425.6-109.696-154.048 0-299.008 39.808-425.216 109.44l-75.904-75.84c74.816-44.352 156.032-79.104 241.728-102.656v-680.768c-85.696-23.488-166.912-58.176-241.728-102.656l75.968-75.904c126.208 69.824 271.168 109.568 425.216 109.568 154.304 0 299.328-39.872 425.6-109.824l75.968 76.032c-74.944 44.416-156.16 79.232-242.048 102.72v680.832c85.824 23.488 167.040 58.24 241.984 102.72zM656.896 122.752c-50.752 8.192-102.72 12.48-155.712 12.48-52.928 0-104.896-4.288-155.648-12.48v636.16c50.688-8.128 102.656-12.48 155.648-12.48s104.96 4.288 155.712 12.48v-636.16z" />
<glyph unicode="&#xe91b;" glyph-name="virgo-sign" d="M91.008 49.728h102.4v716.8c0 65.408 40.832 91.072 91.008 91.072s91.008-25.664 91.008-91.008v-586.624l102.4 108.736v477.888c0 65.344 40.832 91.008 90.944 91.008 50.24 0 91.072-25.664 91.072-91.008v-341.44l-371.2-401.28 75.136-69.568 296.192 320.064v-156.352c0-100.352 81.664-182.016 182.144-182.016h125.056v102.4h-125.056c-44.032 0-79.744 35.776-79.744 79.616v267.008l195.008 210.752-0.256 0.064c41.28 45.056 66.56 105.024 66.56 170.752v11.328h0.32c0 100.352-81.728 182.080-182.016 182.080-53.12 0-100.736-28.608-134.016-64.896-35.136 36.48-84.48 64.896-139.136 64.896-56.256 0-106.816-29.952-142.144-68.352-35.392 38.4-85.888 68.352-142.272 68.352s-106.88-29.952-142.208-68.352c-35.328 38.4-85.888 68.352-142.208 68.352v-102.4c50.176 0 91.008-25.664 91.008-91.008v-716.864zM762.24 777.92c0 59.072 35.776 79.68 79.744 79.68 43.84 0 79.552-35.712 79.552-79.68v-11.328h-0.384c0-39.232-15.168-74.944-39.808-101.824l0.128-0.128-119.232-128.896v230.848c0 3.84-0.32 7.616-0.512 11.328h0.512z" />
<glyph unicode="&#xe91c;" glyph-name="capricorn-sign" d="M888.704 520v0c-52.352 36.608-97.408 74.56-133.76 111.744 80.32 11.072 142.464 79.936 142.464 163.328-0.064 90.944-74.048 164.928-164.992 164.928-91.008 0-164.992-73.984-164.992-164.928 0-11.136 1.152-21.888 3.264-32.448h-0.064c0-0.064 0.064-0.256 0.128-0.32v0c1.984-10.112 4.8-20.032 8.064-29.824h-167.488l-131.392-385.536-121.28 522.048h-158.656v-102.4h77.376l147.904-637.184h88.704l170.688 500.608h137.28c60.352-83.008 148.608-152.448 208.192-193.984l-0.128-0.192c12.608-7.936 24.448-17.024 34.944-27.456 35.008-35.008 56.704-83.392 56.704-136.704 0-106.688-86.848-193.408-193.472-193.408-53.248 0-101.696 21.696-136.704 56.704l-72.384-72.32c53.568-53.632 127.552-86.72 209.088-86.72 163.2 0 295.872 132.672 295.872 295.808 0 81.536-33.28 155.456-86.72 209.088-14.784 14.656-31.104 27.776-48.64 39.168zM689.664 732.48c-9.088 17.536-15.424 34.304-18.624 50.048v0.064c-0.768 4.032-1.216 8.128-1.216 12.416 0 34.496 28.096 62.592 62.592 62.592s62.656-28.096 62.656-62.592c0-34.56-28.096-62.592-62.656-62.592h-42.752z" />
<glyph unicode="&#xe91d;" glyph-name="leo-sign" d="M287.872 89.664c106.816 0 193.408 86.592 193.408 193.344 0 13.824-1.536 27.328-4.288 40.32 0 0 0.128-0.064 0.128-0.064-9.28 50.624-32.448 91.776-55.104 131.84-28.032 49.664-54.592 96.64-54.592 163.52 0 131.776 107.2 238.912 238.976 238.912 131.712 0 238.848-107.136 238.848-238.912 0-45.696-13.12-88.32-35.584-124.672l0.32-0.256c-7.552-12.288-16.32-26.048-25.664-40.896-60.672-95.744-143.872-226.752-143.872-329.088 0-48 18.368-96.064 54.976-132.736 73.344-73.344 192.192-73.344 265.536 0l-72.448 72.448c-33.344-33.28-87.424-33.28-120.704 0-16.64 16.704-24.96 38.592-24.96 60.288h-0.064c0 72.576 76.992 193.92 128 274.176 9.728 15.488 18.88 29.888 26.752 42.752l-0.128 0.064c31.808 51.84 50.176 112.832 50.176 177.92 0 188.224-153.088 341.376-341.312 341.376s-341.12-153.088-341.12-341.312c0-56.896 13.312-102.72 30.784-142.656-2.688 0.192-5.312 0.448-8 0.448-106.88 0-193.408-86.656-193.408-193.408s86.528-193.408 193.344-193.408zM287.872 374.080c50.176 0 91.008-40.768 91.008-91.008 0-50.176-40.832-91.072-91.008-91.072s-91.008 40.896-91.008 91.072c0 50.24 40.832 91.008 91.008 91.008z" />
<glyph unicode="&#xe91e;" glyph-name="aries-sign" d="M246.016 468.032v102.976c-78.848 0-143.040 64.192-143.040 143.040 0 78.784 64.128 142.976 143.040 142.976 71.552 0 126.72-57.856 164.16-171.968 41.344-126.016 47.488-279.68 47.488-360.128v-388.928h103.040v388.992c0 245.44 55.36 532.032 211.648 532.032 78.848 0 142.976-64.192 142.976-142.976 0-78.848-64.128-143.040-142.976-143.040v-102.912c135.616 0 246.016 110.336 246.016 246.016-0.064 135.552-110.4 245.888-246.080 245.888-141.888 0-237.376-121.984-263.104-284.096-31.68 164.032-116.48 284.096-263.168 284.096-135.68 0-246.016-110.336-246.016-245.952s110.336-246.016 246.016-246.016z" />
<glyph unicode="&#xe91f;" glyph-name="pisces-sign" d="M930.816 885.888l-74.048 74.112c-150.912-104.128-253.632-273.152-267.776-466.368h-140.544c-14.080 193.216-116.8 362.24-267.712 466.368l-74.048-74.112c132.544-84.48 224.192-227.456 238.656-392.256h-32v-91.264h32c-14.464-164.864-106.176-307.84-238.656-392.32l74.048-74.048c150.912 104.128 253.568 273.152 267.712 466.368h140.544c14.144-193.28 116.8-362.24 267.776-466.368l74.048 74.048c-132.544 84.48-224.256 227.456-238.656 392.32h31.936v91.264h-31.936c14.4 164.864 106.112 307.776 238.656 392.256z" />
<glyph unicode="&#xe920;" glyph-name="scorpio-sign" d="M859.968 180.096l42.496 48.128v-92.672c0-43.008-35.008-78.016-78.016-78.016s-78.016 35.008-78.016 78.016v635.072c0 104.576-84.8 189.376-189.44 189.376-55.104 0-104.64-29.312-139.2-66.88-34.624 37.568-84.16 66.88-139.264 66.88-55.168 0-104.64-29.312-139.264-66.88-34.624 37.568-84.16 66.88-139.264 66.88v-100.224c49.152 0 89.152-25.152 89.152-89.152v-701.888h100.288v701.888c0 64 40 89.152 89.152 89.152s89.152-25.152 89.152-89.152v-701.888h100.224v701.888c0 64 40 89.152 89.088 89.152 49.216 0 89.216-40 89.216-89.152v-635.008c0-98.304 79.936-178.24 178.24-178.24s178.24 61.376 178.24 189.376v317.952l-213.696-213.696 70.912-70.912z" />
<glyph unicode="&#xe921;" glyph-name="sagittarius-sign" d="M440.512 960v-101.248h389.376l-558.016-558.016-132.864 132.864-71.552-71.552 132.864-132.864-200.32-200.32 71.552-71.552 200.32 200.384 132.864-132.864 71.552 71.488-132.864 132.864 558.016 558.016v-389.376h101.248v562.176z" />
<glyph unicode="&#xe922;" glyph-name="taurus-sign" d="M512 721.792c-183.424 0-344.96 94.912-438.336 238.208l-73.664-73.664c74.432-105.984 180.992-187.712 305.28-231.424-104.704-68.032-174.208-185.856-174.208-319.744 0-210.048 170.88-380.928 380.928-380.928s380.928 170.88 380.928 380.928c0 133.824-69.504 251.712-174.272 319.68 124.352 43.776 230.848 125.44 305.344 231.424l-73.664 73.728c-93.44-143.296-254.976-238.208-438.336-238.208zM793.344 337.984c0-155.2-126.272-281.408-281.408-281.408s-281.408 126.272-281.408 281.408 126.272 281.472 281.472 281.472 281.344-126.272 281.344-281.472z" />
<glyph unicode="&#xe923;" glyph-name="libra-sign" d="M0 134.4h1024v-102.4h-1024v102.4zM856.192 535.424c0 189.824-154.432 344.192-344.192 344.192-189.824 0-344.192-154.368-344.192-344.192 0-63.168 17.216-122.496 47.104-173.504h-214.912v-102.4h352.704v94.464c-3.008 2.624-5.888 5.248-8.704 7.936-45.44 43.968-73.792 105.472-73.792 173.504 0 133.376 108.48 241.792 241.792 241.792s241.728-108.416 241.728-241.792c0-68.032-28.352-129.536-73.792-173.504-2.752-2.688-5.76-5.312-8.704-7.936v-94.464h352.768v102.4h-214.976c29.824 51.008 47.168 110.336 47.168 173.504z" />
<glyph unicode="&#xe924;" glyph-name="aquarius-sign" d="M628.864 735.616l-203.072-135.36-203.072 135.36-214.4-142.848v-122.048l214.4 142.912 203.072-135.36 203.072 135.36 203.008-135.36 192.128 128.128-0.512 121.728-191.616-127.872zM425.6 301.184l-203.072 135.36-214.4-142.912v-121.984l214.4 142.912 203.072-135.36 203.008 135.36 203.072-135.36 192.064 128.128-0.448 121.664-191.616-127.808-203.072 135.36z" />
<glyph unicode="&#xe925;" glyph-name="auto" d="M790.656 357.76c-38.656 0-70.080-31.616-70.080-70.528 0-38.976 31.36-70.4 70.080-70.4 38.976 0 70.336 31.36 70.336 70.4 0 38.912-31.296 70.528-70.336 70.528zM229.44 357.76c-38.976 0-70.336-31.616-70.336-70.528 0-38.976 31.36-70.4 70.336-70.4 38.72 0 70.080 31.36 70.080 70.4 0.064 38.912-31.36 70.528-70.080 70.528zM510.080 639.616v-117.632h240.384l-88.448 117.632h-151.936zM440 639.616h-175.488l-88.448-117.632h263.936v117.632zM697.344 709.952l140.16-188.032h93.632c51.968 0 93.632-41.6 93.632-93.888v-140.864h-93.632c0-78.016-62.72-140.992-140.416-140.992-77.44 0-140.16 62.976-140.16 140.992h-280.896c0-78.016-62.72-140.992-140.16-140.992-77.696 0-140.416 62.976-140.416 140.992h-93.632v140.928c0 52.224 41.664 93.888 93.632 93.888l140.416 188.032h467.84z" />
<glyph unicode="&#xe926;" glyph-name="author" d="M512 336c-126.272 0-229.504 102.912-229.504 229.504 0 126.272 103.232 229.504 229.504 229.504 126.336 0 229.568-103.232 229.568-229.504 0-126.592-103.232-229.504-229.568-229.504zM512 882.624c-239.808 0-434.624-194.816-434.624-434.624 0-92.672 29.568-179.2 79.936-250.304 43.84 65.984 114.88 110.912 193.408 121.472 15.616 2.56 29.888-1.408 41.28-10.56 34.944-25.536 76.224-38.656 120-38.656 43.84 0 85.056 13.12 120 38.656 11.456 9.152 27.072 13.12 41.344 10.56 78.528-10.56 148.16-55.488 193.344-121.472 50.368 71.104 79.936 157.632 79.936 250.304 0 239.808-194.816 434.624-434.624 434.624zM512-64c-282.432 0-512 229.568-512 512 0 282.496 229.504 512 512 512s512-229.504 512-512c0-282.432-229.504-512-512-512z" />
<glyph unicode="&#xe927;" glyph-name="business, banks" d="M743.296 560.832c-9.152 0-17.408 1.92-25.408 5.12l-60.096-61.12c1.088-4.608 1.344-9.344 1.344-13.952 0-38.336-30.336-69.376-67.904-69.376-37.504 0-68.096 31.104-68.096 69.376 0 9.152 1.92 17.728 5.056 25.792l-50.88 51.712c-9.152-4.864-19.328-7.552-30.016-7.552-12.032 0-23.36 3.456-33.28 9.152l-94.4-96.256c5.888-10.24 9.408-22.016 9.408-34.624 0-38.4-30.592-69.504-68.096-69.504-37.568 0-68.096 31.104-68.096 69.504 0 38.336 30.592 69.184 68.096 69.184 5.312 0 10.432-0.768 15.488-1.856l104.896 106.944c-1.344 5.376-2.176 11.008-2.176 16.704 0 38.336 30.592 69.44 68.096 69.44s67.904-31.104 67.904-69.44c0-6.976-1.344-13.696-3.264-20.16l53.888-54.976c7.808 3.2 16.448 5.12 25.472 5.12 12.864 0 25.024-3.776 35.456-10.432l53.632 54.656c-3.264 8.064-5.12 16.64-5.12 25.792 0 38.336 30.592 69.44 68.096 69.44s68.096-31.104 68.096-69.44c0.064-38.4-30.528-69.248-68.096-69.248zM939.328 805.12c0 8.896-7.232 16.32-16.128 16.32h-827.2c-8.832 0-16.064-7.488-16.064-16.32v-529.344c0-9.152 7.232-16.384 16.064-16.384h827.2c8.896 0 16.128 7.232 16.128 16.384v529.344zM923.2 177.92h-373.44v-31.104l114.112-116.608-56.256-57.728-93.632 95.168-101.056-102.656-56.576 57.6 113.152 115.392v39.936h-373.504c-53.12 0-96 43.712-96 97.92v529.28c0 53.952 42.88 97.6 96 97.6h827.2c53.12 0 96.064-43.712 96.064-97.6v-529.344c0-54.144-42.944-97.856-96.064-97.856z" />
<glyph unicode="&#xe928;" glyph-name="calendar" d="M832.576 404.352h-235.008v-237.952h235.008v237.952zM785.6 928.128v-95.232h-550.912v95.232h-93.888v-95.232h-46.912c-52.096 0-93.888-42.432-93.888-95.232v-666.624c0-52.736 42.176-95.104 93.888-95.104h832.64c51.648 0 93.888 42.368 93.888 95.104v666.624c0 52.8-42.24 95.232-93.888 95.232h-46.912v95.232h-94.016zM926.528 71.040h-832.64v523.84h832.64v-523.84z" />
<glyph unicode="&#xe929;" glyph-name="clubs" d="M330.752 844.224c-54.72 0-101.376-19.52-140.16-58.304-38.784-38.72-58.24-85.44-58.24-140.16s19.456-101.568 58.24-140.48c38.784-38.528 85.376-57.856 140.16-57.856 54.72 0 101.568 19.392 140.416 57.856 38.592 38.848 57.984 85.76 57.984 140.48s-19.456 101.376-57.984 140.16c-38.784 38.848-85.696 58.304-140.416 58.304zM657.216 270.272c-3.008 26.24-8.448 52.352-16.448 78.72-7.808 26.112-18.112 48.896-30.208 67.648-12.096 18.624-28.288 34.048-48.512 45.888s-43.392 17.728-69.568 17.728c-44.992-43.904-98.944-65.92-161.728-65.92-62.592 0-116.48 22.016-161.728 65.92-26.176 0-49.344-5.952-69.568-17.728-19.904-11.84-36.096-27.264-48.512-45.888-12.096-18.752-22.080-41.536-30.144-67.648-7.808-26.368-13.184-52.48-16.192-78.72-3.008-25.792-4.608-53.632-4.608-82.624 0-37.76 10.752-69.888 32.32-96.768 21.568-26.752 47.424-40.256 77.888-40.256h441.216c30.208 0 56.128 13.504 77.696 40.256 21.504 26.88 32.32 59.008 32.32 96.768 0.064 28.992-1.472 56.832-4.224 82.624zM796.288 798.4c-38.016 0-70.656-13.504-97.6-40.512-26.944-26.88-40.512-59.52-40.512-97.536 0-38.272 13.568-70.912 40.512-97.792 26.944-27.008 59.648-40.384 97.6-40.384 38.272 0 70.784 13.376 97.792 40.384 26.944 26.88 40.448 59.52 40.448 97.792 0 38.016-13.504 70.656-40.448 97.536-26.944 27.008-59.52 40.512-97.792 40.512zM1023.488 398.848c-2.112 18.112-6.016 36.416-11.264 54.784-5.44 18.304-12.736 33.92-21.056 47.104-8.704 12.992-19.712 23.68-33.728 32.064-14.272 8.128-30.208 12.416-48.448 12.416-31.296-30.656-69.056-46.144-112.704-46.144-43.456 0-81.152 15.424-112.448 46.144-18.304 0-34.496-4.288-48.512-12.416-13.952-8.32-25.28-19.008-33.728-32-8.64-13.184-15.616-28.8-20.992-47.104-5.632-18.432-9.408-36.672-11.264-54.848-2.112-17.984-3.264-37.12-3.264-57.6 0-26.112 7.616-48.512 22.656-67.136 14.784-18.88 32.896-28.032 54.208-28.032h307.008c20.992 0 39.040 9.152 54.144 28.032 15.168 18.624 22.464 41.024 22.464 67.136-0.064 20.48-0.96 39.616-3.072 57.6z" />
<glyph unicode="&#xe92a;" glyph-name="home-heart" d="M514.688 140.608l36.736 32.832c131.328 116.864 217.92 193.792 217.92 288.32 0 76.672-61.76 137.28-140.096 137.28-44.352 0-86.592-20.352-114.56-52.288-28.032 32-70.208 52.288-114.624 52.288-78.4 0-140.032-60.544-140.032-137.28 0-94.528 86.656-171.456 217.856-288.32l36.8-32.832zM5.312 440.256l509.376 449.344 509.312-449.344h-152.832v-334.976c0-35.712-28.8-64.512-64.512-64.512h-588.544c-33.152 0-59.968 26.88-59.968 59.968v339.52h-152.832z" />
<glyph unicode="&#xe92b;" glyph-name="fun" d="M504 944c-278.656 0-504-226.816-504-504 0-278.4 225.6-504 504-504s504 225.6 504 504c0 278.4-225.6 504-504 504zM504 7.424c-238.976 0-432.576 193.536-432.576 432.576 0 238.976 193.6 432.576 432.576 432.576s432.576-193.6 432.576-432.576c0-238.976-193.6-432.576-432.576-432.576zM680.384 490.368c41.792 0 75.648 33.792 75.648 75.648s-33.792 75.584-75.648 75.584c-41.728 0-75.584-33.792-75.584-75.584s33.856-75.648 75.584-75.648zM327.616 490.368c41.792 0 75.584 33.792 75.584 75.648s-33.792 75.584-75.584 75.584c-41.792 0-75.584-33.792-75.584-75.584s33.792-75.648 75.584-75.648zM504 162.816c117.376 0 216.768 73.472 257.6 176.384h-515.2c40.256-102.912 140.224-176.384 257.6-176.384z" />
<glyph unicode="&#xe92c;" glyph-name="galeries" d="M232.256 398.848c-25.984 0-46.976 21.248-46.976 47.616 0 26.496 21.056 47.744 46.976 47.744 25.664 0 46.656-21.248 46.656-47.744 0-26.368-20.992-47.616-46.656-47.616zM304.896 123.392h-155.776l187.008 180.16 40.32-100.16 146.624 163.776 72.96-243.776h-291.136zM951.424 885.824h-608.896v-186.176h354.624c28.48 0 51.584-23.552 51.584-52.736v-381.888h202.752v620.8zM70.144 628.48v-621.248h608.768v621.248h-608.768zM969.344 193.728h-220.672v-204.864c0-28.992-23.040-52.864-51.584-52.864h-645.184c-28.416 0-51.904 23.872-51.904 52.864v658.048c0 29.248 23.488 52.736 51.904 52.736h220.736v204.928c0 28.992 23.168 52.8 51.712 52.8h645.12c28.736 0 52.032-23.808 52.032-52.8v-658.048c-0.128-29.248-23.36-52.8-52.16-52.8z" />
<glyph unicode="&#xe92d;" glyph-name="leaf" d="M768 673.152c-460.8-98.24-568.32-401.536-674.944-655.488l97.024-32.512 48.448 112.96c24.704-8.128 50.304-14.72 68.672-14.72 563.2 0 716.8 835.52 716.8 835.52-51.2-98.176-409.536-110.528-665.6-159.616-256-49.152-358.4-258.112-358.4-356.352s89.408-184.384 89.408-184.384c166.592 454.592 678.592 454.592 678.592 454.592z" />
<glyph unicode="&#xe92e;" glyph-name="it" d="M170.112 746.88v-384.064h681.088v384.064h-681.088zM127.68 832.384h766.016c23.36 0 42.432-19.136 42.432-42.688v-469.568c0-23.616-19.072-42.752-42.432-42.752h42.432l85.184-127.872v-42.752h-1021.312v42.752l85.184 127.872h42.496c-23.36 0-42.496 19.136-42.496 42.752v469.504c0 23.616 19.072 42.752 42.496 42.752z" />
<glyph unicode="&#xe92f;" glyph-name="cards" d="M539.008 156.992l-33.408-30.208c-1.408-1.152-3.2-1.152-4.608 0l-33.664 30.208c-128.32 114.368-213.056 189.952-213.056 282.496 0 75.136 60.352 134.4 136.96 134.4 42.112 0 82.176-18.88 109.76-48.832 1.152-1.344 3.52-1.344 4.608 0 27.328 29.952 67.648 48.832 109.76 48.832 76.608 0 137.024-59.264 137.024-134.4 0-92.544-84.736-168.128-213.376-282.496zM614.528 888.576c21.12-3.776 37.44-22.656 37.44-44.992v-95.872h-286.272l248.832 140.864zM770.944 747.776h-48.448v95.872c0 64.128-51.968 116.352-116.096 116.352h-9.344l-377.024-213.312c-36.928-5.888-65.344-37.824-65.344-76.416v-664.448c0-34.304 27.904-62.144 62.144-62.144h568.704c36.48 0 66.432 29.824 66.432 66.496v656.576c0 44.736-36.288 81.024-81.024 81.024z" />
<glyph unicode="&#xe930;" glyph-name="catalog" d="M256.256 778.176c-90.688 0-188.864-18.624-256.256-69.888v-683.072c0-11.456 11.52-23.296 23.296-23.296 4.672 0 6.848 3.456 11.52 3.456 63.040 30.144 153.728 50.624 221.44 50.624 90.688 0 188.864-18.624 256.256-69.888 62.784 39.744 177.088 69.888 256.256 69.888 76.672 0 155.968-14.272 221.44-49.344 4.352-2.176 6.848-1.28 11.584-1.28 11.456 0 23.232 11.52 23.232 23.296v679.616c-27.968 21.12-58.368 35.072-93.184 46.592v-628.928c-51.264 16.384-107.2 23.232-163.072 23.232-79.168 0-193.472-30.144-256.256-69.888v628.992c-67.392 51.264-165.568 69.888-256.256 69.888zM838.656 917.952l-232.96-209.664v-512.512l232.96 209.664v512.512z" />
<glyph unicode="&#xe931;" glyph-name="cinema" d="M408.768 812.608c-18.368 26.368-61.248 44.736-102.72 44.736-43.264 0-79.552-20.096-94.912-47.616l61.248-773.696h147.776l-11.392 776.576zM811.776 809.664c-15.424 27.52-51.776 47.616-94.976 47.616-41.408 0-84.288-18.304-102.656-44.672l-11.456-776.64h147.84l61.248 773.696zM254.72-66.688h-115.52c0 0-38.464 0-48.384 69.312l-90.56 864.64-2.176 15.744c0 42.56 46.144 76.992 102.656 76.992 56.448 0 102.656-34.432 102.656-76.992 0 42.56 46.208 76.992 102.656 76.992s102.656-34.432 102.656-76.992c0.064 42.56 46.208 76.992 102.72 76.992 56.064 0 102.656-33.728 102.656-76.992 0 42.56 46.144 76.992 102.656 76.992 56.448 0 102.656-34.432 102.656-76.992 0 42.56 46.208 76.992 102.656 76.992 56.512 0 102.656-34.432 102.656-76.992l-2.176-15.744-90.56-864.64c-9.92-69.312-48.448-69.312-48.448-69.312h-628.8z" />
<glyph unicode="&#xe932;" glyph-name="site-life, life" d="M727.872 106.176l-188.288 88.704c-15.168 7.104-32.128 7.104-46.976 0l-188.352-88.704 24.064 211.456c1.92 16.64-3.52 33.536-14.592 45.76l-140.288 156.48 202.88 41.984c16.256 3.2 30.080 13.568 38.144 28.224l101.632 185.6 101.568-185.6c8.128-14.656 21.888-25.088 37.824-28.288l203.2-41.984-140.48-156.48c-11.072-12.16-16.128-29.12-14.272-45.76l23.936-211.392zM793.536-46.72c30.976-1.152 56.96 23.872 57.984 56 0 2.752 0 5.504-0.448 8.512l-32.448 286.784 190.528 212.608c21.056 23.424 19.392 60.16-3.264 81.6-7.616 7.040-17.152 12.032-27.072 14.144l-275.904 56.896-137.984 251.776c-15.040 27.776-49.408 37.568-76.736 21.824-8.896-5.184-16.192-12.544-21.312-21.824l-137.728-251.776-275.904-56.832c-30.592-6.528-50.304-37.056-44.032-68.096 1.92-10.304 6.784-19.904 13.504-27.712l190.784-212.608-32.704-286.784c-3.52-31.808 18.368-60.48 49.408-64.256 10.24-1.152 20.544 0.512 30.016 4.928l255.872 120.512 255.872-120.512c6.72-3.328 14.016-4.992 21.568-5.184z" />
<glyph unicode="&#xe933;" glyph-name="mail" d="M1024 563.264v-479.36c0-52.8-45.76-96-102.464-96h-819.136c-56.64 0-102.4 43.2-102.4 96v479.36c0 35.2 19.84 65.28 49.6 81.92l462.4 270.976 462.4-271.040c29.76-16.64 49.6-46.656 49.6-81.856zM102.4 563.264l409.6-239.744 409.536 239.744-409.536 239.616-409.6-239.616z" />
<glyph unicode="&#xe934;" glyph-name="news" d="M820.096 340.544v101.12h-587.2v-101.12h587.2zM673.344 138.24v101.12h-440.448v-101.12h440.448zM232.896 947.328h391.488l293.632-303.424v-606.784c0-55.808-43.776-101.12-97.856-101.12h-587.264c-54.464 0-97.856 45.696-97.856 101.12v809.088c0 56.128 43.392 101.12 97.856 101.12zM575.424 593.408h269.12l-269.12 278.272v-278.272z" />
<glyph unicode="&#xe935;" glyph-name="transit" d="M715.904 714.816v-526.848c0-101.312-81.856-183.168-183.168-183.168s-183.168 81.856-183.168 183.168v572.736c0 63.232 51.136 114.432 114.368 114.432s114.688-51.136 114.688-114.432v-481.024c0-25.408-20.672-45.888-45.824-45.888-25.216 0-45.824 20.416-45.824 45.888v435.136h-68.928v-435.136c0-63.232 51.392-114.688 114.688-114.688 63.232 0 114.688 51.456 114.688 114.688v481.024c0 101.056-82.112 183.168-183.488 183.168-101.056 0-183.168-82.112-183.168-183.168v-572.672c0-139.136 112.832-252.032 251.968-252.032s251.968 112.896 251.968 252.032v526.784h-68.8z" />
<glyph unicode="&#xe936;" glyph-name="trip" d="M936.256 145.344c0-24.64-20.48-44.8-45.12-44.8h-109.248v550.592h109.248c24.64 0 45.12-20.16 45.12-44.8v-460.992zM85.12 145.344v460.992c0 24.64 20.416 44.8 45.12 44.8h112.64v-550.656h-112.64c-24.704 0-45.12 20.224-45.12 44.864zM378.432 811.776h264.448v-91.328h-264.448v91.328zM328 636.416h368.832v-535.936h-368.832v535.936zM891.136 735.104h-163.2v85.696c0 41.472-33.984 75.2-75.968 75.2h-282.624c-41.984 0-76.032-33.728-76.032-75.2v-85.696h-163.072c-71.744 0-130.24-57.792-130.24-128.768v-461.056c0-70.848 58.496-128.768 130.24-128.768h760.896c71.68 0 130.176 57.856 130.176 128.768v461.056c0 70.976-58.496 128.768-130.176 128.768z" />
<glyph unicode="&#xe937;" glyph-name="tv" d="M888.96 448.384c28.032 0 50.816-22.72 50.816-50.688 0-28.032-22.72-50.688-50.816-50.688s-50.816 22.656-50.816 50.688c0 27.968 22.656 50.688 50.816 50.688zM888.96 600.832c28.032 0 50.816-22.656 50.816-51.008 0-27.968-22.72-50.688-50.816-50.688s-50.816 22.656-50.816 50.688c0 28.352 22.656 51.008 50.816 51.008zM101.568 600.832h660.352v-508.096h-660.352v508.096zM312.832 905.472l-71.68-71.68 131.776-131.584h-271.36c-56.448 0.064-101.568-44.992-101.568-101.376v-508.096c0-56.384 45.12-101.504 101.568-101.504h812.8c56.448 0 101.568 45.12 101.568 101.504v508.096c0 56.32-45.12 101.44-101.568 101.44h-271.36l131.456 131.584-71.36 71.68-195.136-194.944-195.136 194.88z" />
<glyph unicode="&#xe938;" glyph-name="recipes" d="M34.176 119.104h962.176c15.168 0 27.84-12.032 27.84-27.136s-12.608-27.52-27.84-27.52h-962.176c-15.424 0-28.096 12.352-28.096 27.52s12.672 27.136 28.096 27.136zM748.224 437.952c38.912-37.952 83.392-56.192 99.712-40.128 16.064 16.064-2.112 59.84-40.704 97.792-38.912 38.272-83.648 56.128-99.712 40.128-16.32-15.744 1.92-59.584 40.704-97.792zM7.936 203.072c0 263.872 210.176 479.552 474.368 495.936v81.728h-75.008v54.72h202.752v-54.656h-72.192v-81.152c268.16-12.352 482.688-229.952 482.688-496.576v-27.456h-1012.608v27.456z" />
<glyph unicode="&#xe939;" glyph-name="site-weather, weather" d="M512.064 157.696c-170.112 0-308.608 131.072-308.608 292.992 0 161.856 138.496 292.928 308.608 292.928 170.496 0 308.672-131.072 308.672-292.928 0-161.92-138.176-292.992-308.672-292.992zM912.576 450.688l108.032 141.248c3.328 4.928 4.224 10.752 2.432 16.256-1.792 5.824-6.656 9.92-12.032 11.712l-174.912 54.464v174.080c0 5.76-3.008 11.328-7.808 14.848-5.504 3.456-11.456 4.672-17.472 2.304l-175.232-53.632-107.84 141.312c-7.232 9.024-23.808 9.024-31.296 0l-107.776-141.312-174.976 53.568c-6.016 2.432-12.032 1.216-17.472-2.24-4.8-3.52-7.808-9.088-7.808-14.848v-174.144l-174.976-54.464c-5.376-1.792-10.24-5.888-12.032-11.712-1.792-5.504-1.216-11.328 2.432-16.256l107.776-141.248-107.776-141.248c-3.648-4.672-4.224-10.752-2.432-16.32 1.792-5.888 6.656-9.92 12.032-11.712l174.976-54.464v-174.144c0-5.824 3.008-11.712 7.808-14.848 5.376-3.456 11.456-4.608 17.408-2.304l174.976 53.568 107.776-141.248c3.904-4.672 9.92-7.552 15.68-7.552 6.016 0 12.032 2.88 15.68 7.552l107.84 141.248 175.168-53.568c6.080-2.304 12.032-1.152 17.472 2.304 4.8 3.2 7.808 9.088 7.808 14.848v174.144l174.912 54.464c5.376 1.728 10.24 5.824 12.032 11.712 1.792 5.568 0.896 11.648-2.432 16.32l-107.968 141.312z" />
<glyph unicode="&#xe93a;" glyph-name="zodiac" d="M257.664 836.992c-8.512 10.432-20.608 17.152-33.92 18.304l-5.056 0.32c-25.664 0-47.424-19.456-50.24-45.312-1.408-13.312 2.56-26.432 11.264-36.864 8.512-10.432 20.608-17.088 33.92-18.304 27.968-2.88 52.48 17.408 55.36 45.056 1.024 13.248-2.944 26.368-11.328 36.8zM218.688 693.248c-3.712 0-7.616 0-11.328 0.576-29.632 2.944-56.512 17.472-75.392 40.704-18.944 23.168-27.648 52.224-24.832 82.112 6.144 61.312 61.504 106.24 122.752 99.904 61.632-6.080 106.496-61.248 100.352-122.816-5.952-57.536-54.848-100.48-111.552-100.48zM282.176 354.752c-2.56-0.96-4.8-1.28-7.040-1.28-9.856 0-18.88 6.208-22.016 15.744-3.968 12.224 2.816 24.896 14.656 29.056l23.168 7.552c-3.392 14.784-5.056 30.464-5.056 46.144 0 16 1.664 31.68 5.056 46.464l-23.168 7.552c-11.84 3.776-18.624 16.832-14.656 29.056 3.968 11.84 16.896 18.56 29.056 14.464l22.912-7.232c12.928 28.416 31.552 53.952 54.464 74.88l-14.144 19.776c-7.616 10.176-5.312 24.384 5.12 31.936 10.176 7.552 24.576 5.248 31.936-5.248l14.4-19.456c26.56 15.424 56.192 25.6 88.064 28.736v24.128c0 12.8 10.432 22.976 23.168 22.976s22.848-10.176 22.848-22.976v-24.128c31.936-3.136 61.76-13.312 88.064-28.736l14.464 19.456c7.36 10.496 21.696 12.8 31.872 5.248 10.432-7.552 12.672-21.76 5.056-31.936l-14.144-19.776c22.912-20.928 41.792-46.464 54.528-74.88l23.168 7.232c11.904 4.096 24.896-2.624 28.736-14.464 4.032-12.224-2.56-25.28-14.656-29.056l-23.104-7.552c3.456-14.784 5.12-30.528 5.12-46.464 0-15.68-1.664-31.36-5.12-46.144l23.104-7.552c12.096-4.096 18.688-16.832 14.656-28.992-3.072-9.536-12.096-15.744-21.696-15.744-2.56 0-4.8 0.32-7.040 1.28l-23.168 7.232c-12.672-28.8-31.552-54.016-54.528-74.88l14.144-19.84c7.616-10.24 5.376-24.448-5.056-31.936-3.968-3.008-8.832-4.288-13.248-4.288-7.296 0-14.144 3.072-18.624 9.344l-14.464 19.648c-26.304-15.36-56.192-25.536-88.064-28.672v-24.128c0-12.8-10.176-22.848-22.848-22.848s-23.168 10.048-23.168 22.848v24.128c-31.936 3.136-61.568 13.312-88.064 28.672l-14.4-19.648c-4.224-6.272-11.264-9.344-18.368-9.344-4.8 0-9.6 1.344-13.504 4.288-10.176 7.488-12.672 21.696-5.12 31.936l14.144 19.84c-22.912 20.864-41.536 46.080-54.464 74.88l-22.976-7.296zM1013.248 400.896c-13.568-135.040-79.040-256.768-184.384-342.464-91.456-74.496-203.648-114.368-319.936-114.368-17.472 0-34.688 0.96-52.224 2.752-134.976 13.568-256.704 79.168-342.208 184.256-85.888 105.28-125.376 237.248-111.872 372.288 7.040 68.224 27.136 133.568 60.16 193.664 8.128 14.784 27.072 20.352 41.728 11.904 14.976-8.064 20.352-26.688 12.16-41.472-28.8-52.864-46.592-110.080-52.864-170.24-12.096-118.72 22.912-234.88 98.304-327.232 75.392-92.224 182.144-149.824 300.736-162.048 118.784-12.096 234.944 23.040 327.232 98.24 92.288 75.456 150.016 182.272 161.792 300.8 12.096 118.72-22.912 234.816-97.984 327.232-75.392 92.352-182.464 149.824-300.992 161.984-61.184 6.464-124.48-0.576-182.592-19.392-16.384-5.248-33.664 3.776-38.72 19.712-5.312 16.256 3.392 33.664 19.776 38.912 66.368 21.504 138.112 29.056 207.872 22.080 134.912-13.632 256.64-79.296 342.208-184.384 85.824-105.152 125.696-237.184 111.808-372.224z" />
<glyph unicode="&#xe93b;" glyph-name="gear" d="M888.256 345.088c-8.704-31.232-21.248-60.864-36.992-88.384 2.24-2.88 85.184-107.2 34.24-158.080l-25.344-25.344c-38.208-38.208-133.824 21.632-156.608 36.8-29.056-16.32-60.48-28.992-93.568-37.504l6.656-0.192c0 0-18.112-136.384-91.2-136.384h-25.088c-55.68 0-86.72 116.8-92.096 138.816-32.768 9.28-63.808 22.656-92.352 39.552l5.056-5.312c0 0-107.968-84.928-159.616-33.28l-22.848 19.008c-39.232 39.232 24 143.296 36.672 163.136-15.232 26.944-27.52 55.872-36.096 86.336-21.44 5.184-139.072 36.224-139.072 92.16v25.024c0 64.512 112.128 86.144 138.432 90.368 8.384 30.72 20.608 59.84 35.84 86.976-12.032 18.24-77.888 122.688-38.272 162.304l24.128 20.352c45.44 45.376 138.56-18.944 160.32-35.072 27.584 15.744 57.152 28.352 88.384 37.056 6.912 27.392 37.76 136.576 91.52 136.576h25.088c62.656 0 84.8-105.6 89.856-135.808 31.68-8.576 61.696-21.12 89.6-36.992 23.616 15.36 120.896 74.816 158.912 36.736l22.784-24.064c44.48-44.544-17.28-134.72-35.2-158.848 15.808-27.584 28.352-57.344 36.928-88.576 8.128-1.088 135.68-20.224 135.68-91.008v-25.024c0-53.376-107.2-84.16-135.744-91.328zM512.128 735.936c-159.040 0-288-128.96-288-288.064 0-159.040 128.96-288 288-288 159.104 0 288 128.96 288 288 0.064 159.104-128.896 288.064-288 288.064zM512.128 255.872c-106.048 0-192 86.016-192 192 0 106.048 85.952 192 192 192s192-85.952 192-192c0-105.984-85.952-192-192-192zM512.128 543.872c-53.056 0-96-42.944-96-96 0-52.992 42.944-96 96-96s96 43.008 96 96c0 53.056-42.944 96-96 96z" />
<glyph unicode="&#xe93c;" glyph-name="clock-o" horiz-adv-x="878" d="M512 640v-256c0-10.286-8-18.286-18.286-18.286h-182.857c-10.286 0-18.286 8-18.286 18.286v36.571c0 10.286 8 18.286 18.286 18.286h128v201.143c0 10.286 8 18.286 18.286 18.286h36.571c10.286 0 18.286-8 18.286-18.286zM749.714 438.857c0 171.429-139.429 310.857-310.857 310.857s-310.857-139.429-310.857-310.857 139.429-310.857 310.857-310.857 310.857 139.429 310.857 310.857zM877.714 438.857c0-242.286-196.571-438.857-438.857-438.857s-438.857 196.571-438.857 438.857 196.571 438.857 438.857 438.857 438.857-196.571 438.857-438.857z" />
<glyph unicode="&#xe93d;" glyph-name="check" d="M927.936 687.008l-68.288 68.288c-12.608 12.576-32.96 12.576-45.536 0l-409.44-409.44-194.752 196.16c-12.576 12.576-32.928 12.576-45.536 0l-68.288-68.288c-12.576-12.608-12.576-32.96 0-45.536l285.568-287.488c12.576-12.576 32.96-12.576 45.536 0l500.736 500.768c12.576 12.544 12.576 32.96 0 45.536z" />
<glyph unicode="&#xe93e;" glyph-name="external-link" d="M804.571 420.571v-182.857c0-90.857-73.714-164.571-164.571-164.571h-475.429c-90.857 0-164.571 73.714-164.571 164.571v475.429c0 90.857 73.714 164.571 164.571 164.571h402.286c10.286 0 18.286-8 18.286-18.286v-36.571c0-10.286-8-18.286-18.286-18.286h-402.286c-50.286 0-91.429-41.143-91.429-91.429v-475.429c0-50.286 41.143-91.429 91.429-91.429h475.429c50.286 0 91.429 41.143 91.429 91.429v182.857c0 10.286 8 18.286 18.286 18.286h36.571c10.286 0 18.286-8 18.286-18.286zM1024 914.286v-292.571c0-20-16.571-36.571-36.571-36.571-9.714 0-18.857 4-25.714 10.857l-100.571 100.571-372.571-372.571c-3.429-3.429-8.571-5.714-13.143-5.714s-9.714 2.286-13.143 5.714l-65.143 65.143c-3.429 3.429-5.714 8.571-5.714 13.143s2.286 9.714 5.714 13.143l372.571 372.571-100.571 100.571c-6.857 6.857-10.857 16-10.857 25.714 0 20 16.571 36.571 36.571 36.571h292.571c20 0 36.571-16.571 36.571-36.571z" />
<glyph unicode="&#xe93f;" glyph-name="plus, add, sum" d="M992 576h-352v352c0 17.672-14.328 32-32 32h-192c-17.672 0-32-14.328-32-32v-352h-352c-17.672 0-32-14.328-32-32v-192c0-17.672 14.328-32 32-32h352v-352c0-17.672 14.328-32 32-32h192c17.672 0 32 14.328 32 32v352h352c17.672 0 32 14.328 32 32v192c0 17.672-14.328 32-32 32z" />
<glyph unicode="&#xe940;" glyph-name="x" horiz-adv-x="640" d="M640 640l-128 128-192-192-192 192-128-128 192-192-192-192 128-128 192 192 192-192 128 128-192 192 192 192z" />
<glyph unicode="&#xe941;" glyph-name="plus2" horiz-adv-x="640" d="M384 512v256h-128v-256h-256v-128h256v-256h128v256h256v128h-256z" />
<glyph unicode="&#xe942;" glyph-name="user-circle-o" d="M512 950.857c282.857 0 512-229.143 512-512 0-281.143-228-512-512-512-283.429 0-512 230.286-512 512 0 282.857 229.143 512 512 512zM865.714 178.857c53.143 73.143 85.143 162.857 85.143 260 0 241.714-197.143 438.857-438.857 438.857s-438.857-197.143-438.857-438.857c0-97.143 32-186.857 85.143-260 20.571 102.286 70.286 186.857 174.857 186.857 46.286-45.143 109.143-73.143 178.857-73.143s132.571 28 178.857 73.143c104.571 0 154.286-84.571 174.857-186.857zM731.429 548.571c0 121.143-98.286 219.429-219.429 219.429s-219.429-98.286-219.429-219.429 98.286-219.429 219.429-219.429 219.429 98.286 219.429 219.429z" />
<glyph unicode="&#xe943;" glyph-name="varna" horiz-adv-x="1464" d="M302.164-63.329c-102.064 0-209.5 14.101-291.42 42.303v931.336c76.548 26.859 183.984 42.974 282.691 42.974 237.702 0 388.784-87.963 388.784-265.904 0-112.808-71.848-179.284-148.396-208.829 97.364-30.888 189.356-111.465 189.356-247.103 0-198.757-151.082-294.778-421.015-294.778zM302.164 821.676h-20.144c-39.617-1.343-65.133-4.029-91.992-10.072v-285.377h76.548c153.768 0 236.359 33.574 236.359 151.082 0 102.064-73.862 144.367-200.771 144.367zM269.933 404.69h-79.234v-322.308c28.202-5.372 66.476-11.415 112.808-11.415 132.952 0 233.002 38.274 233.002 163.84 0 131.609-91.321 169.883-266.576 169.883zM1458.445-47.885h-176.598v345.138h-268.59v-345.138h-177.941v766.153h177.941v-294.106h268.59v294.106h176.598v-766.153z" />
<glyph unicode="&#xe944;" glyph-name="sofia" horiz-adv-x="1343" d="M323.422 147.897c-203.786 0-323.422 157.655-323.422 387.295 0 227.105 132.309 388.309 326.463 388.309 94.796 0 162.218-28.895 192.127-50.186l-36.499-101.386c-32.95 20.277-78.067 38.527-137.885 38.527-90.741 0-153.6-54.242-178.44-147.010-14.701-42.582-22.305-91.754-20.277-143.968 3.042-121.663 50.186-222.036 145.996-246.368 21.291-6.59 43.596-8.618 67.422-7.604 59.818 2.028 100.372 19.263 129.267 33.964l36.499-102.4c-35.992-25.853-108.483-49.172-201.251-49.172zM913.489-52.848v210.376c-21.291-1.014-43.596-1.014-67.422 3.042-124.705 16.222-215.446 106.455-228.119 246.368-15.208 185.537 78.067 313.79 228.119 329.505 23.319 3.042 46.131 2.028 67.422 1.014v207.842h132.309v-207.842c19.263 1.014 40.554 3.042 63.873 0 144.982-13.687 248.396-140.927 231.667-332.040-12.673-144.982-108.99-231.667-230.653-246.368-23.319-3.042-44.61-3.042-64.887-2.028v-210.376h-132.309zM913.489 263.984v372.594c-13.687 2.028-28.895 3.042-46.131 1.014-79.081-10.646-118.622-83.137-118.622-187.564 0-114.059 49.172-187.564 138.899-190.099 8.618 0 17.236 2.028 25.853 4.055zM1045.798 636.578v-372.594c14.701-3.042 28.895-4.055 47.145-2.028 74.519 9.632 117.608 82.123 117.608 189.085 0 112.032-49.172 185.537-137.885 189.085-11.152-0.507-19.263-2.535-26.867-3.549z" />
<glyph unicode="&#xe945;" glyph-name="ruse" horiz-adv-x="1759" d="M222.059 439.48h-51.667v-301.758h-149.505v787.65c64.859 21.986 149.505 34.628 228.105 34.628 223.158 0 329.791-98.388 329.791-260.535 0-170.941-119.274-267.13-356.724-259.985zM251.191 850.070c-35.727 0-62.66-5.497-80.799-9.344v-290.216h48.369c141.26-5.497 209.417 37.926 209.417 150.604 0 107.182-68.157 148.955-176.988 148.955zM1005.862 71.764c-35.727-87.944-74.203-135.214-151.704-135.214-56.614 0-100.586 21.986-128.618 33.529l29.132 96.189c30.231-13.741 48.369-23.085 67.057-23.085 43.972 0 57.713 62.66 69.256 102.785-78.6 190.729-155.002 400.146-220.96 618.907h153.902c30.231-120.374 67.057-247.343 109.93-374.862 11.543-40.674 20.887-77.501 27.483-93.441 4.397 5.497 14.841 56.614 25.284 93.441 37.926 124.771 69.256 244.045 102.785 374.862h141.81c-70.355-247.893-144.558-478.196-225.357-693.11zM1594.538 124.53c-176.988 0-279.772 127.519-279.772 326.493s112.129 326.493 276.475 326.493c72.004 0 125.87-18.688 162.147-39.575-10.443-34.628-20.887-68.157-32.429-102.785-28.032 14.841-61.561 28.032-107.732 28.032-102.785 0-150.604-79.699-150.604-210.516 0-128.618 47.27-210.516 153.902-210.516 45.071 0 83.547 13.741 113.228 31.33l29.132-107.732c-32.429-21.436-91.242-41.224-164.346-41.224z" />
<glyph unicode="&#xe946;" glyph-name="burgas" horiz-adv-x="1378" d="M644.863 948.791v-150.995h-452.986v-209.679c34.947 3.956 58.024 5.275 92.971 5.275 269.023 0 433.205-95.608 433.205-327.706 0-222.207-158.249-321.772-420.677-321.772-84.399 0-187.261 12.528-276.276 40.222v964.657h623.763zM280.891 443.714c-32.968 0-58.024-1.319-89.015-3.956v-331.663c29.012-7.253 63.959-12.528 109.455-12.528 126.599 0 237.373 38.903 237.373 168.139 0.659 127.258-100.883 180.008-257.813 180.008zM1165.105-64c-212.317 0-335.619 152.314-335.619 391.665 0 238.692 134.511 391.006 331.663 391.006 86.377 0 150.995-22.419 194.514-47.475-12.528-41.54-25.056-81.762-38.903-123.302-32.968 17.803-73.849 33.628-129.236 33.628-123.302 0-180.667-95.608-180.667-252.538 0-154.292 56.706-252.538 184.623-252.538 54.068 0 100.224 16.484 135.83 37.584l34.947-129.236c-38.903-25.056-109.455-48.793-197.151-48.793z" />
<glyph unicode="&#xe947;" glyph-name="plovdiv" horiz-adv-x="1202" d="M454.822 154.835v665.34h-304.081v-665.34h-138.786v784.374h580.613v-784.374h-137.746zM926.798-64c-80.049 0-152.301 16.634-203.241 38.465 10.916 34.826 20.792 71.212 31.708 106.039 33.787-16.634 84.207-30.668 134.627-33.787 44.703-1.040 79.009 7.797 103.959 23.911 42.623 17.673 65.494 54.579 65.494 101.88v27.549c-17.673-9.876-59.257-26.51-116.954-26.51-147.103 0-251.062 100.321-251.062 285.369 0 184.008 102.92 307.2 290.047 307.2 90.964 0 165.295-17.673 211.038-38.465v-539.549c0-172.053-95.123-252.102-265.616-252.102zM1057.787 654.879c-17.673 7.797-41.584 10.916-80.049 10.916-98.242 0-147.622-77.45-147.622-202.201 0-128.91 51.46-190.246 136.707-190.246 37.425 0 70.173 10.916 90.964 24.95v356.581z" />
<glyph unicode="&#xe948;" glyph-name="futbol-o, soccer-ball-o, corner, sport" d="M348 484.571l164 118.857 164-118.857-62.286-192h-202.857zM512 950.857c282.857 0 512-229.143 512-512s-229.143-512-512-512-512 229.143-512 512 229.143 512 512 512zM865.714 179.428c53.714 73.143 85.143 162.286 85.143 259.429v1.714l-58.286-50.857-137.143 128 36 184.571 76.571-6.857c-54.286 74.857-132 132.571-222.286 161.143l30.286-70.857-164-90.857-164 90.857 30.286 70.857c-90.286-28.571-168-86.286-222.286-161.143l77.143 6.857 35.429-184.571-137.143-128-58.286 50.857v-1.714c0-97.143 31.429-186.286 85.143-259.429l17.143 75.429 186.286-22.857 79.429-170.286-66.286-39.429c42.857-14.286 89.143-22.286 137.143-22.286s94.286 8 137.143 22.286l-66.286 39.429 79.429 170.286 186.286 22.857z" />
<glyph unicode="&#xe949;" glyph-name="wi-thunderstorm" d="M158.037 382.805c0-37.888 11.264-71.68 33.792-101.376s51.883-50.176 88.064-61.099l-22.528-57.344c-1.024-4.779 0.683-7.509 4.779-7.509h72.704l-33.451-146.773h9.557l133.803 196.267c1.365 1.365 1.365 3.072 0.341 4.779s-2.731 2.389-5.12 2.389h-74.411l84.651 158.379c2.389 4.779 0.683 7.509-4.779 7.509h-100.352c-3.072 0-5.803-1.707-7.851-5.12l-36.523-97.963c-24.235 6.144-44.373 19.456-60.416 39.595s-23.893 43.008-23.893 68.608c0 28.331 9.557 52.907 29.013 74.069 19.456 20.821 43.349 33.109 71.68 36.523l18.091 2.389c4.437 0 6.827 2.048 6.827 6.144l2.389 17.408c3.755 36.864 19.115 67.925 46.763 92.843s60.075 37.547 97.28 37.547c37.205 0 69.632-12.629 97.28-37.547 27.989-24.917 43.691-55.979 47.787-92.843l2.389-19.797c0-3.755 2.048-5.803 6.144-5.803h54.613c31.061 0 57.344-10.923 79.189-32.427s33.109-47.787 33.109-77.824c0-29.013-10.24-54.272-30.379-75.435s-45.397-33.109-75.093-35.499c-4.437 0-6.827-2.048-6.827-6.144v-46.763c0-3.755 2.389-5.803 6.827-5.803 45.397 1.365 83.968 18.773 115.712 51.541s47.445 72.021 47.445 117.76c0 30.72-7.509 59.051-22.869 84.992-15.019 25.941-35.84 46.421-61.781 61.44-26.283 15.019-54.613 22.528-85.333 22.528h-10.581c-11.264 45.397-35.499 82.603-72.021 111.275s-78.507 43.349-125.611 43.349c-48.128 0-91.136-15.019-128.341-44.715s-61.099-67.925-71.68-114.688c-37.888-8.875-68.949-28.331-93.525-59.051s-36.864-66.56-36.864-105.813zM435.883 51.371c0-13.312 6.485-22.187 19.797-26.283 0.341 0 1.707 0 3.755-0.341s3.755-0.341 4.779-0.341c5.803 0 11.264 1.707 16.725 5.12s9.216 8.875 10.923 16.384l76.8 296.619c2.048 8.192 1.365 15.36-2.389 22.187-3.755 6.485-9.216 10.923-17.067 13.312-5.803 0.683-8.875 1.024-8.875 1.024-5.461 0-10.923-1.707-16.043-5.12s-8.875-8.533-10.581-15.36l-77.141-297.643c-0.341-3.413-0.683-6.485-0.683-9.557zM577.877 155.819c0-4.437 1.024-8.875 3.413-12.971 4.779-7.509 10.581-12.629 17.408-15.019 3.755-1.024 7.168-1.707 10.24-1.707s6.827 0.683 10.923 2.731c7.168 3.072 11.947 9.557 14.336 19.456l49.152 193.536c1.024 4.779 1.707 7.851 1.707 9.216 0 5.12-1.707 10.24-5.461 15.36s-8.875 8.875-15.701 10.923c-5.803 0.683-8.875 1.024-8.875 1.024-5.803 0-11.264-1.707-16.043-5.12s-8.192-8.533-10.24-15.36l-49.835-194.56c0-0.683 0-1.707-0.341-3.755-0.683-1.707-0.683-2.731-0.683-3.755z" />
<glyph unicode="&#xe94a;" glyph-name="wi-snow" d="M158.379 381.44c0 39.595 11.947 74.411 36.181 105.131s55.296 50.517 93.525 60.075c10.581 46.421 34.475 84.651 71.68 114.688s79.872 44.715 128 44.715c47.104 0 88.747-14.677 125.611-43.691s60.757-66.56 71.68-112.299h10.923c30.379 0 58.709-7.509 84.651-22.528s46.763-35.499 61.781-61.44c15.019-25.941 22.869-54.272 22.869-84.651 0-45.056-15.701-84.309-47.445-116.736-31.403-32.768-69.973-49.835-115.371-51.2-4.437 0-6.827 2.048-6.827 5.803v45.397c0 4.096 2.389 6.144 6.827 6.144 29.013 1.365 53.931 12.971 74.411 34.816s30.72 47.104 30.72 76.117c0 30.379-10.923 56.32-33.109 78.507s-48.469 33.109-79.189 33.109h-54.955c-4.096 0-6.144 2.048-6.144 5.803l-2.731 19.797c-3.755 36.864-19.797 67.925-47.445 92.843-27.989 24.917-60.075 37.547-97.28 37.547-37.547 0-69.973-12.629-97.621-37.888s-43.349-56.32-46.763-93.867l-2.048-17.067c0-4.096-2.389-6.485-6.827-6.485l-18.091-2.389c-28.331-2.389-52.224-13.995-71.68-35.499s-29.013-46.080-29.013-74.752c0-29.013 10.24-54.272 30.72-76.117s45.397-33.109 74.411-34.816c3.755 0 5.803-2.048 5.803-6.144v-45.397c0-3.755-2.048-5.803-5.803-5.803-45.739 1.365-84.309 18.432-116.053 51.2-29.696 32.768-45.397 72.021-45.397 117.077zM375.467 242.517c0 7.509 2.731 14.336 8.192 19.797s11.947 8.192 20.139 8.192c7.851 0 14.677-2.731 20.139-8.192s8.192-12.288 8.192-19.797c0-8.192-2.731-15.019-8.192-20.48-5.461-5.803-11.947-8.533-20.139-8.533-7.851 0-14.677 2.731-20.139 8.533-5.461 5.461-8.192 12.288-8.192 20.48zM375.467 118.613c0 8.192 2.731 15.019 8.192 20.48 5.461 5.12 11.947 7.851 19.797 7.851s14.677-2.731 20.139-7.851c5.461-5.461 8.192-11.947 8.192-20.139s-2.731-14.677-8.192-20.139c-5.461-5.461-11.947-7.851-20.139-7.851-7.851 0-14.677 2.731-20.139 7.851-5.12 5.12-7.851 11.947-7.851 19.797zM484.352 176.64c0 7.851 2.731 15.019 8.533 21.163 5.461 5.461 11.947 8.192 19.456 8.192 7.851 0 14.677-3.072 20.48-8.875s8.875-12.629 8.875-20.48c0-7.851-2.731-14.677-8.533-20.48s-12.629-8.533-20.821-8.533c-7.851 0-14.336 2.731-19.797 8.533s-8.192 12.629-8.192 20.48zM484.352 300.203c0 7.851 2.731 14.677 8.533 20.48 6.144 5.461 12.629 8.192 19.456 8.192 8.192 0 15.019-2.731 20.821-8.533s8.533-12.288 8.533-20.48c0-7.851-2.731-14.677-8.533-20.139s-12.629-8.192-20.821-8.192c-7.851 0-14.336 2.731-19.797 8.192-5.461 5.803-8.192 12.629-8.192 20.48zM484.352 51.712c0 7.851 2.731 14.677 8.533 20.821 5.461 5.461 11.947 8.192 19.456 8.192 8.192 0 15.019-2.731 20.821-8.533s8.533-12.629 8.533-20.48-2.731-14.677-8.533-20.139c-5.803-5.461-12.629-8.192-20.821-8.192-7.851 0-14.336 2.731-19.797 8.192-5.461 5.803-8.192 12.288-8.192 20.139zM594.261 242.517c0 7.509 2.731 13.995 8.533 19.797s12.629 8.533 20.48 8.533c7.851 0 14.677-2.731 20.139-8.192s8.192-12.288 8.192-19.797c0-8.192-2.731-15.019-8.192-20.48-5.461-5.803-11.947-8.533-20.139-8.533s-15.019 2.731-20.48 8.533c-5.461 5.461-8.533 12.288-8.533 20.139zM594.261 118.613c0 7.509 2.731 14.336 8.533 20.48 5.461 5.12 12.288 7.851 20.48 7.851s14.677-2.731 20.139-7.851 7.851-11.947 7.851-20.139c0-8.192-2.731-14.677-7.851-20.139-5.461-5.461-11.947-7.851-20.139-7.851s-15.019 2.731-20.48 8.192c-5.461 5.12-8.533 11.605-8.533 19.456z" />
<glyph unicode="&#xe94b;" glyph-name="wi-snow-wind" d="M158.379 381.44c0 39.595 11.947 74.411 36.181 105.131s55.296 50.517 93.525 60.075c10.581 46.421 34.475 84.651 71.68 114.688s79.872 44.715 128 44.715c47.104 0 88.747-14.677 125.611-43.691s60.757-66.56 71.68-112.299h10.923c30.379 0 58.709-7.509 84.651-22.528s46.763-35.499 61.781-61.44c15.019-25.941 22.869-54.272 22.869-84.651 0-45.056-15.701-84.309-47.445-116.736-31.403-32.768-69.973-49.835-115.371-51.2-4.437 0-6.827 2.048-6.827 5.803v45.397c0 4.096 2.389 6.144 6.827 6.144 29.013 1.365 53.931 12.971 74.411 34.816s30.72 47.104 30.72 76.117c0 30.379-10.923 56.32-33.109 78.507s-48.469 33.109-79.189 33.109h-54.955c-4.096 0-6.144 2.048-6.144 5.803l-2.731 19.797c-3.755 36.864-19.797 67.925-47.445 92.843-27.989 24.917-60.075 37.547-97.28 37.547-37.547 0-69.973-12.629-97.621-37.888s-43.349-56.32-46.763-93.867l-2.048-17.067c0-4.096-2.389-6.485-6.827-6.485l-18.091-2.389c-28.331-2.389-52.224-13.995-71.68-35.499s-29.013-46.080-29.013-74.752c0-29.013 10.24-54.272 30.72-76.117s45.397-33.109 74.411-34.816c3.755 0 5.803-2.048 5.803-6.144v-45.397c0-3.755-2.048-5.803-5.803-5.803-45.739 1.365-84.309 18.432-116.053 51.2-29.696 32.768-45.397 72.021-45.397 117.077zM346.112 118.613c0 7.851 2.731 14.677 8.533 20.48 5.461 5.12 11.947 7.851 19.456 7.851 7.851 0 14.677-2.731 20.139-7.851s8.192-11.947 8.192-20.139c0-8.192-2.731-14.677-8.192-20.139s-11.947-7.851-20.139-7.851c-7.851 0-14.677 2.731-20.139 7.851-5.12 5.12-7.851 11.947-7.851 19.797zM375.467 242.517c0 7.509 2.731 14.336 8.192 19.797s11.947 8.192 20.139 8.192c7.851 0 14.677-2.731 20.139-8.192s8.192-12.288 8.192-19.797c0-8.192-2.731-15.019-8.192-20.48-5.461-5.803-11.947-8.533-20.139-8.533-7.851 0-14.677 2.731-20.139 8.533-5.461 5.461-8.192 12.288-8.192 20.48zM440.32 51.712c0 7.851 2.731 14.677 8.533 20.821 5.461 5.461 11.947 8.192 19.456 8.192 8.192 0 15.019-2.731 20.821-8.533s8.533-12.629 8.533-20.48-2.731-14.677-8.533-20.139c-5.803-5.461-12.629-8.192-20.821-8.192-7.851 0-14.336 2.731-19.797 8.192-5.12 5.803-8.192 12.288-8.192 20.139zM470.016 176.64c0 8.192 2.731 15.019 8.192 21.163 5.461 5.461 12.288 8.192 19.797 8.192 7.851 0 14.677-2.731 20.48-8.533s8.533-12.629 8.533-20.821c0-7.851-2.731-14.677-8.533-20.48s-12.629-8.533-20.48-8.533c-7.851 0-14.336 2.731-19.797 8.533s-8.192 12.629-8.192 20.48zM484.352 300.203c0 7.851 2.731 14.677 8.533 20.48 6.144 5.461 12.629 8.192 19.456 8.192 8.192 0 15.019-2.731 20.821-8.533s8.533-12.288 8.533-20.48c0-7.851-2.731-14.677-8.533-20.139s-12.629-8.192-20.821-8.192c-7.851 0-14.336 2.731-19.797 8.192-5.461 5.803-8.192 12.629-8.192 20.48zM565.248 118.613c0 7.851 2.731 14.677 8.192 20.48 5.461 5.12 12.288 7.851 20.48 7.851s14.677-2.731 20.139-7.851c5.461-5.461 7.851-11.947 7.851-20.139s-2.731-14.677-7.851-20.139c-5.461-5.461-11.947-7.851-20.139-7.851s-15.019 2.731-20.48 8.192c-5.461 5.12-8.192 11.605-8.192 19.456zM594.261 242.517c0 7.509 2.731 13.995 8.533 19.797s12.629 8.533 20.48 8.533c7.851 0 14.677-2.731 20.139-8.192s8.192-12.288 8.192-19.797c0-8.192-2.731-15.019-8.192-20.48-5.461-5.803-11.947-8.533-20.139-8.533s-15.019 2.731-20.48 8.533c-5.461 5.461-8.533 12.288-8.533 20.139z" />
<glyph unicode="&#xe94c;" glyph-name="wi-sleet" d="M139.605 381.44c0 39.595 12.288 74.752 36.864 105.472s55.979 50.859 93.525 59.392c10.581 46.763 34.475 84.992 71.68 115.029s80.213 45.056 128.683 45.056c27.648 0 52.907-4.437 75.093-13.653 0-0.341 0-0.341 0.341-0.683 28.672-10.923 53.931-28.672 75.435-52.907h1.024c23.211-24.917 38.571-54.613 46.763-89.429h10.581c36.864 0 68.949-9.899 96.597-29.355v0.341c18.091-12.288 33.451-27.307 45.739-45.397s20.48-37.888 24.917-59.392c1.365-7.168 2.048-12.971 2.731-17.749v-2.048c0-0.341 0-2.048 0.341-5.803s0.341-6.485 0.341-8.192v-1.024c0-30.037-7.168-58.027-21.845-83.627-14.336-25.6-34.133-46.421-59.392-61.781-24.917-15.36-52.565-23.552-82.603-24.576-4.437 0-6.827 2.048-6.827 5.803v45.739c0 4.437 2.389 6.485 6.827 6.485 29.355 1.365 53.931 12.971 74.411 34.816s30.72 47.445 30.72 77.141c0 30.379-10.923 56.32-33.109 78.165-21.845 21.845-48.128 32.768-78.848 32.768h-54.955c-4.096 0-6.144 2.048-6.144 5.803l-2.731 20.139c-3.413 34.133-17.749 63.488-43.349 88.405-0.341 0.341-0.341 0.683-0.683 1.024s-0.683 0.683-0.683 1.024c-0.341 0.341-0.683 0.683-1.365 0.683 0 0.683-0.341 1.024-0.683 1.024-24.917 22.528-53.931 35.499-87.381 38.229-2.389 0.341-6.144 0.341-11.605 0.341-37.547 0-69.973-12.629-97.621-37.547s-43.349-55.979-46.763-92.843l-2.731-20.139c-1.024-3.072-3.755-4.779-7.509-4.779l-16.725-1.024c-28.672-3.413-52.907-15.701-72.021-36.523s-28.672-45.739-28.672-74.411v-1.365h1.024c0.341-16.384 3.755-31.744 10.24-46.080 6.827-14.677 15.701-26.965 27.307-37.205 7.168-6.144 15.36-11.605 25.259-16.384v-0.341c13.653-6.485 27.307-10.24 41.301-10.923 3.755 0 5.803-2.048 5.803-6.144v-45.739c0-3.755-2.048-5.803-5.803-5.803-17.749 1.024-34.475 4.437-50.517 10.24v-0.341c-28.331 9.899-52.565 26.283-72.021 48.811s-32.427 49.152-37.888 78.848v1.024c-0.341 0.341-0.341 0.683-0.341 1.365-2.048 8.875-2.731 19.115-2.731 30.037zM327.339 136.704c0 1.024 0.341 2.389 0.683 4.437 0.341 1.707 0.683 3.072 0.683 4.096l3.072 20.139c2.389 8.192 6.827 13.995 13.995 18.091s14.677 4.779 23.211 2.731c7.851-2.389 13.312-7.168 17.408-13.995 3.755-7.168 4.437-14.336 2.389-21.504l-4.779-20.48c-3.413-15.019-11.947-22.528-25.941-22.528-1.024 0-2.731 0.341-4.779 0.683s-3.413 0.683-4.779 0.683c-7.168 2.048-12.288 5.803-15.701 11.264-3.755 5.12-5.461 10.581-5.461 16.384zM352.597 237.056c0 8.192 2.731 14.677 7.851 20.139s11.947 7.851 20.139 7.851 14.677-2.731 20.139-7.851 7.851-11.947 7.851-20.139c0-7.851-2.731-14.336-7.851-19.797s-11.947-7.851-20.139-7.851c-7.851 0-14.336 2.731-19.456 8.192-5.461 5.461-8.533 11.947-8.533 19.456zM408.576 32.597c0 1.365 0.341 3.755 1.365 7.851l4.437 20.139c2.389 7.851 7.168 13.653 13.995 17.408 7.168 4.096 14.336 4.779 21.504 2.389 7.851-1.365 13.995-5.803 18.091-12.629s5.12-14.677 2.731-23.211l-4.437-20.139c-3.413-13.995-12.629-20.821-27.307-20.821-2.389 0-5.461 0.341-8.192 1.024-7.509 2.048-12.971 5.803-16.725 11.264-3.413 5.461-5.461 10.923-5.461 16.725zM435.541 131.925c0 7.851 2.731 14.677 7.851 19.797 5.461 5.461 11.947 7.851 20.139 7.851s14.677-2.731 20.139-7.851c5.461-5.461 7.851-11.947 7.851-19.797 0-8.192-2.731-14.677-7.851-20.139-5.461-5.461-11.947-7.851-20.139-7.851-7.851 0-14.336 2.731-19.797 8.192s-8.192 11.947-8.192 19.797zM456.704 209.408c0 3.413 0.341 6.485 1.024 9.216l7.851 30.72c2.389 7.851 7.168 13.995 13.995 18.091 7.168 4.096 14.336 5.12 21.845 2.731 8.192-2.389 13.995-6.827 18.091-13.653s4.779-13.995 2.389-21.504l-8.875-30.72c-2.731-9.557-7.509-15.701-13.995-19.115s-13.995-4.096-21.845-2.048c-6.827 1.365-11.947 4.779-15.36 10.24-4.096 5.461-5.461 10.923-5.12 16.043zM550.912 136.363c0 1.024 0 2.731 0.341 4.437s0.341 3.072 0.341 3.755l3.072 20.139c2.389 8.192 6.827 13.995 13.995 18.091s14.677 4.779 23.211 2.731c7.851-2.389 13.653-7.168 17.408-13.995 4.096-7.168 4.779-14.336 2.389-21.504l-4.779-20.48c-3.413-15.019-11.947-22.528-25.941-22.528-1.024 0-2.731 0.341-4.779 0.683s-3.755 0.683-4.779 0.683c-6.827 2.048-11.947 5.803-15.36 11.264-3.072 5.461-5.12 10.923-5.12 16.725zM576.171 236.715c0 8.192 2.731 14.677 7.851 20.139 5.461 5.461 11.947 7.851 20.139 7.851s14.677-2.731 20.139-7.851c5.461-5.461 7.851-11.947 7.851-20.139 0-7.851-2.731-14.677-7.851-19.797s-11.605-7.851-19.797-7.851c-8.192 0-14.677 2.731-19.797 8.192-5.461 5.12-8.533 11.605-8.533 19.456z" />
<glyph unicode="&#xe94d;" glyph-name="wi-showers" d="M157.013 382.123c0 39.595 12.288 74.411 37.205 105.131 24.576 30.72 56.32 50.517 94.891 59.051 9.899 47.104 33.451 85.333 70.656 115.712s79.872 45.397 128.341 45.397c47.445 0 89.771-14.677 126.976-43.691 36.864-29.013 61.099-66.56 72.363-112.64h11.605c30.72 0 59.051-7.509 84.651-22.528 25.941-15.019 46.080-35.499 61.099-61.44 14.677-25.941 22.187-54.272 22.187-84.992 0-45.739-15.701-84.651-46.763-117.419-31.403-32.768-69.632-49.835-115.029-51.2-4.096 0-6.144 2.048-6.144 5.803v45.739c0 3.755 2.048 5.803 6.144 5.803 28.672 2.389 53.589 14.336 74.069 35.84s30.72 46.763 30.72 75.776c0 30.379-10.923 56.661-32.768 78.848-21.845 21.845-47.787 33.109-78.165 33.109h-55.637c-4.096 0-6.485 2.048-7.509 6.144l-2.389 19.456c-2.389 24.235-10.24 46.421-23.893 66.219s-31.061 35.157-52.224 46.421c-21.163 11.264-44.373 16.725-68.949 16.725-37.547 0-69.973-12.288-97.621-37.205s-43.349-55.979-46.763-92.843l-2.389-18.432c0-3.072-1.707-4.779-5.461-4.779l-18.432-3.755c-28.672-2.389-52.907-13.995-72.021-35.157-19.456-21.163-29.013-46.080-29.013-75.093 0-29.696 10.24-55.296 30.379-76.8s44.715-33.109 74.069-34.816c4.096 0 6.144-2.048 6.144-5.803v-45.739c0-3.755-2.048-5.803-6.144-5.803-22.528 1.024-43.691 6.144-64.171 15.36s-37.888 21.504-52.224 36.523c-14.677 15.019-26.283 32.427-34.816 52.907s-12.971 41.643-12.971 64.171zM342.016 151.040c0 1.024 0.341 2.731 0.683 4.437s0.683 3.072 0.683 3.755l9.216 35.157c2.389 7.509 6.827 13.653 13.653 17.408 6.827 4.096 13.995 4.779 21.845 2.389s13.653-6.827 17.749-13.653c4.096-6.827 4.779-13.995 2.389-21.845l-8.192-34.475c-4.437-15.019-12.971-22.528-25.941-22.528-1.024 0-1.707 0-3.072 0-1.024 0-2.389 0.341-3.755 0.341-1.365 0.341-2.389 0.341-3.413 0.341-7.168 2.048-12.629 6.144-16.384 11.605s-5.461 11.605-5.461 17.067zM387.072 315.563c0 0.683 0 2.048 0.341 3.755s0.341 2.731 0.341 3.072l10.24 35.84c2.048 6.485 5.803 11.605 10.923 15.36 5.12 3.413 10.581 5.12 16.043 5.12 0.683 0 1.707 0 2.731 0s2.048-0.341 3.072-0.341c1.024-0.341 2.048-0.341 2.731-0.341 7.851-2.389 13.653-6.827 17.408-13.653 4.096-6.827 4.779-13.995 2.389-21.845l-8.192-34.133c-2.389-9.557-6.827-16.043-13.653-20.139s-14.336-4.096-22.187-0.683c-7.509 2.048-12.971 5.803-16.725 11.605s-5.461 10.923-5.461 16.384zM429.056 44.203c0 1.024 0.341 2.389 0.683 4.437s0.683 3.072 0.683 4.096l9.899 33.792c2.048 8.192 6.827 14.336 13.653 18.432s14.336 5.12 22.187 2.731c7.851-2.389 13.312-6.827 17.408-13.995s4.437-14.336 2.389-22.187l-8.533-35.499c-3.755-13.995-12.629-20.821-27.307-20.821-1.707 0-4.437 0.341-8.192 1.365-7.509 1.365-12.971 4.779-16.725 10.24-4.096 5.461-6.144 11.264-6.144 17.408zM474.795 207.019c0 2.048 0.341 4.779 1.365 8.533l9.216 35.157c2.389 7.851 6.827 13.653 13.995 17.408 6.827 4.096 14.336 4.779 22.187 2.389 7.851-2.048 13.312-6.485 17.408-13.312 3.755-6.827 4.437-13.995 2.048-22.187l-8.192-33.792c-4.437-15.36-12.629-23.211-24.576-23.211-1.365 0-5.12 0.683-10.581 2.048-7.509 1.365-12.971 4.779-16.725 10.24-4.096 5.12-6.144 10.923-6.144 16.725zM571.051 149.675c0 2.389 0.341 5.12 1.024 8.192l9.557 33.792c2.389 8.192 6.827 14.336 13.995 18.432s13.995 5.12 21.504 3.072c7.851-2.389 13.995-6.827 18.091-13.995 4.096-6.827 5.12-13.995 3.072-21.504l-9.899-36.181c-3.413-13.995-12.288-20.821-26.965-20.821-3.072 0-6.144 0.341-8.875 1.024-6.827 1.365-11.947 4.779-15.701 10.24-3.413 6.144-5.461 11.947-5.803 17.749zM618.155 312.149c0 1.024 0.683 4.096 1.707 8.875l10.24 35.157c1.365 7.168 4.437 12.629 9.899 16.043s10.923 5.12 16.725 4.779c1.365 0.341 4.437 0 8.192-1.024 7.509-1.707 13.312-6.144 17.749-12.971 4.096-5.803 4.779-12.971 2.389-22.187l-8.192-35.157c-4.437-14.677-12.971-22.187-25.941-22.187-2.048 0-5.803 0.683-11.605 2.048-7.168 2.048-12.288 5.803-15.701 10.581-3.755 5.461-5.461 10.581-5.461 16.043z" />
<glyph unicode="&#xe94e;" glyph-name="wi-rain" d="M158.379 382.805c0 39.253 12.288 74.069 36.864 104.789s55.637 50.176 93.184 59.051c10.581 46.421 34.816 84.651 72.021 114.688s79.872 44.715 128 44.715c47.104 0 88.747-14.677 125.611-43.691s60.757-66.56 71.68-112.299h10.923c30.379 0 58.709-7.509 84.651-22.187s46.763-35.157 61.781-60.757c15.019-25.6 22.869-53.931 22.869-84.309 0-30.037-7.168-57.685-21.504-83.285s-34.133-46.080-59.051-61.44c-24.917-15.36-52.224-23.552-81.92-24.235-4.437 0-6.827 2.048-6.827 5.803v45.397c0 4.096 2.389 6.144 6.827 6.144 29.013 1.365 53.931 12.971 74.411 34.816s30.72 47.445 30.72 77.141-11.264 55.296-33.451 77.141-48.469 32.768-78.848 32.768h-54.955c-4.096 0-6.144 2.048-6.144 5.803l-2.731 19.797c-3.755 36.864-19.797 67.925-47.445 92.501-27.989 24.917-60.075 37.205-97.28 37.205s-69.973-12.288-97.28-37.205c-27.648-24.917-43.008-55.637-46.421-92.501l-2.389-18.091c0-4.096-2.389-6.485-6.827-6.485l-18.091-1.024c-28.331-3.413-52.224-15.701-71.68-36.523s-29.013-45.397-29.013-73.728c0-29.696 10.24-55.296 30.72-77.141s45.397-33.451 74.411-34.816c3.755 0 5.803-2.048 5.803-6.144v-45.397c0-3.755-2.048-5.803-5.803-5.803-45.739 2.048-84.309 19.456-116.053 52.224s-46.763 71.68-46.763 117.077zM340.992 154.453c0 1.365 0.341 3.755 1.365 6.827l55.637 196.949c2.048 6.485 5.803 11.605 10.923 15.019s10.581 5.12 15.701 5.12c2.389 0 5.12-0.341 8.192-1.024 8.192-1.365 14.336-5.803 18.432-12.629s5.12-14.336 2.731-22.869l-55.637-195.584c-4.096-14.677-13.653-21.845-27.989-21.845-1.365 0-2.389 0.341-3.755 0.683-2.048 0.683-3.072 1.024-3.413 1.024-7.509 2.048-12.971 5.803-16.725 11.264-3.755 5.803-5.461 11.264-5.461 17.067zM430.421 58.539l83.285 299.349c1.365 6.485 4.779 11.605 10.24 15.019s10.923 5.12 16.725 5.12c3.072 0 6.144-0.341 9.216-1.024 7.509-2.048 12.971-6.485 16.725-13.312s4.437-13.995 2.389-21.845l-82.944-299.691c-1.365-5.803-4.437-10.581-9.899-14.677s-10.923-6.144-17.408-6.144c-3.072 0-6.144 0.683-8.533 1.707-6.827 1.707-12.629 6.144-17.749 13.312-3.755 6.144-4.437 13.312-2.048 22.187zM571.392 153.771c0 1.365 0.341 3.755 1.365 7.851l55.637 196.949c2.048 6.485 5.461 11.605 10.24 15.019 5.12 3.413 10.24 5.12 15.701 5.12 2.731 0 5.803-0.341 8.875-1.024 7.168-2.048 12.288-5.461 15.701-10.581s5.12-10.581 5.12-16.043c0-1.024-0.341-2.731-0.683-4.779s-0.683-3.413-0.683-4.096l-55.637-195.584c-1.365-6.485-4.437-11.947-9.557-15.701s-10.923-5.803-17.408-5.803l-8.192 1.707c-6.827 2.048-11.947 5.461-15.701 10.923-3.072 5.12-4.779 10.581-4.779 16.043z" />
<glyph unicode="&#xe94f;" glyph-name="wi-rain-wind" d="M158.037 382.123c0-38.229 11.264-72.021 33.451-102.059 22.187-29.696 51.2-50.176 87.040-61.099 3.072-0.683 5.803 0.341 8.192 2.731l39.595 48.811c-30.379 0-56.32 10.923-77.824 32.768s-32.427 48.128-32.427 78.848c0 28.672 9.557 53.931 28.672 75.093s43.008 33.109 71.68 35.499l18.091 2.389c3.755 0 5.461 1.365 5.461 4.437l2.731 18.773c4.096 37.547 20.139 68.608 47.445 93.184s59.733 36.864 97.28 36.864c37.547 0 70.315-12.288 97.963-37.205 27.989-24.917 43.349-55.979 46.763-92.843l2.389-19.797c0.683-3.755 3.413-5.803 7.509-5.803h55.296c30.72 0 57.003-10.923 78.507-32.427s32.427-47.445 32.427-78.165c0-28.331-9.557-53.248-28.672-74.411s-42.667-33.451-70.656-36.864c-4.096 0-9.557-0.683-16.725-2.048-6.485-0.683-11.264-3.072-13.995-7.851l-80.555-95.232c-4.779-6.144-6.827-13.312-5.461-21.504 1.024-8.192 4.779-14.677 10.581-19.456 3.755-4.096 9.899-6.485 19.115-6.485 8.875 0 16.043 4.096 20.821 11.947l72.363 83.285c42.325 4.437 78.165 22.528 107.52 54.955s43.691 70.315 43.691 113.664c0 22.869-4.437 45.056-13.312 65.877s-20.821 38.912-35.84 53.931c-15.019 15.019-33.109 26.965-53.931 35.84s-42.667 13.312-65.877 13.312h-10.923c-11.264 45.056-35.499 82.261-72.363 111.275s-79.189 43.349-126.976 43.349c-31.744 0-61.781-6.827-89.771-20.48s-51.541-32.427-70.997-56.661-32.085-51.883-38.571-82.603c-38.229-8.533-69.632-27.989-93.867-58.709-23.893-30.379-35.84-65.536-35.84-105.131zM273.408 108.373c0-2.048 0.683-5.461 2.048-10.24 3.072-7.168 7.851-12.288 15.019-15.019 7.509-3.413 15.019-3.755 22.869-0.683s12.971 8.192 15.701 15.36c3.413 7.509 3.755 14.677 0.683 22.187-3.072 7.168-8.192 12.288-15.701 14.677-7.509 3.755-15.019 4.096-22.187 1.024s-12.288-8.192-15.701-16.043c-1.707-3.413-2.731-7.168-2.731-11.264zM336.555 191.659v-3.413c0.683-7.851 4.096-13.995 10.24-19.115 7.851-4.437 14.677-6.485 21.163-6.485 7.509 0 14.677 3.755 20.821 11.264l79.189 94.549c4.779 5.803 7.168 13.312 6.827 22.528-0.683 7.168-4.096 13.312-9.557 18.091s-11.264 7.509-17.749 7.509c-2.048 0-3.413 0-4.779-0.341-7.851-1.365-14.336-5.12-19.115-11.264l-80.555-94.549c-4.437-5.461-6.485-11.605-6.485-18.773zM362.837 30.549c0-4.096 1.024-7.851 2.731-10.923 2.731-7.168 7.851-12.629 15.019-16.043 3.755-1.707 7.509-2.389 11.264-2.389 4.096 0 7.851 0.683 10.581 2.389 7.851 3.072 13.312 7.851 16.043 13.995 3.413 7.509 3.755 15.019 0.683 22.869-2.731 7.851-7.851 12.971-15.36 15.701-7.509 3.413-15.019 3.755-22.869 0.683s-12.971-8.192-15.36-15.36c-2.048-3.072-2.731-6.827-2.731-10.923zM419.84 110.763v-3.755c0.683-7.509 4.437-13.653 10.581-18.773s12.629-7.509 18.773-7.509c7.851 0 14.677 3.755 21.504 11.264l148.48 178.859c3.755 4.096 5.803 10.24 5.803 17.749v4.096c-0.683 7.851-4.096 13.653-9.216 18.091s-11.264 6.827-17.749 6.827h-4.437c-7.851-0.341-14.336-4.096-18.773-10.581l-148.48-177.493c-4.779-6.144-6.485-12.288-6.485-18.773zM539.648 71.509c0-3.072 0.683-6.485 2.048-10.24 3.072-7.509 8.192-12.971 15.701-16.043 4.779-1.365 8.192-2.048 10.581-2.048 4.779 0 8.875 1.024 11.605 2.731 7.509 3.072 12.971 7.851 15.701 14.336 3.413 5.803 3.755 13.312 0.683 22.869-2.731 7.168-7.851 11.947-15.019 15.019l-12.288 3.072c-3.072-0.683-6.485-1.365-10.923-2.389-7.509-2.731-12.629-7.851-15.36-15.019-1.707-4.437-2.731-8.533-2.731-12.288z" />
<glyph unicode="&#xe950;" glyph-name="wi-rain-mix" d="M158.72 381.099c0-45.056 16.043-83.968 47.787-116.395 31.744-32.768 70.315-49.835 115.371-51.2 4.096 0 6.144 2.048 6.144 5.803v45.397c0 4.096-2.048 6.144-6.144 6.144-28.672 1.365-53.589 12.971-74.069 34.816s-31.061 46.763-31.061 75.776c0 28.672 9.557 53.589 29.013 74.752s43.008 33.109 71.68 35.499l18.091 2.389c4.096 0 6.485 2.048 6.485 6.144l2.389 17.067c3.413 37.205 18.773 68.608 46.421 93.867s60.075 37.888 97.621 37.888c36.864 0 69.291-12.629 96.939-37.547s43.691-55.637 47.787-92.501l2.389-19.797c0-4.096 2.048-6.144 6.485-6.144h54.613c30.72 0 57.003-10.923 79.189-33.109 21.845-21.845 33.109-48.128 33.109-78.507 0-28.672-10.24-53.931-30.72-75.776-20.48-21.504-45.397-33.109-74.411-34.816-4.437 0-6.827-2.048-6.827-6.144v-45.397c0-3.755 2.389-5.803 6.827-5.803 45.397 1.365 83.968 18.432 115.371 51.2s47.104 71.339 47.104 116.736c0 30.379-7.509 58.709-22.869 84.651-15.019 25.941-35.84 46.421-61.781 61.44s-54.272 22.528-84.651 22.528h-10.581c-11.264 45.739-35.157 82.944-72.021 112.299-36.523 29.013-78.507 43.691-125.611 43.691-48.128 0-90.795-15.019-128-44.715s-61.099-67.925-71.68-114.347c-38.571-9.899-69.632-30.037-93.867-60.416s-36.523-65.877-36.523-105.472zM343.040 141.483c0-5.803 1.707-11.605 5.461-17.408s9.216-9.557 16.043-11.947c7.851-2.389 15.019-2.048 21.845 1.365 6.485 3.072 11.264 9.557 13.312 19.115l4.779 20.821c1.707 7.851 0.683 15.019-3.072 21.504s-9.557 11.264-17.749 13.653c-7.509 2.389-15.019 1.365-21.845-2.731s-11.605-10.24-13.653-18.091l-4.779-20.139c0-1.024-0.341-3.072-0.341-6.144zM368.981 240.469c0-7.168 2.731-13.653 8.533-19.456 5.461-5.803 11.605-8.533 19.115-8.533 8.192 0 15.019 2.731 20.48 8.192s8.192 11.947 8.192 20.139c0 7.851-2.731 14.677-8.192 20.139s-12.288 8.192-20.48 8.192c-7.851 0-14.336-2.731-19.797-7.851-5.12-6.144-7.851-12.971-7.851-20.821zM389.803 317.952c-0.341-5.461 1.024-10.581 4.779-15.36 3.413-5.12 8.875-8.533 16.384-10.923 7.168-2.048 13.995-1.365 21.163 2.389s11.605 9.557 13.995 17.408l9.557 30.72c2.389 8.192 1.707 15.701-2.389 22.187s-10.24 10.923-18.432 13.312c-7.509 2.389-14.677 1.707-21.504-2.389-6.827-3.755-11.605-9.557-13.995-17.067l-8.192-31.403c0-0.683-0.341-2.048-0.683-4.096-0.341-1.707-0.683-3.413-0.683-4.779zM429.739 34.987c0-6.144 1.707-11.605 5.12-17.067s8.875-9.216 16.384-11.264c2.731-0.683 5.803-1.024 8.533-1.024 14.677 0 23.552 6.827 26.965 20.821l4.779 20.139c2.048 8.875 1.024 16.384-2.731 23.211-4.096 6.827-9.899 10.923-17.749 12.629-7.168 2.389-14.336 1.707-21.504-2.389s-11.605-9.899-13.995-17.408l-4.779-20.139c-0.683-3.072-1.024-5.461-1.024-7.509zM456.021 133.973c0-7.509 2.731-13.995 8.533-19.797 5.461-5.461 11.947-8.192 19.456-8.192 8.192 0 14.677 2.731 20.139 7.851 5.461 5.461 7.851 11.947 7.851 20.139 0 7.851-2.731 14.336-7.851 19.797-5.461 5.461-11.947 7.851-20.139 7.851s-14.677-2.731-20.139-7.851-7.851-11.947-7.851-19.797zM477.525 211.456c-0.341-5.12 1.024-10.581 4.437-16.043s8.533-8.875 15.36-10.24c7.851-2.048 15.019-1.365 21.845 2.048s11.264 9.899 13.995 19.115l9.216 30.72c2.389 7.509 1.707 14.677-2.389 21.504s-9.899 11.264-18.091 13.653c-7.509 2.389-14.677 1.365-21.845-2.731s-11.605-10.24-13.995-18.091l-7.851-30.72c-0.341-2.731-0.683-5.803-0.683-9.216zM571.733 138.069c0-5.461 1.707-10.923 5.12-16.384s8.875-9.216 15.701-11.264c1.024 0 2.731-0.341 4.779-0.683s3.413-0.683 4.779-0.683c13.995 0 22.528 7.509 25.941 22.528l4.779 20.48c2.389 7.168 1.707 14.336-2.389 21.504-3.755 7.168-9.557 11.605-17.408 13.995-8.533 2.048-16.384 1.365-23.211-2.731s-11.605-9.899-13.995-18.091l-3.072-20.139c0-0.683-0.341-2.389-0.683-4.096s-0.341-3.072-0.341-4.437zM596.992 239.104c0-7.509 2.731-14.336 8.533-19.456 5.12-5.461 11.605-8.192 19.456-8.192 8.192 0 14.677 2.731 20.139 7.851s7.851 11.947 7.851 19.797c0 8.192-2.731 14.677-7.851 20.139s-11.947 7.851-20.139 7.851c-8.192 0-14.677-2.731-20.139-7.851-5.12-5.461-7.851-11.947-7.851-20.139zM617.813 317.952c0-5.803 1.707-11.264 5.461-16.384s9.216-8.875 16.725-10.923c0.683 0 2.048-0.341 4.096-0.683s3.755-0.683 4.779-0.683c3.413 0 7.509 1.024 12.288 3.072 7.168 3.755 11.947 9.899 13.995 17.749l8.192 30.72c2.048 7.851 1.365 15.019-2.731 21.504-3.755 6.827-9.557 11.264-17.408 13.653s-15.019 1.707-21.845-2.048c-6.485-3.755-11.264-9.216-13.312-17.408l-9.557-31.061c0-0.683-0.341-2.048-0.683-4.096 0-1.024 0-2.389 0-3.413z" />
<glyph unicode="&#xe951;" glyph-name="wi-night-thunderstorm" d="M146.091 383.488c0-37.888 11.264-72.021 33.792-101.717s51.883-49.835 87.381-59.733l-21.845-57.344c-1.707-4.779 0-7.509 4.779-7.509h72.363l-35.499-143.019h9.557l135.509 191.829c1.365 1.365 1.365 3.072 0.341 4.779s-2.731 2.389-5.12 2.389h-74.069l84.309 157.355c2.389 4.779 0.683 7.509-4.779 7.509h-100.352c-3.072 0-5.461-1.707-7.851-4.779l-36.523-97.963c-24.235 5.803-44.373 19.115-60.416 38.912s-23.893 43.008-23.893 68.949c0 28.331 9.557 52.907 28.672 73.728s43.008 32.768 71.68 36.181l18.091 1.365c4.096 0 6.144 2.048 6.144 6.144l2.389 18.091c2.389 24.235 10.24 46.080 23.552 66.219 13.312 19.797 30.72 35.499 51.883 46.763s44.032 17.067 68.608 17.067c36.864 0 69.291-12.629 96.939-37.547s43.349-55.637 47.445-92.501l2.731-19.115c0-4.096 2.048-6.485 5.803-6.485h55.296c30.379 0 56.32-10.923 78.507-32.768s33.109-47.445 33.109-77.483c0-29.355-10.24-54.955-30.72-76.8s-45.397-33.109-74.411-34.816c-4.437 0-6.827-2.048-6.827-6.144v-45.739c0-3.755 2.389-5.803 6.827-5.803 29.696 0.683 57.003 8.875 81.92 24.576 24.917 15.36 44.715 35.84 58.709 61.44s21.504 53.248 21.504 82.944c0 24.917-4.779 47.787-14.336 68.608 26.624 31.744 39.936 69.291 39.936 112.981 0 24.235-4.779 47.104-14.336 68.949s-22.187 40.96-38.229 57.003c-16.043 16.043-34.816 28.672-57.003 38.229-21.845 9.557-45.056 14.336-68.949 14.336-52.565 0-96.597-19.797-131.755-59.051-27.648 14.677-58.368 22.187-92.16 22.187-48.128 0-90.795-15.019-128-44.715s-61.099-67.925-71.68-114.347c-37.547-8.875-68.608-28.331-93.184-59.051s-35.84-64.853-35.84-104.107zM416.768 46.251c0-5.461 1.707-10.923 5.12-15.701s8.533-8.533 15.36-10.581l8.533-1.024c14.336 0 23.211 6.827 27.307 20.48l82.944 303.445c2.048 7.851 1.365 15.36-2.389 21.845-3.755 6.827-9.216 11.264-16.725 13.653-7.851 2.389-15.36 1.707-22.187-2.048s-11.605-9.557-13.653-17.067l-83.627-303.787c-0.341-5.803-0.683-8.875-0.683-9.216zM558.080 149.675c0-13.653 7.168-22.869 21.163-27.307 5.803-0.683 8.875-1.024 8.875-1.024 3.755 0 7.851 0.683 11.947 2.731 6.827 3.072 11.605 9.216 14.336 18.773l55.979 199.68c2.048 7.851 1.365 15.36-2.731 21.845-3.755 6.827-9.557 11.264-17.408 13.653s-15.36 1.707-22.187-2.048c-6.827-3.755-11.264-9.557-13.312-17.067l-55.296-201.045c-0.683-4.779-1.365-7.509-1.365-8.192zM615.083 651.435c23.211 21.845 51.2 32.768 84.651 32.768 33.109 0 61.44-11.605 84.651-34.816 23.552-23.211 35.157-51.541 35.157-84.651 0-21.504-5.803-42.667-17.408-63.147-32.768 32.768-72.363 49.152-118.784 49.152h-10.923c-9.557 39.253-28.672 72.704-57.344 100.693z" />
<glyph unicode="&#xe952;" glyph-name="wi-night-storm-showers" d="M145.067 384.512c0-37.547 11.264-71.339 34.133-101.717 22.869-30.037 51.883-50.517 87.723-61.44l-22.187-56.661c-1.365-4.779 0-7.168 4.779-7.168h72.363l-38.912-139.605h9.899l139.264 187.392c1.365 1.365 1.365 3.072 0.341 4.779s-2.731 2.389-5.12 2.389h-74.069l84.309 159.403c2.389 4.779 1.024 7.509-4.437 7.509h-101.035c-3.072 0-5.461-1.707-6.485-4.779l-37.888-100.011c-24.235 6.144-44.373 19.456-60.757 39.936-16.043 20.48-24.235 43.349-24.235 68.949 0 28.672 9.557 53.589 29.013 74.752s43.349 33.109 71.68 35.84l17.749 2.389c4.437 0 6.827 2.048 6.827 5.803l2.389 17.749c3.755 37.205 19.115 68.267 46.763 92.843 27.648 24.917 60.075 37.205 97.621 37.205 37.205 0 69.973-12.288 97.621-37.205s43.691-55.979 47.787-92.843l2.389-19.797c0-3.755 2.048-5.803 6.144-5.803h55.296c31.061 0 57.344-10.923 79.531-32.427 21.845-21.504 33.109-47.787 33.109-77.824 0-29.355-10.24-54.613-30.72-76.117s-45.397-33.109-75.093-35.499c-4.096 0-6.485-2.048-6.485-6.144v-47.104c0-3.755 2.048-5.803 6.485-5.803 45.397 1.365 83.968 18.773 115.712 51.883s47.445 72.363 47.445 118.443c0 24.917-4.779 47.445-13.995 68.267 25.941 34.133 38.912 71.68 38.912 112.299 0 24.235-4.779 47.445-14.336 69.632s-22.528 40.96-38.229 57.003-35.157 28.672-57.344 38.229c-22.187 9.557-45.397 14.336-69.291 14.336-25.259 0-49.152-5.12-72.363-15.36-22.869-10.24-43.008-24.576-59.392-43.008-27.989 15.019-58.709 22.528-92.16 22.528-48.469 0-91.477-15.019-128.683-44.715s-61.44-68.267-72.021-115.029c-37.888-8.875-68.949-28.331-93.525-59.051s-36.523-65.195-36.523-104.448zM423.936 47.616c0-6.144 1.707-11.947 5.461-17.408 3.755-5.803 8.875-9.216 15.701-10.24 0.683 0 1.707 0 2.731-0.341s2.389-0.341 3.072-0.341 1.707 0 2.731 0c14.677 1.024 23.552 7.851 27.307 20.821l9.899 36.181c2.048 7.509 1.024 14.677-3.072 21.504s-10.24 11.605-18.091 13.995c-7.509 2.048-14.677 1.024-21.504-2.731-6.827-4.096-11.605-10.24-13.995-18.091l-8.533-34.133c-1.024-6.144-1.707-8.875-1.707-9.216zM469.675 210.432c0-5.12 1.707-10.24 5.12-15.36s8.875-8.875 15.701-11.605c7.509-2.731 14.677-2.048 21.504 1.707s11.264 9.899 13.653 18.091l10.24 35.499c2.048 8.533 1.365 16.384-2.731 23.211s-9.899 10.923-18.091 12.629c-7.509 2.389-15.019 1.707-21.845-2.389s-11.605-9.899-14.336-18.091l-8.533-34.816c0-0.683 0-1.707-0.341-2.731s-0.341-2.389-0.341-3.072c0-1.024 0-2.048 0-3.072zM566.272 155.136c0-6.485 1.707-12.288 5.461-17.749s8.875-9.216 16.043-10.923c5.461-1.024 8.533-1.707 9.216-1.707 13.312 0 22.187 6.827 26.283 20.48l8.192 36.181c2.389 7.509 1.707 14.677-2.048 21.504s-9.216 11.605-17.067 13.995c-8.533 2.048-16.384 1.024-23.211-3.072-7.168-4.096-11.264-10.24-12.971-18.091l-9.557-33.792c0-1.707-0.341-4.096-0.341-6.827zM612.693 317.269c0-5.461 1.707-10.923 5.461-16.043s9.216-9.216 16.725-11.605c5.803-0.683 8.875-1.024 8.875-1.024 4.096 0 8.192 1.024 12.971 2.731 6.485 3.413 11.264 9.216 13.312 17.749l9.899 35.499c2.048 7.509 1.024 14.677-3.072 21.504s-10.24 11.605-18.091 13.995c-7.851 2.389-15.019 1.707-21.845-2.389s-11.264-9.899-13.653-18.091l-9.557-34.816c-0.683-3.072-1.024-5.461-1.024-7.509zM616.448 653.483c22.528 21.845 50.517 32.768 83.627 32.768 33.451 0 62.123-11.947 85.333-35.499 23.552-23.552 35.157-52.224 35.157-85.675 0-21.504-5.461-41.643-16.725-60.757-33.792 32.768-73.387 49.152-119.125 49.152h-10.923c-10.24 39.595-29.355 73.045-57.344 100.011z" />
<glyph unicode="&#xe953;" glyph-name="wi-night-sprinkle" d="M144.043 383.488c0-45.397 15.701-84.651 47.445-117.419s70.315-50.176 116.395-52.224c3.755 0 5.803 2.048 5.803 5.803v46.763c0 4.437-2.048 6.485-5.803 6.485-30.037 2.048-54.955 13.995-75.435 35.157s-30.72 46.421-30.72 75.435c0 28.672 9.557 53.931 29.013 75.093s43.349 33.109 72.021 35.499l17.749 2.389c4.096 0 6.485 2.048 6.485 6.485l2.389 17.067c3.755 36.864 19.456 67.925 47.104 92.843s60.416 37.547 97.963 37.547c37.205 0 69.973-12.288 97.621-37.205s43.691-55.979 47.787-92.843l2.048-19.456c0-4.096 2.048-6.144 6.485-6.144h54.613c31.061 0 57.344-10.923 79.189-32.427s33.109-47.787 33.109-77.824c0-29.013-10.24-54.272-30.379-75.435s-45.397-33.109-74.752-35.157c-4.779 0-7.168-2.048-7.168-6.485v-46.763c0-3.755 2.389-5.803 7.168-5.803 45.397 1.365 83.968 18.773 115.712 51.541 31.744 33.109 47.445 72.363 47.445 117.76 0 25.259-4.779 48.128-14.677 68.608 26.965 32.768 40.277 70.656 40.277 114.688 0 32.085-8.192 62.123-24.235 89.771s-37.888 49.493-65.536 65.536c-27.648 16.043-57.344 24.235-89.429 24.235-51.883 0-96.597-19.797-134.144-59.733-28.331 12.971-58.709 20.139-91.136 20.139-48.128 0-91.136-15.019-128.341-44.715s-61.44-68.267-71.68-115.029c-37.888-8.875-68.949-28.672-93.525-59.392-24.576-30.379-36.864-65.536-36.864-104.789zM346.453 353.451c0-12.971 4.779-23.893 14.677-33.451 9.557-9.216 21.163-13.995 34.816-13.995s24.917 4.437 34.133 13.653c9.216 9.216 13.995 20.48 13.995 33.451 0 8.875-4.096 20.48-11.947 34.816s-15.36 25.941-22.528 34.133c-0.683 0.683-2.731 3.072-6.144 6.827s-5.803 6.485-7.168 8.192l-12.288-13.653c-9.557-10.24-18.091-22.187-25.6-35.84-7.851-13.653-11.947-25.259-11.947-34.133zM448.512 217.259c0-21.504 7.851-40.277 23.552-55.979s34.475-23.552 56.32-23.552c21.845 0 40.96 7.851 56.661 23.552s23.552 34.475 23.552 55.979c0 9.216-2.731 20.139-7.851 33.109-5.461 12.971-11.605 24.576-19.115 35.499-15.701 20.139-30.379 37.205-44.032 50.859-2.048 1.365-4.779 4.437-8.875 8.192l-20.139-19.797c-15.019-14.336-29.013-32.427-41.301-53.248-12.629-21.163-18.773-39.253-18.773-54.613zM499.029 445.952c0-9.216 3.072-16.725 9.557-22.869s14.677-9.216 24.235-9.216c8.875 0 16.384 3.072 22.528 9.216s9.216 13.653 9.216 22.869c0 13.995-10.581 32.085-31.744 54.955l-8.533-8.875c-6.485-6.827-12.288-14.677-17.408-23.893-5.461-8.875-7.851-16.384-7.851-22.187zM614.741 652.117c22.869 22.528 51.2 33.792 84.651 33.792s61.781-11.605 84.992-34.816 35.157-51.541 35.157-84.651c0-21.504-5.803-42.667-17.408-63.147-34.133 32.768-74.069 49.152-119.808 49.152h-9.899c-9.557 40.277-29.013 73.387-57.685 99.669z" />
<glyph unicode="&#xe954;" glyph-name="wi-night-snow" d="M144.384 383.488c0-45.397 16.043-84.651 47.787-117.419s70.656-50.176 116.053-52.224c4.096 0 6.144 2.048 6.144 5.803v45.739c0 3.755-2.048 5.803-6.144 5.803-29.355 1.707-54.272 13.312-74.752 35.157s-30.72 47.445-30.72 77.141c0 28.331 9.557 52.907 29.013 74.069 19.456 20.821 43.349 33.109 71.68 36.523l18.091 1.365c4.437 0 6.827 2.048 6.827 6.144l2.389 18.432c3.755 36.864 19.115 67.925 46.763 92.843s60.075 37.547 97.28 37.547c37.205 0 69.632-12.629 97.621-37.547s43.691-55.979 47.787-92.843l2.731-19.456c0-4.096 2.048-6.485 5.803-6.485h55.296c31.061 0 57.344-10.923 79.531-32.427 21.845-21.504 33.109-47.787 33.109-77.824 0-29.355-10.24-54.955-31.061-76.8s-45.739-33.792-74.752-35.499c-4.096 0-6.485-2.048-6.485-5.803v-45.739c0-3.755 2.048-5.803 6.485-5.803 45.739 1.365 84.309 18.773 116.053 51.541 31.744 33.109 47.445 72.363 47.445 117.76 0 24.235-4.779 47.104-14.677 68.608 26.965 32.768 40.277 70.656 40.277 113.323 0 32.427-8.192 62.464-24.235 90.112s-37.888 49.493-65.536 65.536-57.344 23.893-89.429 23.893c-52.907 0-97.28-19.797-132.779-59.051-27.648 14.677-58.368 22.187-92.501 22.187-48.128 0-91.136-15.019-128.341-45.056s-61.44-68.267-72.021-114.688c-37.888-8.875-68.949-28.672-93.525-59.392-24.917-31.061-37.205-66.219-37.205-105.472zM362.496 242.859c0-7.509 2.731-13.995 8.192-19.456 5.803-5.803 12.288-8.533 19.797-8.533 7.851 0 14.677 2.731 20.139 7.851s8.192 11.947 8.192 20.139c0 8.192-2.731 14.677-7.851 20.139-5.461 5.461-11.947 7.851-20.139 7.851s-14.677-2.731-20.139-7.851c-5.461-5.12-8.192-11.947-8.192-20.139zM362.496 118.955c0-8.192 2.731-14.677 8.192-19.797 5.461-5.461 12.288-8.192 19.797-8.192 8.192 0 14.677 2.731 20.139 7.851 5.461 5.461 7.851 11.947 7.851 20.139s-2.731 15.019-8.192 20.48-11.947 8.533-20.139 8.533c-7.851 0-14.677-2.731-20.139-8.533s-7.509-12.288-7.509-20.48zM471.381 178.347c0-7.851 2.731-15.019 8.533-20.821s12.288-9.216 19.797-9.216c7.851 0 14.677 3.072 20.48 8.875s8.533 12.971 8.533 21.163c0 7.509-2.731 13.995-8.533 19.797s-12.629 8.533-20.48 8.533c-7.509 0-13.995-2.731-19.797-8.533s-8.533-12.288-8.533-19.797zM471.381 300.885c0-7.851 2.731-14.336 8.192-19.797s12.288-8.192 20.139-8.192c8.192 0 15.019 2.731 20.48 8.192s8.533 11.947 8.533 20.139-2.731 14.677-8.533 20.48-12.629 8.533-20.48 8.533c-7.851 0-14.336-2.731-20.139-8.533s-8.192-12.971-8.192-20.821zM471.381 52.736c0-7.851 2.731-14.677 8.533-20.48s12.288-8.533 20.139-8.533c7.851 0 14.677 2.731 20.48 8.533s8.533 12.629 8.533 20.48c0 7.509-2.731 13.995-8.533 19.797s-12.629 8.533-20.48 8.533c-7.509 0-13.995-2.731-19.797-8.533s-8.875-12.288-8.875-19.797zM581.973 242.859c0-7.168 2.731-13.653 8.192-19.456 5.803-5.803 12.629-8.533 20.48-8.533s14.677 2.731 20.139 7.851c5.461 5.461 8.192 11.947 8.192 20.139s-2.731 14.677-7.851 20.139c-5.461 5.461-11.947 7.851-20.139 7.851s-15.019-2.731-20.48-7.851c-5.803-5.12-8.533-11.947-8.533-20.139zM581.973 118.955c0-7.509 2.731-14.336 8.192-19.797s12.288-8.192 20.48-8.192c8.192 0 14.677 2.731 20.139 7.851 5.461 5.461 7.851 11.947 7.851 20.139s-2.731 15.019-8.192 20.48c-5.461 5.803-11.947 8.533-20.139 8.533-7.851 0-14.677-2.731-20.48-8.533s-7.851-12.288-7.851-20.48zM615.424 652.117c23.211 23.211 51.2 34.475 84.651 34.475s61.781-11.947 85.333-35.499 35.157-52.224 35.157-86.016c0-20.139-5.803-40.96-17.408-62.805-32.768 32.768-72.704 49.152-119.467 49.152h-10.581c-9.557 39.936-29.013 73.387-57.685 100.693z" />
<glyph unicode="&#xe955;" glyph-name="wi-night-snow-wind" d="M144.384 383.488c0-45.397 16.043-84.651 47.787-117.419s70.656-50.176 116.053-52.224c4.096 0 6.144 2.048 6.144 5.803v45.739c0 3.755-2.048 5.803-6.144 5.803-29.355 1.707-54.272 13.312-74.752 35.157s-30.72 47.445-30.72 77.141c0 28.331 9.557 52.907 29.013 74.069 19.456 20.821 43.349 33.109 71.68 36.523l18.091 1.365c4.437 0 6.827 2.048 6.827 6.144l2.389 18.432c3.755 36.864 19.115 67.925 46.763 92.843s60.075 37.547 97.28 37.547c37.205 0 69.632-12.629 97.621-37.547s43.691-55.979 47.787-92.843l2.731-19.456c0-4.096 2.048-6.485 5.803-6.485h55.296c31.061 0 57.344-10.923 79.531-32.427 21.845-21.504 33.109-47.787 33.109-77.824 0-29.355-10.24-54.955-31.061-76.8s-45.739-33.792-74.752-35.499c-4.096 0-6.485-2.048-6.485-5.803v-45.739c0-3.755 2.048-5.803 6.485-5.803 45.739 1.365 84.309 18.773 116.053 51.541 31.744 33.109 47.445 72.363 47.445 117.76 0 24.235-4.779 47.104-14.677 68.608 26.965 32.768 40.277 70.656 40.277 113.323 0 32.427-8.192 62.464-24.235 90.112s-37.888 49.493-65.536 65.536-57.344 23.893-89.429 23.893c-52.907 0-97.28-19.797-132.779-59.051-27.648 14.677-58.368 22.187-92.501 22.187-48.128 0-91.136-15.019-128.341-45.056s-61.44-68.267-72.021-114.688c-37.888-8.875-68.949-28.672-93.525-59.392-24.917-31.061-37.205-66.219-37.205-105.472zM331.776 119.979c0-7.168 2.731-13.653 8.192-19.456 6.144-5.461 12.629-8.192 19.797-8.192 8.192 0 14.677 2.731 20.139 7.851 5.461 5.461 7.851 11.947 7.851 19.797 0 8.192-2.731 14.677-8.192 20.139s-11.947 7.851-20.139 7.851c-7.851 0-14.677-2.731-20.139-7.851-4.779-5.12-7.509-11.947-7.509-20.139zM361.131 243.883c0-8.192 2.731-15.019 8.192-20.821s11.947-8.533 20.139-8.533c7.851 0 14.677 2.731 20.139 8.533s8.192 12.629 8.192 20.821c0 7.851-2.731 14.336-8.192 19.797s-11.947 8.192-20.139 8.192c-7.851 0-14.677-2.731-20.139-8.192s-8.192-12.288-8.192-19.797zM425.643 53.419c0-7.509 2.731-13.995 8.192-19.456 5.803-5.803 12.288-8.533 19.797-8.533 8.192 0 15.019 2.731 20.48 7.851 5.803 5.461 8.533 11.947 8.533 20.139s-2.731 15.019-8.533 20.48c-5.803 5.803-12.629 8.533-20.48 8.533-7.509 0-13.995-2.731-19.797-8.533-5.12-5.803-8.192-12.629-8.192-20.48zM454.997 178.347c0-7.509 2.731-14.336 8.533-20.48 5.461-5.461 11.947-8.192 19.456-8.192 8.192 0 15.019 2.731 20.821 8.192s8.533 12.288 8.533 20.48c0 7.851-2.731 14.677-8.533 20.48s-12.629 8.533-20.821 8.533c-7.851 0-14.336-2.731-19.797-8.533s-8.192-12.629-8.192-20.48zM469.675 301.227c0-7.851 2.731-14.336 8.192-19.797s12.288-8.192 19.797-8.192c8.192 0 15.019 2.731 20.48 8.192 5.803 5.461 8.533 11.947 8.533 20.139 0 7.851-2.731 14.677-8.533 20.139s-12.629 8.192-20.48 8.192c-7.509 0-14.336-2.731-19.797-8.192s-8.192-12.629-8.192-20.48zM550.571 119.979c0-7.168 2.731-13.653 7.851-19.456 5.803-5.461 12.971-8.192 20.48-8.192 8.192 0 14.677 2.731 20.139 7.851 5.461 5.461 7.851 11.947 7.851 19.797 0 8.192-2.731 14.677-7.851 20.139-5.461 5.461-11.947 7.851-20.139 7.851s-15.019-2.731-20.48-8.192c-5.12-5.12-7.851-11.947-7.851-19.797zM579.584 243.883c0-8.192 2.731-15.019 8.192-20.821s12.288-8.533 20.139-8.533c7.851 0 14.677 2.731 20.139 8.533s8.192 12.629 8.192 20.821c0 7.851-2.731 14.336-8.192 19.797s-11.947 8.192-20.139 8.192c-7.851 0-14.677-2.731-20.139-8.192s-8.192-12.288-8.192-19.797zM615.424 652.117c23.211 23.211 51.2 34.475 84.651 34.475s61.781-11.947 85.333-35.499 35.157-52.224 35.157-86.016c0-20.139-5.803-40.96-17.408-62.805-32.768 32.768-72.704 49.152-119.467 49.152h-10.581c-9.557 39.936-29.013 73.387-57.685 100.693z" />
<glyph unicode="&#xe956;" glyph-name="wi-night-snow-thunderstorm" d="M144.384 383.829c0-38.229 11.264-72.363 34.133-102.4s52.224-50.176 88.064-60.075l-22.528-58.027c-1.707-4.779 0-7.509 4.779-7.509h72.704l-48.469-143.701h9.899l148.821 193.195c1.365 1.365 1.365 3.072 0.683 4.779s-2.389 2.389-4.779 2.389h-74.752l84.992 158.72c2.389 4.779 1.024 7.509-4.779 7.509h-101.376c-3.072 0-5.803-1.707-7.851-5.12l-36.523-98.304c-24.576 6.144-44.715 19.115-60.757 39.595-16.043 20.139-23.893 43.008-23.893 68.949 0 28.672 9.557 53.589 28.672 74.411s43.349 33.109 72.021 36.523l17.408 1.024c4.096 0 6.485 1.707 7.509 4.779l2.731 20.139c3.755 36.864 19.115 67.925 46.763 92.843s60.075 37.547 97.621 37.547c37.205 0 69.632-12.629 97.621-37.547s44.032-55.979 47.787-92.843l2.731-20.139c0-3.755 2.048-5.803 6.144-5.803h54.955c30.379 0 56.661-10.923 78.848-32.768s33.109-47.787 33.109-78.165c0-29.696-10.24-55.296-30.72-77.141s-45.056-33.451-74.411-35.157c-4.437 0-6.827-2.048-6.827-6.144v-45.739c0-3.755 2.389-5.803 6.827-5.803 30.037 0.683 57.685 8.875 82.603 24.576 24.917 15.36 44.715 36.181 59.392 61.781s21.845 53.589 21.845 83.627c0 24.917-4.779 47.787-14.677 68.949 25.941 32.768 38.912 70.315 38.912 112.299 0 32.427-8.192 62.464-24.235 90.112s-37.888 49.493-65.536 65.536c-27.648 16.043-57.685 24.235-90.112 24.235-24.576 0-48.469-5.12-71.68-15.36s-43.008-24.576-60.075-42.667c-27.648 14.677-58.368 22.187-92.843 22.187-48.469 0-91.477-15.019-128.683-45.056s-61.44-68.267-71.68-115.029c-37.888-8.875-68.949-28.672-93.525-59.392-24.576-31.403-36.864-66.56-36.864-105.813zM471.723 176.299c0-8.192 2.731-15.019 8.192-20.139 5.461-5.461 12.288-8.192 19.797-8.192 8.192 0 15.019 2.731 20.821 8.192s8.533 12.288 8.533 20.139c0 8.192-2.731 15.019-8.533 20.821s-12.629 8.875-20.821 8.875c-7.509 0-13.995-3.072-19.797-8.875s-8.192-12.629-8.192-20.821zM471.723 300.544c0-8.192 2.731-14.677 8.192-19.797 5.461-5.461 12.288-8.192 19.797-8.192 8.192 0 15.36 2.731 20.821 7.851s8.533 11.947 8.533 20.139c0 7.851-2.731 14.677-8.533 20.48s-12.629 8.533-20.821 8.533c-7.851 0-14.336-2.731-19.797-8.533s-8.192-12.629-8.192-20.48zM471.723 51.029c0-7.509 2.731-13.995 8.192-19.456 5.803-5.803 12.288-8.533 19.797-8.533 8.192 0 15.019 2.731 20.821 8.192s8.533 11.947 8.533 20.139c0 8.192-2.731 15.019-8.533 20.821s-12.629 8.875-20.821 8.875c-7.509 0-13.995-3.072-19.797-8.875-5.461-6.144-8.192-13.312-8.192-21.163zM581.973 242.517c0-8.192 2.731-15.019 8.533-20.48s12.288-8.533 20.48-8.533c7.851 0 14.677 2.731 20.139 8.533s8.192 12.629 8.192 20.48c0 7.509-2.731 14.336-8.192 19.797s-11.947 8.192-20.139 8.192c-7.851 0-14.677-2.731-20.48-8.192s-8.533-11.947-8.533-19.797zM581.973 118.272c0-7.851 2.731-14.336 8.192-19.797s12.288-8.192 20.48-8.192c8.192 0 14.677 2.731 20.139 8.192s7.851 11.947 7.851 20.139c0 8.192-2.731 14.677-7.851 20.139-5.461 5.461-11.947 7.851-20.139 7.851s-15.019-2.731-20.48-7.851c-5.461-5.461-8.192-12.288-8.192-20.48zM616.448 652.117c22.869 21.845 50.517 33.109 83.627 33.109 33.451 0 62.123-11.605 85.675-35.157 23.552-23.211 35.499-51.883 35.499-85.333 0-22.528-5.461-43.008-16.043-61.781-32.768 32.768-72.704 49.152-120.149 49.152h-10.581c-10.24 40.619-29.696 74.069-58.027 100.011z" />
</font>
</defs>
</svg>
