<?xml version="1.0" standalone="no"?>
<!DOCTYPE svg PUBLIC "-//W3C//DTD SVG 1.1//EN" "http://www.w3.org/Graphics/SVG/1.1/DTD/svg11.dtd" >
<svg>
<metadata>
Created by FontForge 20090622 at Mon Sep  4 15:03:37 2017
 By deploy user
Copyright (c) 2015 by Context Ltd. All rights reserved.
</metadata>
<defs>
<font id="Repo-Medium" horiz-adv-x="589" >
  <font-face 
    font-family="Repo"
    font-weight="500"
    font-stretch="normal"
    units-per-em="1000"
    panose-1="2 0 6 3 4 0 0 2 0 4"
    ascent="800"
    descent="-200"
    x-height="533"
    cap-height="699"
    bbox="-540 -364 1415 1224"
    underline-thickness="120"
    underline-position="-183"
    unicode-range="U+0009-U+FB04"
  />
<missing-glyph horiz-adv-x="562" 
d="M50 0v530h486v-530h-486zM69 74v-2q65 144 202 283q-40 18 -77 25q-72 -123 -125 -306zM348 313q-144 -73 -272 -241q178 125 340 183q-36 38 -68 58zM97 72h420q-9 58 -40 101q-216 -29 -380 -101z" />
    <glyph glyph-name="f_f" unicode="ff" horiz-adv-x="786" 
d="M455 456h-146v-460h-103v444l-65 16l-15 31l65 46l15 20q0 105 33.5 160.5t118.5 66.5q60 6 109 -8l-10 -77q-90 17 -119 -22.5t-29 -139.5h146v-77zM602 456h-146v-460h-103v444l-65 16l-15 31l65 46l15 20q0 105 33.5 160.5t118.5 66.5q60 6 109 -8l-10 -77
q-90 17 -119 -22.5t-29 -139.5h146v-77z" />
    <glyph glyph-name="f_i" unicode="fi" horiz-adv-x="640" 
d="M282 784q70 0 116 -22l-20 -90q-42 19 -89 19q-68 0 -89.5 -36t-21.5 -127h202v-91h-202v-445h-105v576q0 216 209 216zM566 528v-536h-105v536h105zM581 674q0 -31 -19.5 -50t-48.5 -19t-48.5 19t-19.5 50t19.5 50t48.5 19t48.5 -19t19.5 -50z" />
    <glyph glyph-name="f_l" unicode="fl" horiz-adv-x="676" 
d="M282 784q70 0 116 -22l-20 -90q-42 19 -89 19q-68 0 -89.5 -36t-21.5 -127h202v-91h-202v-445h-105v576q0 216 209 216zM662 45l-19 -59q-98 8 -137.5 48.5t-39.5 139.5v606h103v-550q0 -75 9.5 -111t26 -49t57.5 -25z" />
    <glyph glyph-name="f_f_i" unicode="ffi" horiz-adv-x="1028" 
d="M282 784q77 0 121 -23l-22 -90q-46 20 -92 20q-68 0 -89 -36t-22 -127h202v-91h-202v-445h-105v576q0 216 209 216zM670 784q70 0 116 -22l-20 -90q-42 19 -89 19q-68 0 -89 -36t-22 -127h202v-91h-202v-445h-105v576q0 216 209 216zM925 595q33 -152 33 -281
q0 -81 -4 -142q-21 -15 -53 -15q-22 0 -39 4q-17 150 -17 277q0 65 5 142q32 15 75 15zM965 476q-31 -36 -93 -36q-34 48 -34 118t34 118h59q34 -97 34 -200z" />
    <glyph glyph-name="f_f_l" unicode="ffl" horiz-adv-x="1077" 
d="M282 784q77 0 121 -23l-22 -90q-46 20 -92 20q-68 0 -89 -36t-22 -127h202v-91h-202v-445h-105v576q0 216 209 216zM670 784q70 0 116 -22l-20 -90q-42 19 -89 19q-68 0 -89 -36t-22 -127h202v-91h-202v-445h-105v576q0 216 209 216zM1046 45l-19 -59q-98 8 -137.5 48.5
t-39.5 139.5v606h103v-550q0 -75 9.5 -111t26 -49t57.5 -25z" />
    <glyph glyph-name=".notdef" horiz-adv-x="562" 
d="M50 0v530h486v-530h-486zM69 74v-2q65 144 202 283q-40 18 -77 25q-72 -123 -125 -306zM348 313q-144 -73 -272 -241q178 125 340 183q-36 38 -68 58zM97 72h420q-9 58 -40 101q-216 -29 -380 -101z" />
    <glyph glyph-name=".null" horiz-adv-x="0" 
 />
    <glyph glyph-name=".null" horiz-adv-x="0" 
 />
    <glyph glyph-name="nonmarkingreturn" horiz-adv-x="333" 
 />
    <glyph glyph-name="CR" unicode="&#x9;" horiz-adv-x="231" 
 />
    <glyph glyph-name="space" unicode=" " horiz-adv-x="262" 
 />
    <glyph glyph-name="exclam" unicode="!" horiz-adv-x="231" 
d="M168 747l-3 -266q0 -43 -3 -88.5t-8 -102l-7 -79.5h-63q-19 222 -19 270l-3 266q26 12 52 12q28 0 54 -12zM181 56q0 -28 -18.5 -46.5t-46.5 -18.5t-47 18.5t-19 46.5t18.5 47t47.5 19q28 0 46.5 -19t18.5 -47z" />
    <glyph glyph-name="quotedbl" unicode="&#x22;" horiz-adv-x="366" 
d="M155 747q-11 -153 -25 -267h-54q-14 107 -26 267q26 12 53 12q26 0 52 -12zM316 747q-12 -160 -26 -267h-54q-17 152 -25 267q24 12 52 12q27 0 53 -12z" />
    <glyph glyph-name="numbersign" unicode="#" horiz-adv-x="666" 
d="M565 429h-107l-30 -159h119v-69h-131l-38 -205h-78l38 205h-131l-39 -205h-77l38 204h-94v70h106l30 158h-118v70h131l35 196h78q-5 -31 -17 -96.5l-18 -99.5h131q32 176 36 196h78l-37 -196h95v-69zM380 429h-131l-30 -159h131z" />
    <glyph glyph-name="dollar" unicode="$" horiz-adv-x="565" 
d="M476 192q0 -76 -46.5 -126.5t-127.5 -61.5q2 -86 4 -127h-79q1 21 2.5 62t2.5 62q-104 3 -167 42l29 79q52 -30 117 -36q17 -2 52 0q53 5 79.5 31.5t26.5 68.5q0 46 -30.5 72.5t-100.5 52.5q-68 27 -109 62.5t-49 92.5q-3 16 -3 35q2 72 45 119.5t122 60.5q-2 80 -4 116
h78q-2 -38 -4 -114q79 -4 135 -34l-24 -75q-62 30 -129 30q-56 0 -85.5 -25.5t-29.5 -72.5q0 -19 7 -35t16 -26t29 -22t34 -18l43 -18q84 -33 125 -79.5t41 -115.5z" />
    <glyph glyph-name="percent" unicode="%" horiz-adv-x="854" 
d="M800 198q0 -91 -37.5 -151t-107.5 -60q-71 0 -108 59.5t-37 151.5q0 91 37.5 151t107.5 60t107 -60t38 -151zM631 725l-340 -777l-84 13l341 777zM344 496q0 -92 -37.5 -152t-107.5 -60q-71 0 -108 60t-37 152t37 151.5t108 59.5q70 0 107.5 -60t37.5 -151zM728 199
q2 154 -73 154t-73 -154q0 -154 73 -154t73 154zM272 496q0 155 -73 155q-74 0 -74 -155q0 -153 74 -153q73 0 73 153z" />
    <glyph glyph-name="ampersand" unicode="&#x26;" horiz-adv-x="666" 
d="M43 183q0 128 146 203q-59 59 -68 121q-3 19 -1 41q4 75 51 117.5t123 42.5q79 0 124.5 -43t45.5 -110q0 -63 -39 -107t-106 -83l156 -162q36 60 48 142l81 -9q-23 -114 -68 -184q74 -79 114 -152h-97q-35 54 -68 86q-95 -95 -216 -95q-117 0 -171.5 57.5t-54.5 134.5z
M132 187q0 -48 34.5 -84t103.5 -36q89 0 161 67l-192 202q-32 -17 -51.5 -31.5t-37.5 -45.5t-18 -72zM379 552q0 37 -22.5 59t-61.5 22q-92 0 -92 -91q0 -70 68 -128q108 56 108 138z" />
    <glyph glyph-name="quotesingle" unicode="'" horiz-adv-x="242" 
d="M169 721l-3 -62q-2 -75 -19 -203h-59q-18 129 -20 217q0 7 -1 23.5t-1 24.5q19 12 47 12q32 0 56 -12z" />
    <glyph glyph-name="parenleft" unicode="(" horiz-adv-x="323" 
d="M332 -171l-63 -39q-201 241 -201 502t201 503l63 -39q-158 -214 -158 -464q0 -251 158 -463z" />
    <glyph glyph-name="parenright" unicode=")" horiz-adv-x="323" 
d="M278 292q0 -260 -201 -502l-63 39q157 211 157 463q0 251 -157 464l63 39q201 -244 201 -503z" />
    <glyph glyph-name="asterisk" unicode="*" horiz-adv-x="480" 
d="M192 693h93q0 -79 -17 -158q9 4 41 20t56 26.5t49 17.5l29 -89q-50 -19 -157 -33q85 -82 107 -118l-74 -55q-10 12 -19 25t-18 29.5l-14.5 26.5t-15.5 30.5t-14 27.5q-2 -5 -12.5 -26.5l-15.5 -31.5t-14.5 -27t-18.5 -30t-18 -24l-76 55q7 11 15 21.5t22 25.5l19.5 21
t27 27t24.5 23q-107 13 -157 33l28 88q22 -5 44.5 -14t59 -27.5t43.5 -21.5q-19 94 -17 158z" />
    <glyph glyph-name="plus" unicode="+" horiz-adv-x="565" 
d="M491 271h-175v-189h-83v189h-174v83h174v188h83v-188h175v-83z" />
    <glyph glyph-name="comma" unicode="," horiz-adv-x="263" 
d="M195 89q-24 -117 -105 -258l-67 18q39 102 56 216q3 14 5 38q68 14 85 14q29 0 26 -28z" />
    <glyph glyph-name="hyphen" unicode="-" horiz-adv-x="327" 
d="M287 266h-247v81h247v-81z" />
    <glyph glyph-name="period" unicode="." horiz-adv-x="256" 
d="M194 56q0 -30 -20 -49.5t-49 -19.5t-49 19.5t-20 49.5t20 49.5t49 19.5t49 -19.5t20 -49.5z" />
    <glyph glyph-name="slash" unicode="/" horiz-adv-x="381" 
d="M398 794l86 -16l-409 -989l-85 17z" />
    <glyph glyph-name="zero" unicode="0" horiz-adv-x="565" 
d="M501 345q0 -102 -22 -181t-74.5 -129.5t-129.5 -50.5q-78 0 -130.5 50.5t-74.5 129t-22 181.5t22 182t74.5 129.5t130.5 50.5q77 0 129.5 -50.5t74.5 -129.5t22 -182zM397 346q0 282 -122 282q-123 0 -123 -282q0 -281 123 -281q122 0 122 281z" />
    <glyph glyph-name="one" unicode="1" horiz-adv-x="565" 
d="M373 -4h-104v564q-26 -19 -73 -37.5t-90 -26.5l-15 45l-3 29q141 32 212 124h73v-698z" />
    <glyph glyph-name="two" unicode="2" horiz-adv-x="565" 
d="M478 -4h-426q4 11 13 31t10 23q4 24 15 49.5t21.5 44t32 46.5l31 39.5l36 42l31.5 36.5v-1l38 45q67 82 72 145q1 28 -5 54q-13 53 -73 65q-18 5 -48 5q-71 -7 -132 -48l-41 69q83 65 192 65q105 0 161.5 -52t56.5 -139q0 -88 -107 -210q-26 -32 -40 -47
q-83 -93 -99 -136q-18 -22 -29 -39h290v-88z" />
    <glyph glyph-name="three" unicode="3" horiz-adv-x="565" 
d="M478 197q0 -96 -67 -154.5t-184 -58.5q-111 0 -183 38l26 81q63 -34 147 -34q74 0 112.5 34t38.5 95q0 125 -164 133h-38v73q37 3 57 8q119 20 119 112q0 51 -32 75t-81 24q-71 0 -135 -37l-34 73q82 48 178 48q98 0 154 -47t56 -127q0 -55 -33.5 -93.5t-79.5 -57.5v-1
q62 -19 102.5 -64t40.5 -120z" />
    <glyph glyph-name="four" unicode="4" horiz-adv-x="565" 
d="M506 161h-69v-165h-99v165h-295v67q123 243 295 466h99v-459h69v-74zM339 575q-16 -16 -51 -75q-91 -136 -155 -265h205v191q0 26 0.5 77t0.5 72z" />
    <glyph glyph-name="five" unicode="5" horiz-adv-x="565" 
d="M482 199q0 -93 -66 -154t-182 -61q-110 0 -182 38l26 81q63 -35 147 -35q70 0 109.5 35t39.5 95q0 78 -64 116.5t-216 27.5q19 178 28 352h338v-88h-256q-5 -96 -14 -187q145 4 218.5 -55.5t73.5 -164.5z" />
    <glyph glyph-name="six" unicode="6" horiz-adv-x="565" 
d="M502 207q0 -91 -57.5 -157t-160.5 -66q-111 0 -169.5 74.5t-58.5 205.5q0 105 33.5 188.5t89 134t120 78.5t134.5 34q6 -26 16 -78q-215 -34 -270 -220q47 21 100 21q105 0 164 -57.5t59 -157.5zM399 208q0 142 -133 142q-54 0 -102 -22q-5 -26 -5 -70q0 -195 125 -195
q58 0 86.5 42t28.5 103z" />
    <glyph glyph-name="seven" unicode="7" horiz-adv-x="565" 
d="M504 694l-46 -148q-23 -29 -38 -57q-61 -122 -108.5 -257.5t-60.5 -235.5h-76q-7 0 -20.5 2t-20.5 2q38 149 106 313.5t141 291.5h-323v89h446z" />
    <glyph glyph-name="eight" unicode="8" horiz-adv-x="565" 
d="M498 174q0 -85 -61.5 -137.5t-162.5 -52.5q-104 0 -166.5 58t-52.5 148q7 97 126 167q-60 35 -86 74.5t-26 92.5q0 80 58.5 131.5t146.5 51.5q89 0 144 -46.5t60 -116.5q2 -19 -1 -32q-7 -89 -110 -154q131 -73 131 -184zM385 529q0 43 -29 73t-80 30q-50 0 -80 -30
t-30 -74q0 -46 26 -75.5t98 -60.5q51 31 73 62t22 75zM397 172q0 53 -31.5 82t-109.5 66q-59 -31 -82.5 -65.5t-23.5 -82.5t34 -79t90 -31q57 0 90 31t33 79z" />
    <glyph glyph-name="nine" unicode="9" horiz-adv-x="565" 
d="M493 423q0 -85 -21.5 -156t-58 -120t-86 -84t-103 -52.5t-111.5 -20.5q-1 7 -6.5 35l-8.5 43q217 23 274 221q-50 -22 -102 -22q-104 0 -163 57.5t-59 157.5q0 91 57 157t161 66q112 0 169.5 -74.5t57.5 -207.5zM391 427q0 200 -126 200q-58 0 -86 -42t-28 -102
q0 -142 133 -142q54 0 102 22q5 35 5 64z" />
    <glyph glyph-name="colon" unicode=":" horiz-adv-x="255" 
d="M194 416q0 -30 -20 -49.5t-49 -19.5t-49 19.5t-20 49.5t20 49t49 19q30 0 49.5 -19t19.5 -49zM194 56q0 -30 -20 -49.5t-49 -19.5t-49 19.5t-20 49.5t20 49.5t49 19.5t49 -19.5t20 -49.5z" />
    <glyph glyph-name="semicolon" unicode=";" horiz-adv-x="246" 
d="M197 416q-1 -30 -20.5 -49.5t-49.5 -19.5q-29 0 -49 19.5t-20 49.5t20 49t49 19q30 0 50 -19t20 -49zM195 89q-24 -117 -105 -258l-67 18q39 102 56 216q3 14 5 38q68 14 85 14q29 0 26 -28z" />
    <glyph glyph-name="less" unicode="&#x3c;" horiz-adv-x="565" 
d="M476 96l-417 180v75l417 180q11 -61 16 -83l-327 -135l327 -135q-5 -22 -16 -82z" />
    <glyph glyph-name="equal" unicode="=" horiz-adv-x="565" 
d="M491 452v-81l-432 -1v82h432zM491 173h-432v81h432v-81z" />
    <glyph glyph-name="greater" unicode="&#x3e;" horiz-adv-x="565" 
d="M490 276l-417 -180l-15 82l326 135l-326 135l15 83l417 -180v-75z" />
    <glyph glyph-name="question" unicode="?" horiz-adv-x="401" 
d="M373 548q0 -39 -17 -73.5t-41 -59.5l-48.5 -49.5t-42.5 -56t-19 -67.5q0 -8 -0.5 -38.5t-0.5 -34.5h-79q-8 48 -8 94q0 29 16 59t38.5 55.5l45 50t38.5 52t16 51.5q0 45 -29.5 71.5t-76.5 26.5q-57 0 -110 -31l-26 67q24 15 66.5 26.5t84.5 11.5q94 0 143.5 -41
t49.5 -114zM238 56q0 -28 -18.5 -46.5t-46.5 -18.5t-47 18.5t-19 46.5t18.5 47t47.5 19q28 0 46.5 -19t18.5 -47z" />
    <glyph glyph-name="at" unicode="@" horiz-adv-x="950" 
d="M841 369q1 -110 -46.5 -197.5t-121.5 -102.5q-45 -7 -74 4.5t-48 49.5q-32 -31 -79.5 -46.5t-90.5 -8.5q-56 10 -87.5 58.5t-31.5 122.5q0 59 23.5 115t71.5 95t110 39q29 0 55 -13t39 -33l8 37l58 -13l-32 -292q-6 -35 8.5 -53t41.5 -18q41 0 71 53.5t41 119.5t5 118
q-11 106 -83.5 173t-182.5 67q-145 0 -241.5 -97.5t-110.5 -251.5q-10 -107 21 -192.5t108.5 -138t193.5 -52.5q146 0 232 81q9 -33 17 -59q-90 -87 -249 -87q-133 0 -228 59t-138 158.5t-33 223.5q13 192 146 312.5t322 106.5q133 -10 218.5 -102t86.5 -236zM520 161
l21 204q1 31 -30.5 48.5t-66.5 11.5q-47 -8 -73.5 -48.5t-33.5 -97.5q-3 -32 2 -62.5t23.5 -57t48.5 -30.5q57 -8 109 32z" />
    <glyph glyph-name="A" unicode="A" horiz-adv-x="644" 
d="M627 -4h-116l-61 186h-268q-40 -111 -63 -186h-105q168 478 258 698h96q69 -171 259 -698zM427 260l-83 239q-6 16 -11.5 35t-9 30t-6.5 17q-2 -4 -15 -42q-16 -50 -50 -145t-47 -134h222z" />
    <glyph glyph-name="B" unicode="B" horiz-adv-x="642" 
d="M560 192q0 -102 -74.5 -153t-215.5 -51q-115 0 -194 29v656q79 29 189 29q124 0 195 -46t71 -137q0 -58 -31.5 -96t-79.5 -55q59 -16 99.5 -61t40.5 -115zM425 513q0 112 -156 112h-8h-8q-36 0 -72 -9v-219h59q95 0 140 25.5t45 90.5zM451 193q0 75 -50 103.5t-158 28.5
q-11 0 -31 -0.5t-31 -0.5v-247q44 -10 90 -10q180 0 180 126z" />
    <glyph glyph-name="C" unicode="C" horiz-adv-x="608" 
d="M528 27q-59 -43 -180 -43q-135 0 -215.5 99t-80.5 262q0 160 83.5 261t215.5 101q109 0 173 -45l-29 -79q-55 36 -129 36q-65 0 -110.5 -35.5t-66.5 -98.5q-26 -65 -24 -150q2 -95 37 -163t102 -88q32 -10 69 -9q70 1 126 31z" />
    <glyph glyph-name="D" unicode="D" horiz-adv-x="712" 
d="M604 348q0 -170 -88.5 -265t-251.5 -95q-110 0 -188 28v657q82 29 187 29q162 0 251.5 -92t89.5 -262zM493 349q0 271 -227 271q-54 0 -82 -8v-531q24 -8 83 -8q226 0 226 276z" />
    <glyph glyph-name="E" unicode="E" horiz-adv-x="569" 
d="M470 -4h-394v698h381v-84h-272v-211h243v-83h-243v-236h285v-84z" />
    <glyph glyph-name="F" unicode="F" horiz-adv-x="535" 
d="M454 610h-269v-213h240v-83h-240v-318h-109v698h378v-84z" />
    <glyph glyph-name="G" unicode="G" horiz-adv-x="670" 
d="M567 22q-70 -38 -203 -38q-140 0 -226.5 95t-86.5 268q0 168 90 264t227 96q118 0 192 -45l-33 -79q-58 35 -142 36q-105 2 -164 -68t-59 -207q0 -130 55 -202.5t151 -72.5q68 0 94 13v207h-69v86h174v-353z" />
    <glyph glyph-name="H" unicode="H" horiz-adv-x="704" 
d="M577 -4h-108v319h-284v-319h-109v698h109v-296h284v296h108v-698z" />
    <glyph glyph-name="I" unicode="I" horiz-adv-x="267" 
d="M186 -4h-108v698h108v-698z" />
    <glyph glyph-name="J" unicode="J" horiz-adv-x="499" 
d="M304 127q0 -211 -188 -237q-64 -6 -138 20q14 54 22 81q61 -18 107 1q53 18 71 63t18 137v46v456h108v-567z" />
    <glyph glyph-name="K" unicode="K" horiz-adv-x="623" 
d="M573 -4h-84q-7 0 -20.5 1t-20.5 1q-118 188 -263 334v-336h-107v698h107v-305q122 132 251 305h121q-92 -116 -276 -325q75 -77 155 -178.5t137 -194.5z" />
    <glyph glyph-name="L" unicode="L" horiz-adv-x="519" 
d="M446 -4h-368v698h108v-614h260v-84z" />
    <glyph glyph-name="M" unicode="M" horiz-adv-x="874" 
d="M774 -4h-105q-30 434 -41 545l-19 -51l-74.5 -205.5t-85.5 -240.5h-75q-24 75 -86 243.5l-74 202.5q-4 10 -8 22l-6.5 19.5t-3.5 9.5q-19 -189 -42 -545h-99q41 488 66 698h105q111 -286 165 -441q5 -14 10 -30.5l8 -26.5t5 -14q2 0 5.5 10t9 28.5t9.5 30.5
q95 267 169 443h101q25 -210 66 -698z" />
    <glyph glyph-name="N" unicode="N" horiz-adv-x="722" 
d="M608 -4h-59l-32 2q-104 182 -300 476q-8 11 -18.5 29.5l-16.5 28.5t-9 10q0 -13 1 -91t1 -119v-336h-99v698h97q165 -228 301 -451l15.5 -27.5l13.5 -24.5t8 -12q0 27 -1 125t-1 146v244h99v-698z" />
    <glyph glyph-name="O" unicode="O" horiz-adv-x="695" 
d="M644 345q0 -166 -79.5 -263.5t-216.5 -97.5t-216.5 97.5t-79.5 263.5q0 165 79.5 263.5t216.5 98.5t216.5 -98.5t79.5 -263.5zM533 347q0 121 -47 198t-138 77q-92 0 -138.5 -77t-46.5 -198t46 -198t139 -77t139 77t46 198z" />
    <glyph glyph-name="P" unicode="P" horiz-adv-x="607" 
d="M537 484q0 -111 -76.5 -168t-226.5 -52q-8 0 -25 0.5t-26 0.5v-269h-107v677q82 29 186 29q137 0 206 -57t69 -161zM429 485q0 139 -166 139q-29 0 -80 -9v-271h48q101 -5 149.5 29.5t48.5 111.5z" />
    <glyph glyph-name="Q" unicode="Q" horiz-adv-x="778" 
d="M643 346q0 -127 -51 -215.5t-142 -124.5q19 -36 60 -63.5t103 -56.5l-51 -79q-163 74 -200 183q-37 -3 -73 5q-115 15 -176.5 109t-61.5 242q0 164 80 262.5t216 98.5t216 -98.5t80 -262.5zM533 348q0 121 -47 197.5t-139 76.5t-138.5 -76.5t-46.5 -197.5t46 -198.5
t139 -77.5q63 0 105.5 38.5t61.5 99t19 138.5z" />
    <glyph glyph-name="R" unicode="R" horiz-adv-x="636" 
d="M569 -4h-120q-113 197 -187 290h-78v-290h-106v678q81 28 184 28q135 0 204.5 -55t69.5 -160q0 -76 -43.5 -126t-119.5 -64v-1q70 -89 196 -300zM427 485q0 142 -158 142q-48 0 -85 -11v-264h85q158 0 158 133z" />
    <glyph glyph-name="S" unicode="S" horiz-adv-x="535" 
d="M462 187q0 -94 -64 -148.5t-173 -54.5q-123 0 -193 45q11 28 31 84q68 -41 153 -41q64 0 99 28t35 82q0 50 -33.5 77t-112.5 59q-136 56 -155 158q-4 20 -2 50q5 82 63.5 131.5t154.5 49.5q103 0 172 -44l-31 -79q-60 38 -134 38q-56 0 -87.5 -26t-31.5 -76q0 -48 33 -74
t104 -53q91 -38 131.5 -86t40.5 -120z" />
    <glyph glyph-name="T" unicode="T" horiz-adv-x="566" 
d="M479 610h-175v-614h-108v614h-176v84h459v-84z" />
    <glyph glyph-name="U" unicode="U" horiz-adv-x="688" 
d="M564 228q0 -109 -63.5 -177t-182.5 -68q-104 0 -166.5 54.5t-72.5 144.5q-5 38 -5 95v417h108v-404q0 -111 31 -164t108 -53q55 0 91 32t43 93q5 47 5 93v403h104v-466z" />
    <glyph glyph-name="V" unicode="V" horiz-adv-x="651" 
d="M586 694q-133 -408 -240 -698h-58l-38 2q-109 293 -240 696h115l144 -465l12 -37.5l11.5 -38t8.5 -22.5q4 9 32 99q49 142 144 464h109z" />
    <glyph glyph-name="W" unicode="W" horiz-adv-x="929" 
d="M848 694q-80 -396 -166 -698h-99l-126 415q-5 18 -11 44.5t-8 32.5q-3 -5 -5.5 -16.5t-7 -29.5l-7.5 -31q-26 -94 -127 -415h-98q-83 286 -166 698h111q44 -240 90 -452q17 -83 24 -105q5 4 27 90l119 427h86q60 -237 117 -425q4 -13 10 -34.5t10.5 -35.5t7.5 -22
q1 1 15 71q47 205 100 486h104z" />
    <glyph glyph-name="X" unicode="X" horiz-adv-x="602" 
d="M575 -4h-86q-6 0 -19 0.5t-19 1.5q-47 100 -152 279q-96 -158 -158 -281h-114q60 115 212 363l-197 335h121l139 -250h1l146 250h112l-199 -328q136 -219 213 -370z" />
    <glyph glyph-name="Y" unicode="Y" horiz-adv-x="595" 
d="M546 694q-125 -242 -217 -404v-294h-107v293q-115 202 -218 405h120q76 -169 155 -312q74 136 157 312h110z" />
    <glyph glyph-name="Z" unicode="Z" horiz-adv-x="574" 
d="M476 -4h-450v77q26 57 71 139l73.5 130l92 152l70.5 116h-290v84h426v-70q-22 -41 -141 -241.5t-168 -302.5h316v-84z" />
    <glyph glyph-name="bracketleft" unicode="[" horiz-adv-x="327" 
d="M314 -204h-232v992h232v-73h-137v-846h137v-73z" />
    <glyph glyph-name="backslash" unicode="\" horiz-adv-x="381" 
d="M486 -194q-14 -3 -43 -8.5l-44 -8.5l-409 989l86 16z" />
    <glyph glyph-name="bracketright" unicode="]" horiz-adv-x="327" 
d="M255 -204h-232v73h136v846h-136v73h232v-992z" />
    <glyph glyph-name="asciicircum" unicode="^" horiz-adv-x="565" 
d="M510 412l-62 -41l-161 235l-161 -235l-61 41l156 241q20 30 44 46q39 0 69 -13q41 -68 176 -274z" />
    <glyph glyph-name="underscore" unicode="_" horiz-adv-x="535" 
d="M535 -198h-535v81h535v-81z" />
    <glyph glyph-name="grave" unicode="`" horiz-adv-x="250" 
d="M228 576h-66l-150 189h132z" />
    <glyph glyph-name="a" unicode="a" horiz-adv-x="521" 
d="M446 17q-74 -31 -197 -31q-101 0 -156 41.5t-55 124.5q0 164 236 182q18 1 72 -2q-1 67 -24.5 100t-87.5 33q-69 0 -134 -29l-19 76q73 33 166 33q91 0 142 -44t55 -130q2 -19 2 -61v-293zM347 71v192q-35 4 -76 1q-62 -8 -96.5 -32t-34.5 -78q0 -94 118 -94q53 0 89 11z
" />
    <glyph glyph-name="b" unicode="b" 
d="M516 270q0 -132 -69 -208.5t-191 -76.5q-110 0 -186 34v761h104v-266q50 28 116 28q104 0 165 -74.5t61 -197.5zM411 268q0 89 -34 143t-106 54q-51 0 -97 -27v-363q27 -11 84 -11q75 0 114 54t39 150z" />
    <glyph glyph-name="c" unicode="c" horiz-adv-x="471" 
d="M418 19q-54 -34 -138 -34q-109 0 -171.5 75.5t-62.5 203.5t63.5 204.5t168.5 76.5q77 0 135 -33l-24 -75q-46 25 -96 25q-71 0 -106 -51.5t-35 -144.5q0 -92 36 -144.5t109 -52.5q53 0 99 27z" />
    <glyph glyph-name="d" unicode="d" 
d="M491 22q-74 -37 -190 -37q-119 0 -187 74t-68 201q0 129 64.5 205t173.5 76q56 0 104 -22v261h103v-758zM388 77v366q-44 22 -88 22q-78 0 -114 -55t-36 -146q0 -93 39.5 -146t113.5 -53q59 0 85 12z" />
    <glyph glyph-name="e" unicode="e" horiz-adv-x="558" 
d="M494 254l-344 -25q14 -160 161 -160q77 0 137 30l21 -78q-62 -36 -167 -36q-124 0 -190 73.5t-66 206.5t65.5 206.5t166.5 73.5q94 0 149.5 -55.5t63.5 -163.5q2 -31 3 -72zM393 317q-1 74 -31 111.5t-85 37.5q-58 0 -93 -44.5t-36 -123.5z" />
    <glyph glyph-name="f" unicode="f" horiz-adv-x="400" 
d="M338 456h-146v-460h-103v444l-65 16l-15 31l65 46l15 20q0 105 33.5 160.5t118.5 66.5q60 6 109 -8l-10 -77q-90 17 -119 -22.5t-29 -139.5h146v-77z" />
    <glyph glyph-name="g" unicode="g" horiz-adv-x="579" 
d="M485 14q0 -225 -234 -225q-102 0 -175 34q4 16 13 45.5t11 34.5q56 -27 127 -30q68 -1 105 29q52 28 52 100v30q-43 -28 -113 -28q-101 0 -163 68.5t-62 192.5q0 126 67 202.5t188 76.5q106 0 184 -34v-496zM384 107v348q-33 12 -84 12q-73 0 -111.5 -53.5t-38.5 -145.5
q0 -93 36.5 -140t101.5 -47q55 0 96 26z" />
    <glyph glyph-name="h" unicode="h" horiz-adv-x="575" 
d="M490 -4h-103v283q0 39 -1.5 62t-7.5 49t-18 40t-34 23t-54 9q-56 0 -98 -21v-445h-104v784h104v-264q56 23 107 25q56 1 96.5 -13t61.5 -35.5t33 -57.5t15 -66t3 -73v-300z" />
    <glyph glyph-name="i" unicode="i" horiz-adv-x="252" 
d="M187 683q0 -27 -18 -44.5t-45 -17.5q-26 0 -44 17.5t-18 44.5t18 44t44 17q27 0 45 -17t18 -44zM176 -4h-103v537h103v-537z" />
    <glyph glyph-name="j" unicode="j" horiz-adv-x="252" 
d="M189 683q0 -27 -18.5 -44.5t-44.5 -17.5q-27 0 -45 17.5t-18 44.5t18 44t45 17q26 0 44.5 -17.5t18.5 -43.5zM178 23q0 -195 -155 -221q-29 -9 -71 -4l8 68q60 11 86.5 45.5t27.5 106.5v515h104v-510z" />
    <glyph glyph-name="k" unicode="k" horiz-adv-x="519" 
d="M501 -4h-119q-138 203 -206 258v-258h-103v784h103v-475l191 228h117l-216 -246q123 -126 233 -291z" />
    <glyph glyph-name="l" unicode="l" horiz-adv-x="298" 
d="M269 45l-19 -59q-98 8 -137.5 48.5t-39.5 139.5v606h103v-550q0 -75 9.5 -111t26 -49t57.5 -25z" />
    <glyph glyph-name="m" unicode="m" horiz-adv-x="863" 
d="M785 -4h-103v285q0 33 -0.5 50.5t-3.5 42.5t-9.5 38t-17.5 26.5t-28.5 19t-42.5 5.5q-65 0 -107 -40q7 -55 7 -152v-275h-104v286q0 41 -1 63.5t-7 48.5t-17.5 39t-32.5 22t-52 9q-59 0 -92 -14v-454h-104v513q90 35 202 35q105 0 156 -58q67 58 167 58q52 0 88.5 -15
t56 -37t30 -58t13 -64.5t2.5 -71.5v-302z" />
    <glyph glyph-name="n" unicode="n" horiz-adv-x="575" 
d="M490 -4h-103v285q0 39 -1 60t-7 48.5t-18 41t-34.5 23.5t-55.5 10q-55 0 -97 -14v-454h-104v510q78 38 208 38q56 0 96.5 -14.5t62.5 -36t34.5 -57t15.5 -65.5t3 -73v-302z" />
    <glyph glyph-name="o" unicode="o" 
d="M513 264q0 -125 -62 -202t-171 -77q-110 0 -172 76.5t-62 202.5t62.5 203.5t170.5 77.5q109 0 171.5 -77.5t62.5 -203.5zM407 265q0 88 -31 144t-96 56q-66 0 -98 -56t-32 -144q0 -89 32 -143.5t98 -54.5q65 0 96 54.5t31 143.5z" />
    <glyph glyph-name="p" unicode="p" 
d="M516 268q0 -129 -64 -205.5t-174 -76.5q-60 0 -104 23v-213h-104v713q84 35 190 35q119 0 187.5 -74t68.5 -202zM411 265q0 96 -38.5 148t-114.5 52q-58 0 -84 -12v-366q41 -23 86 -23q77 0 114 53t37 148z" />
    <glyph glyph-name="q" unicode="q" 
d="M491 -204h-102v218q-50 -28 -117 -28q-105 0 -165.5 74t-60.5 198q0 130 67.5 208t191.5 78q106 0 186 -34v-714zM389 92v362q-31 12 -85 12q-74 0 -114 -54t-40 -152q0 -196 142 -196q54 0 97 28z" />
    <glyph glyph-name="r" unicode="r" horiz-adv-x="387" 
d="M348 533l-20 -79q-33 9 -78 9q-51 -1 -76 -15v-452h-104v509q77 35 171 37q51 2 107 -9z" />
    <glyph glyph-name="s" unicode="s" horiz-adv-x="444" 
d="M388 143q0 -70 -54 -114t-145 -44q-96 0 -157 35l26 80q48 -32 125 -32q45 0 72 19t27 54q0 34 -22.5 53t-83.5 44q-68 27 -99.5 63.5t-31.5 89.5q0 67 49 110.5t130 43.5q83 0 143 -33l-24 -76q-48 29 -109 29q-40 0 -63.5 -18.5t-23.5 -50.5q0 -23 13.5 -40t31.5 -26.5
t58 -26.5q72 -29 105 -66t33 -94z" />
    <glyph glyph-name="t" unicode="t" horiz-adv-x="418" 
d="M358 9q-34 -17 -89 -20q-53 -1 -88 16.5t-52 52t-23 68.5t-8 83v245h-67v76h67v150h103v-147h145v-77h-145v-256q0 -67 13 -95.5t53 -32.5q41 -6 80 13q2 -12 5.5 -37.5t5.5 -38.5z" />
    <glyph glyph-name="u" unicode="u" horiz-adv-x="575" 
d="M482 25q-72 -39 -205 -39q-118 0 -163.5 60.5t-45.5 178.5v308h103v-281q0 -97 21.5 -140.5t92.5 -43.5q64 0 94 15v450h103v-508z" />
    <glyph glyph-name="v" unicode="v" horiz-adv-x="500" 
d="M483 533q-78 -260 -187 -537h-60q-6 0 -16.5 0.5t-16.5 1.5q-110 273 -187 535h110q42 -163 107 -357q4 -12 8 -27l6.5 -24t4.5 -13q2 1 20 64q74 223 109 357h102z" />
    <glyph glyph-name="w" unicode="w" horiz-adv-x="778" 
d="M758 533q-70 -268 -165 -537h-89q-67 204 -100 324q-5 15 -9 37t-5 25q-60 -216 -115 -386h-90q-90 254 -165 537h107q37 -166 94 -358q3 -11 6 -25.5l4.5 -22t3.5 -10.5l13 48q93 330 103 368h86q22 -102 98 -368l5 -18l5 -18.5t4 -10.5q1 1 3 9.5l5.5 22.5l6.5 25
q48 154 95 358h99z" />
    <glyph glyph-name="x" unicode="x" horiz-adv-x="514" 
d="M483 -4h-113q-47 89 -123 211q-38 -52 -125 -211h-107q72 128 175 279l-96 152l-67 106h113l110 -184h1l113 184h105l-163 -252q118 -179 177 -285z" />
    <glyph glyph-name="y" unicode="y" horiz-adv-x="507" 
d="M483 533q-92 -326 -188 -582q-26 -63 -52.5 -92.5t-69.5 -29.5q-44 0 -103 28l20 68q46 -23 60 -23q17 0 30 15.5t19 32.5t13 41q1 5 2 8q-115 271 -192 534h109q41 -162 107 -350l9.5 -30.5l9 -29.5t6.5 -18q2 2 5.5 14.5t8 32.5t8.5 31q46 147 98 350h100z" />
    <glyph glyph-name="z" unicode="z" horiz-adv-x="468" 
d="M411 -4h-382v63q28 53 70.5 123.5l98.5 158.5l72 114h-225v78h359v-60l-56 -85q-119 -177 -192 -315h255v-77z" />
    <glyph glyph-name="braceleft" unicode="{" horiz-adv-x="334" 
d="M329 -164q-63 0 -103 12.5t-62 41.5t-30 67t-8 98v106q0 58 -19.5 85.5t-66.5 28.5v66q86 10 86 108v141q0 104 45 149.5t158 45.5v-71q-58 0 -82.5 -20.5t-25.5 -72.5v-170q0 -110 -75 -140q75 -24 75 -142v-170q0 -51 25 -72t83 -21v-70z" />
    <glyph glyph-name="bar" unicode="|" horiz-adv-x="279" 
d="M173 -204h-91v992h91v-992z" />
    <glyph glyph-name="braceright" unicode="}" horiz-adv-x="334" 
d="M314 279q-44 -5 -65 -31t-21 -77v-142q0 -103 -44 -148t-158 -45v70q63 0 85.5 24.5t22.5 87.5v151q0 111 74 141v1q-74 30 -74 140v119q0 86 -19 115t-89 29v71q115 0 158.5 -45.5t43.5 -149.5v-141q0 -101 86 -104v-66z" />
    <glyph glyph-name="asciitilde" unicode="~" horiz-adv-x="565" 
d="M517 356q-27 -111 -126 -117q-35 -2 -71.5 18l-70 39.5t-62.5 17.5q-26 -1 -44.5 -24t-28.5 -51l-57 40q15 50 43.5 82.5t81.5 35.5q37 2 73.5 -18l69.5 -39.5t61 -17.5q50 4 73 75z" />
    <glyph glyph-name="uni00A0" unicode="&#xa0;" horiz-adv-x="231" 
 />
    <glyph glyph-name="exclamdown" unicode="&#xa1;" horiz-adv-x="277" 
d="M195 5v-197h-112v197q0 135 22 297h16h35h17q22 -174 22 -297zM212 444q0 -33 -19.5 -53t-54.5 -20q-32 0 -53 20.5t-21 52.5q0 33 20.5 53.5t53.5 20.5t53.5 -20.5t20.5 -53.5z" />
    <glyph glyph-name="cent" unicode="&#xa2;" horiz-adv-x="565" 
d="M273 -117v145q-93 19 -142.5 89.5t-49.5 173.5q0 100 51.5 172.5t140.5 91.5v146h99v-140q52 -3 112 -27l-26 -89q-55 21 -101 24q-29 0 -49 -4q-118 -20 -118 -174q0 -150 122 -171q28 -5 54 -4q54 1 109 25l17 -90q-35 -21 -120 -28v-140h-99z" />
    <glyph glyph-name="sterling" unicode="&#xa3;" horiz-adv-x="565" 
d="M254 466v-85h191v-90h-191l-1 -19q0 -97 -13 -188h289v-92h-410q27 154 28 278l1 21h-93v90h93v75q0 144 58 201t165 57q76 0 143 -32l-28 -92q-55 28 -117 29q-59 0 -87 -33.5t-28 -119.5z" />
    <glyph glyph-name="currency" unicode="&#xa4;" horiz-adv-x="565" 
d="M510 161l-53 -53l-74 75q-45 -33 -108 -33q-61 0 -108 33l-74 -75l-53 53l73 74q-34 47 -34 109q0 60 34 110l-73 73l53 53l74 -74q48 32 108 32q62 0 108 -33l74 74l53 -52l-73 -74q33 -47 33 -109q0 -63 -33 -110zM391 344q0 51 -34 85t-82 34t-82 -34t-34 -85t34 -85
t82 -34t82 34t34 85z" />
    <glyph glyph-name="yen" unicode="&#xa5;" horiz-adv-x="565" 
d="M336 -8h-106v113h-159v80h159v93h-159v80h130q-120 192 -193 343h116q74 -161 161 -297q93 151 159 297h115q-60 -126 -195 -343h131v-80h-159v-93h159v-80h-159v-113z" />
    <glyph glyph-name="brokenbar" unicode="&#xa6;" horiz-adv-x="273" 
d="M86 -193v398h101v-398h-101zM86 393v398h101v-398h-101z" />
    <glyph glyph-name="section" unicode="&#xa7;" horiz-adv-x="491" 
d="M460 258q0 -90 -102 -154q61 -48 64 -113q4 -73 -47 -117t-141 -44q-98 0 -161 38q16 46 25 69q49 -25 121 -28q47 0 76 23q29 15 29 45q0 29 -20 52.5t-74 49.5q-96 53 -136 96t-40 114q0 92 102 158q-49 43 -53 102q-8 67 41 111.5t132 44.5q86 0 148 -33l-25 -71
q-49 26 -106 27q-37 2 -62 -14q-33 -15 -33 -50q0 -28 18 -49.5t64 -45.5q4 -4 12 -10q93 -52 130.5 -92t37.5 -109zM368 248q0 30 -17 55.5t-36 39t-53 33t-48 29.5q-59 -35 -69 -83q-2 -14 -2 -25q1 -24 9.5 -43t27.5 -35.5t33 -25.5t43.5 -25t41.5 -23q70 42 70 103z" />
    <glyph glyph-name="dieresis" unicode="&#xa8;" horiz-adv-x="412" 
d="M171 683q0 -29 -18 -46.5t-46 -17.5q-27 0 -45 17.5t-18 46.5t18 46.5t45 17.5q28 0 46 -17.5t18 -46.5zM368 683q0 -29 -18 -46.5t-45 -17.5q-28 0 -45.5 17.5t-17.5 46.5t18 46.5t45 17.5t45 -17.5t18 -46.5z" />
    <glyph glyph-name="copyright" unicode="&#xa9;" horiz-adv-x="866" 
d="M808 345q0 -169 -109 -276t-265 -107q-155 0 -264 107t-109 276t109 276.5t264 107.5q156 0 265 -107.5t109 -276.5zM735 345q0 142 -87 228t-214 86q-126 0 -213 -86t-87 -228q0 -138 84 -224.5t216 -92.5q127 0 214 87.5t87 229.5zM561 224l35 -43q-61 -57 -154 -57
q-91 0 -151 62.5t-60 159.5t61 158t151 61t149 -59l-38 -50q-44 44 -111 44q-60 0 -98.5 -43.5t-38.5 -110.5q0 -68 40.5 -113t102.5 -45q51 0 112 36z" />
    <glyph glyph-name="ordfeminine" unicode="&#xaa;" horiz-adv-x="406" 
d="M206 389q42 0 61 3v99q-23 5 -53 5q-85 -2 -85 -52q0 -27 17 -41t60 -14zM200 714q90 0 121.5 -44t31.5 -130v-206q-72 -17 -148 -17q-163 0 -163 123q0 63 49 93.5t124 30.5q10 0 52 -6v8q0 79 -82 78q-51 -2 -93 -15l-12 67q61 18 120 18z" />
    <glyph glyph-name="guillemotleft" unicode="&#xab;" horiz-adv-x="493" 
d="M460 121l-66 -38l-156 226l156 225q22 -13 66 -37l-120 -188zM260 121l-30 -17t-35 -21l-156 226l156 225q21 -13 65 -37l-120 -188z" />
    <glyph glyph-name="logicalnot" unicode="&#xac;" horiz-adv-x="565" 
d="M491 91h-84v212h-348v79h432v-291z" />
    <glyph glyph-name="uni00AD" unicode="&#xad;" horiz-adv-x="302" 
d="M29 259v81h254v-81h-254z" />
    <glyph glyph-name="registered" unicode="&#xae;" horiz-adv-x="868" 
d="M808 345q0 -169 -109 -276t-265 -107q-155 0 -264 107t-109 276t109 276.5t264 107.5q156 0 265 -107.5t109 -276.5zM735 345q0 142 -87 228t-214 86q-126 0 -213 -86t-87 -228q0 -138 84 -224.5t216 -92.5q127 0 214 87.5t87 229.5zM614 125h-78q-75 131 -121 188h-50
v-188h-69v438q52 18 119 18q87 0 132 -35.5t45 -103.5q0 -49 -28 -81.5t-77 -40.5v-1q47 -59 127 -194zM522 441q0 92 -102 92q-29 0 -55 -7v-171h55q102 0 102 86z" />
    <glyph glyph-name="macron" unicode="&#xaf;" horiz-adv-x="376" 
d="M337 633h-298v85h298v-85z" />
    <glyph glyph-name="degree" unicode="&#xb0;" horiz-adv-x="331" 
d="M336 593q0 -65 -43.5 -107.5t-105.5 -42.5t-105.5 42.5t-43.5 107.5q0 64 43.5 106t105.5 42t105.5 -42t43.5 -106zM270 593q0 36 -24 60t-59 24t-58.5 -24t-23.5 -60q0 -37 23.5 -61t58.5 -24t59 24t24 61z" />
    <glyph glyph-name="plusminus" unicode="&#xb1;" horiz-adv-x="565" 
d="M491 316h-175v-189h-83v189h-174v83h174v188h83v-188h175v-83zM46 0v88h473v-88h-473z" />
    <glyph glyph-name="twosuperior" unicode="&#xb2;" horiz-adv-x="360" 
d="M300 596q0 -41 -22.5 -70.5t-65.5 -64.5q-63 -49 -65 -80h170v-77h-275q-2 15 -2 31q0 29 7.5 52t28.5 48.5t30.5 34.5l42.5 39q23 19 33 28.5t19.5 25.5t9.5 32q0 42 -49 42q-47 0 -95 -42l-42 63q61 59 142 59q133 0 133 -121z" />
    <glyph glyph-name="threesuperior" unicode="&#xb3;" horiz-adv-x="360" 
d="M147 374q79 0 79 51q0 30 -27 44.5t-69 14.5h-29v62h22q34 0 59 14t25 41q0 22 -18 30q-19 10 -58 2q-37 -1 -71 -23l-31 67q56 40 129 40q128 0 133 -100q1 -14 -2 -29q-9 -41 -48 -62q59 -25 69 -80q4 -13 2 -32q-2 -53 -42.5 -85.5t-120.5 -32.5q-66 0 -122 27l20 75
q53 -24 100 -24z" />
    <glyph glyph-name="acute" unicode="&#xb4;" horiz-adv-x="298" 
d="M112 597h-66l85 189h131z" />
    <glyph glyph-name="mu" unicode="&#xb5;" horiz-adv-x="580" 
d="M490 22q-82 -35 -194 -35q-75 0 -125 37q3 -44 3 -133v-92h-104v734h104v-357q11 -58 36 -84t78 -26q63 0 99 16v451h103v-511z" />
    <glyph glyph-name="paragraph" unicode="&#xb6;" horiz-adv-x="642" 
d="M245 691q47 1 142 1h122v-896h-84v830l-109 1v-831h-83v491q-96 11 -149 62.5t-53 139.5q0 91 58.5 141.5t155.5 60.5z" />
    <glyph glyph-name="periodcentered" unicode="&#xb7;" horiz-adv-x="246" 
d="M193 316q0 -30 -20 -49.5t-50 -19.5q-29 0 -49 19.5t-20 49.5t20 50t49 20q30 0 50 -20t20 -50z" />
    <glyph glyph-name="cedilla" unicode="&#xb8;" horiz-adv-x="362" 
d="M219 -34q58 -30 58 -81q0 -39 -29 -64.5t-89 -25.5q-49 0 -86 15l15 72q22 -10 58 -11q34 -2 37 20q-3 12 -14.5 19t-42.5 19q14 49 46 99h79q-11 -19 -32 -62z" />
    <glyph glyph-name="onesuperior" unicode="&#xb9;" horiz-adv-x="360" 
d="M70 554l-19 60q88 39 139 94h62v-404h-87v290q-37 -22 -95 -40z" />
    <glyph glyph-name="ordmasculine" unicode="&#xba;" horiz-adv-x="483" 
d="M448 502q0 -98 -58.5 -158.5t-148.5 -60.5t-148 60.5t-58 158.5t58 158.5t148 60.5t148.5 -60.5t58.5 -158.5zM350 502q0 63 -29 100t-80 37t-79.5 -37t-28.5 -100t29 -100.5t79 -37.5q51 0 80 37.5t29 100.5z" />
    <glyph glyph-name="guillemotright" unicode="&#xbb;" horiz-adv-x="493" 
d="M471 309l-157 -226l-65 38l119 188l-119 188l65 37zM271 309l-156 -226l-66 38l121 188l-121 188q44 24 66 37z" />
    <glyph glyph-name="onequarter" unicode="&#xbc;" horiz-adv-x="896" 
d="M814 149h50v-63h-50v-93h-81v93h-188v55q31 59 86 134t109 121h74v-247zM184 -8l404 709h105l-403 -709h-106zM616 149h117v160q-60 -61 -117 -160zM74 554l-20 60q87 38 140 94h62v-404h-88v290q-38 -23 -94 -40z" />
    <glyph glyph-name="onehalf" unicode="&#xbd;" horiz-adv-x="916" 
d="M70 554l-19 60q88 39 139 94h62v-404h-87v290q-37 -22 -95 -40zM188 -8l393 709h105l-393 -709h-105zM854 285q0 -42 -23 -71.5t-66 -64.5q-62 -50 -65 -79h170v-77h-275q-1 14 -1 31q0 28 7.5 51.5t27.5 47.5t31.5 35.5t42.5 38.5q25 21 33.5 29t18.5 24.5t10 32.5
q0 43 -50 43q-48 0 -94 -43l-43 64q62 58 142 58q134 0 134 -120z" />
    <glyph glyph-name="threequarters" unicode="&#xbe;" horiz-adv-x="908" 
d="M217 -8l407 709h104l-406 -709h-105zM213 602q-2 37 -62 37q-37 -1 -77 -29l-32 67q59 40 129 40q129 0 134 -101q0 -19 -2 -28q-9 -41 -48 -62q59 -25 69 -80q2 -10 2 -31q-2 -53 -42.5 -86t-120.5 -33q-68 0 -122 27l20 75q53 -24 99 -24q79 0 79 51q0 56 -108 56h-16
v62q42 0 66.5 9.5t27.5 40.5q6 6 4 9zM826 149h49v-63h-49v-93h-82v93h-187v55q31 59 86 134t109 121h74v-247zM628 149h117v160q-60 -61 -117 -160z" />
    <glyph glyph-name="questiondown" unicode="&#xbf;" horiz-adv-x="401" 
d="M130 -31q0 -72 101 -72q65 0 131 36l32 -86q-73 -44 -172 -44q-108 0 -155 48t-47 111q0 39 17.5 74t42.5 61.5l50 52.5t42.5 58t17.5 65q0 11 -2 27h31h28h31q5 -24 5 -47q0 -44 -24 -86t-52.5 -69t-52.5 -62t-24 -67zM303 468q0 -34 -20.5 -55.5t-53.5 -21.5
q-34 0 -54 21t-20 56q0 33 21 53.5t53 20.5t53 -20.5t21 -53.5z" />
    <glyph glyph-name="Agrave" unicode="&#xc0;" horiz-adv-x="663" 
d="M627 -4h-116l-61 186h-268q-40 -111 -63 -186h-105q168 478 258 698h96q69 -171 259 -698zM427 260l-83 239q-6 16 -11.5 35t-9 30t-6.5 17q-2 -4 -15 -42q-16 -50 -50 -145t-47 -134h222zM341 751h-66l-150 189h132z" />
    <glyph glyph-name="Aacute" unicode="&#xc1;" horiz-adv-x="663" 
d="M627 -4h-116l-61 186h-268q-40 -111 -63 -186h-105q168 478 258 698h96q69 -171 259 -698zM427 260l-83 239q-6 16 -11.5 35t-9 30t-6.5 17q-2 -4 -15 -42q-16 -50 -50 -145t-47 -134h222zM343 773h-66l85 189h131z" />
    <glyph glyph-name="Acircumflex" unicode="&#xc2;" horiz-adv-x="663" 
d="M627 -4h-116l-61 186h-268q-40 -111 -63 -186h-105q168 478 258 698h96q69 -171 259 -698zM427 260l-83 239q-6 16 -11.5 35t-9 30t-6.5 17q-2 -4 -15 -42q-16 -50 -50 -145t-47 -134h222zM309 834l-104 -92l-47 53l151 155l150 -155l-46 -53z" />
    <glyph glyph-name="Atilde" unicode="&#xc3;" horiz-adv-x="663" 
d="M627 -4h-116l-61 186h-268q-40 -111 -63 -186h-105q168 478 258 698h96q69 -171 259 -698zM427 260l-83 239q-6 16 -11.5 35t-9 30t-6.5 17q-2 -4 -15 -42q-16 -50 -50 -145t-47 -134h222zM375 762q-28 0 -72 18.5t-55 18.5q-26 0 -51 -48l-62 35q15 38 44 68t69 30
q31 0 73.5 -19t53.5 -19q26 0 51 49l61 -36q-18 -36 -47.5 -66.5t-64.5 -30.5z" />
    <glyph glyph-name="Adieresis" unicode="&#xc4;" horiz-adv-x="663" 
d="M627 -4h-116l-61 186h-268q-40 -111 -63 -186h-105q168 478 258 698h96q69 -171 259 -698zM427 260l-83 239q-6 16 -11.5 35t-9 30t-6.5 17q-2 -4 -15 -42q-16 -50 -50 -145t-47 -134h222zM272 837q0 -29 -18 -46.5t-46 -17.5q-27 0 -45 17.5t-18 46.5t18 46.5t45 17.5
q28 0 46 -17.5t18 -46.5zM469 837q0 -29 -18 -46.5t-45 -17.5q-28 0 -45.5 17.5t-17.5 46.5t18 46.5t45 17.5t45 -17.5t18 -46.5z" />
    <glyph glyph-name="Aring" unicode="&#xc5;" horiz-adv-x="663" 
d="M627 -4h-116l-61 186h-268q-40 -111 -63 -186h-105q168 478 258 698h96q69 -171 259 -698zM427 260l-83 239q-6 16 -11.5 35t-9 30t-6.5 17q-2 -4 -15 -42q-16 -50 -50 -145t-47 -134h222zM419 863q0 -49 -32 -79t-79 -30q-46 0 -78 29.5t-32 79.5q0 49 32 79t78 30
t78.5 -30t32.5 -79zM354 863q0 22 -13 35t-33 13q-19 0 -32 -13t-13 -35t12.5 -34.5t32.5 -12.5t33 12.5t13 34.5z" />
    <glyph glyph-name="AE" unicode="&#xc6;" horiz-adv-x="937" 
d="M908 -8h-445v182h-255q-63 -110 -97 -182h-118q200 382 437 709h452v-96h-311v-194h276v-95h-276v-228h337v-96zM463 268v314q-108 -152 -156 -234l-48 -80h204z" />
    <glyph glyph-name="Ccedilla" unicode="&#xc7;" horiz-adv-x="620" 
d="M404 -60q44 -30 40 -70q-12 -75 -114 -75q-50 0 -85 15l14 72q26 -12 66 -12q13 0 20 5.5t6 16.5q-3 12 -14 18.5t-40 18.5q7 20 21 54q-124 19 -196 113.5t-72 250.5q0 171 97.5 270.5t240.5 99.5q127 0 210 -53l-34 -93q-78 46 -167 46q-109 0 -171 -72t-62 -198
t58.5 -198.5t168.5 -72.5q103 0 182 42l31 -93q-24 -16 -79.5 -31t-123.5 -16q6 -18 3 -38z" />
    <glyph glyph-name="Egrave" unicode="&#xc8;" horiz-adv-x="569" 
d="M470 -4h-394v698h381v-84h-272v-211h243v-83h-243v-236h285v-84zM308 751h-66l-150 189h132z" />
    <glyph glyph-name="Eacute" unicode="&#xc9;" horiz-adv-x="569" 
d="M470 -4h-394v698h381v-84h-272v-211h243v-83h-243v-236h285v-84zM309 773h-66l85 189h131z" />
    <glyph glyph-name="Ecircumflex" unicode="&#xca;" horiz-adv-x="569" 
d="M470 -4h-394v698h381v-84h-272v-211h243v-83h-243v-236h285v-84zM276 834l-104 -92l-47 53l151 155l150 -155l-46 -53z" />
    <glyph glyph-name="Edieresis" unicode="&#xcb;" horiz-adv-x="569" 
d="M470 -4h-394v698h381v-84h-272v-211h243v-83h-243v-236h285v-84zM238 837q0 -29 -18 -46.5t-46 -17.5q-27 0 -45 17.5t-18 46.5t18 46.5t45 17.5q28 0 46 -17.5t18 -46.5zM435 837q0 -29 -18 -46.5t-45 -17.5q-28 0 -45.5 17.5t-17.5 46.5t18 46.5t45 17.5t45 -17.5
t18 -46.5z" />
    <glyph glyph-name="Igrave" unicode="&#xcc;" horiz-adv-x="267" 
d="M186 -4h-108v698h108v-698zM163 751h-66l-150 189h132z" />
    <glyph glyph-name="Iacute" unicode="&#xcd;" horiz-adv-x="267" 
d="M186 -4h-108v698h108v-698zM164 773h-66l85 189h131z" />
    <glyph glyph-name="Icircumflex" unicode="&#xce;" horiz-adv-x="267" 
d="M186 -4h-108v698h108v-698zM131 834l-104 -92l-47 53l151 155l150 -155l-46 -53z" />
    <glyph glyph-name="Idieresis" unicode="&#xcf;" horiz-adv-x="267" 
d="M186 -4h-108v698h108v-698zM93 837q0 -29 -18 -46.5t-46 -17.5q-27 0 -45 17.5t-18 46.5t18 46.5t45 17.5q28 0 46 -17.5t18 -46.5zM290 837q0 -29 -18 -46.5t-45 -17.5q-28 0 -45.5 17.5t-17.5 46.5t18 46.5t45 17.5t45 -17.5t18 -46.5z" />
    <glyph glyph-name="Eth" unicode="&#xd0;" horiz-adv-x="725" 
d="M675 347q0 -177 -106.5 -269.5t-288.5 -92.5q-105 0 -188 19v313h-80v89h80v282q86 20 190 20q181 0 287 -91.5t106 -269.5zM201 317v-230q45 -5 87 -5q134 0 203.5 70t69.5 195q0 126 -68.5 195t-202.5 69q-39 0 -89 -5v-200h131v-89h-131z" />
    <glyph glyph-name="Ntilde" unicode="&#xd1;" horiz-adv-x="722" 
d="M608 -4h-59l-32 2q-104 182 -300 476q-8 11 -18.5 29.5l-16.5 28.5t-9 10q0 -13 1 -91t1 -119v-336h-99v698h97q165 -228 301 -451l15.5 -27.5l13.5 -24.5t8 -12q0 27 -1 125t-1 146v244h99v-698zM425 783q-29 0 -72.5 19t-54.5 19q-16 0 -27.5 -12t-24.5 -36l-61 35
q14 38 43 68t69 30q31 0 74 -19t54 -19q26 0 51 49l61 -36q-19 -36 -48 -67t-64 -31z" />
    <glyph glyph-name="Ograve" unicode="&#xd2;" horiz-adv-x="695" 
d="M644 345q0 -166 -79.5 -263.5t-216.5 -97.5t-216.5 97.5t-79.5 263.5q0 165 79.5 263.5t216.5 98.5t216.5 -98.5t79.5 -263.5zM533 347q0 121 -47 198t-138 77q-92 0 -138.5 -77t-46.5 -198t46 -198t139 -77t139 77t46 198zM381 775h-66l-150 189h132z" />
    <glyph glyph-name="Oacute" unicode="&#xd3;" horiz-adv-x="695" 
d="M644 345q0 -166 -79.5 -263.5t-216.5 -97.5t-216.5 97.5t-79.5 263.5q0 165 79.5 263.5t216.5 98.5t216.5 -98.5t79.5 -263.5zM533 347q0 121 -47 198t-138 77q-92 0 -138.5 -77t-46.5 -198t46 -198t139 -77t139 77t46 198zM382 797h-66l85 189h131z" />
    <glyph glyph-name="Ocircumflex" unicode="&#xd4;" horiz-adv-x="695" 
d="M644 345q0 -166 -79.5 -263.5t-216.5 -97.5t-216.5 97.5t-79.5 263.5q0 165 79.5 263.5t216.5 98.5t216.5 -98.5t79.5 -263.5zM533 347q0 121 -47 198t-138 77q-92 0 -138.5 -77t-46.5 -198t46 -198t139 -77t139 77t46 198zM349 859l-104 -92l-47 53l151 155l150 -155
l-46 -53z" />
    <glyph glyph-name="Otilde" unicode="&#xd5;" horiz-adv-x="695" 
d="M644 345q0 -166 -79.5 -263.5t-216.5 -97.5t-216.5 97.5t-79.5 263.5q0 165 79.5 263.5t216.5 98.5t216.5 -98.5t79.5 -263.5zM533 347q0 121 -47 198t-138 77q-92 0 -138.5 -77t-46.5 -198t46 -198t139 -77t139 77t46 198zM407 786q-28 0 -72 18.5t-55 18.5
q-26 0 -51 -48l-62 35q15 38 44 68t69 30q31 0 73.5 -19t53.5 -19q26 0 51 49l61 -36q-18 -36 -47.5 -66.5t-64.5 -30.5z" />
    <glyph glyph-name="Odieresis" unicode="&#xd6;" horiz-adv-x="695" 
d="M644 345q0 -166 -79.5 -263.5t-216.5 -97.5t-216.5 97.5t-79.5 263.5q0 165 79.5 263.5t216.5 98.5t216.5 -98.5t79.5 -263.5zM533 347q0 121 -47 198t-138 77q-92 0 -138.5 -77t-46.5 -198t46 -198t139 -77t139 77t46 198zM311 861q0 -29 -18 -46.5t-46 -17.5
q-27 0 -45 17.5t-18 46.5t18 46.5t45 17.5q28 0 46 -17.5t18 -46.5zM508 861q0 -29 -18 -46.5t-45 -17.5q-28 0 -45.5 17.5t-17.5 46.5t18 46.5t45 17.5t45 -17.5t18 -46.5z" />
    <glyph glyph-name="multiply" unicode="&#xd7;" horiz-adv-x="565" 
d="M70 444l65 64l148 -149l148 149l64 -64l-149 -149l149 -148l-64 -64l-148 149l-148 -149l-65 64l149 148z" />
    <glyph glyph-name="Oslash" unicode="&#xd8;" horiz-adv-x="778" 
d="M728 347q0 -176 -96 -273t-243 -97q-107 0 -187 54l-61 -80l-71 54l65 84q-85 94 -85 258q0 175 97.5 272.5t241.5 97.5q107 0 188 -56l63 82l71 -54l-66 -86q83 -97 83 -256zM164 347q0 -98 43 -165l306 396q-52 40 -124 40q-104 0 -164.5 -73t-60.5 -198zM615 347
q0 98 -42 163l-307 -397q51 -37 123 -37q104 0 165 73t61 198z" />
    <glyph glyph-name="Ugrave" unicode="&#xd9;" horiz-adv-x="688" 
d="M564 228q0 -109 -63.5 -177t-182.5 -68q-104 0 -166.5 54.5t-72.5 144.5q-5 38 -5 95v417h108v-404q0 -111 31 -164t108 -53q55 0 91 32t43 93q5 47 5 93v403h104v-466zM356 751h-66l-150 189h132z" />
    <glyph glyph-name="Uacute" unicode="&#xda;" horiz-adv-x="688" 
d="M564 228q0 -109 -63.5 -177t-182.5 -68q-104 0 -166.5 54.5t-72.5 144.5q-5 38 -5 95v417h108v-404q0 -111 31 -164t108 -53q55 0 91 32t43 93q5 47 5 93v403h104v-466zM358 773h-66l85 189h131z" />
    <glyph glyph-name="Ucircumflex" unicode="&#xdb;" horiz-adv-x="688" 
d="M564 228q0 -109 -63.5 -177t-182.5 -68q-104 0 -166.5 54.5t-72.5 144.5q-5 38 -5 95v417h108v-404q0 -111 31 -164t108 -53q55 0 91 32t43 93q5 47 5 93v403h104v-466zM324 834l-104 -92l-47 53l151 155l150 -155l-46 -53z" />
    <glyph glyph-name="Udieresis" unicode="&#xdc;" horiz-adv-x="688" 
d="M564 228q0 -109 -63.5 -177t-182.5 -68q-104 0 -166.5 54.5t-72.5 144.5q-5 38 -5 95v417h108v-404q0 -111 31 -164t108 -53q55 0 91 32t43 93q5 47 5 93v403h104v-466zM287 837q0 -29 -18 -46.5t-46 -17.5q-27 0 -45 17.5t-18 46.5t18 46.5t45 17.5q28 0 46 -17.5
t18 -46.5zM484 837q0 -29 -18 -46.5t-45 -17.5q-28 0 -45.5 17.5t-17.5 46.5t18 46.5t45 17.5t45 -17.5t18 -46.5z" />
    <glyph glyph-name="Yacute" unicode="&#xdd;" horiz-adv-x="595" 
d="M546 694q-125 -242 -217 -404v-294h-107v293q-115 202 -218 405h120q76 -169 155 -312q74 136 157 312h110zM314 773h-66l85 189h131z" />
    <glyph glyph-name="Thorn" unicode="&#xde;" horiz-adv-x="607" 
d="M188 701v-115q44 4 88 4q148 0 225.5 -57.5t77.5 -170.5q0 -121 -81 -175.5t-237 -54.5h-73v-140h-109v709h109zM275 494q-54 0 -87 -5v-261h67q107 0 159 29t52 106q0 131 -191 131z" />
    <glyph glyph-name="germandbls" unicode="&#xdf;" horiz-adv-x="614" 
d="M498 616q0 -31 -13.5 -60.5t-24 -42t-32.5 -36.5q-20 -21 -28.5 -31t-15 -23.5t-6.5 -26.5q0 -12 5 -21t19.5 -18.5t21 -13t28.5 -14.5q35 -19 54 -31t40.5 -33t31 -48.5t9.5 -65.5q0 -83 -53 -127t-154 -44q-70 0 -137 30l8 36q8 38 13 57q49 -28 113 -30q35 -2 56 7
q48 19 48 70q0 34 -22 56.5t-76 48.5q-66 33 -87.5 60t-21.5 72q0 24 10.5 47t21.5 37t34 39v-1q4 4 12 13l11 12.5l9.5 11t8.5 11.5t6 11t5.5 12.5t2.5 12.5t1 15q0 38 -26 60.5t-71 22.5q-121 0 -121 -138v-561h-105v518q0 22 2 64q4 96 61.5 153t156.5 57
q103 0 154 -45.5t51 -122.5z" />
    <glyph glyph-name="agrave" unicode="&#xe0;" horiz-adv-x="521" 
d="M446 17q-74 -31 -197 -31q-101 0 -156 41.5t-55 124.5q0 164 236 182q18 1 72 -2q-1 67 -24.5 100t-87.5 33q-69 0 -134 -29l-19 76q73 33 166 33q91 0 142 -44t55 -130q2 -19 2 -61v-293zM347 71v192q-35 4 -76 1q-62 -8 -96.5 -32t-34.5 -78q0 -94 118 -94q53 0 89 11z
M292 593h-66l-150 189h132z" />
    <glyph glyph-name="aacute" unicode="&#xe1;" horiz-adv-x="521" 
d="M446 17q-74 -31 -197 -31q-101 0 -156 41.5t-55 124.5q0 164 236 182q18 1 72 -2q-1 67 -24.5 100t-87.5 33q-69 0 -134 -29l-19 76q73 33 166 33q91 0 142 -44t55 -130q2 -19 2 -61v-293zM347 71v192q-35 4 -76 1q-62 -8 -96.5 -32t-34.5 -78q0 -94 118 -94q53 0 89 11z
M282 620h-66l85 189h131z" />
    <glyph glyph-name="acircumflex" unicode="&#xe2;" horiz-adv-x="521" 
d="M446 17q-74 -31 -197 -31q-101 0 -156 41.5t-55 124.5q0 164 236 182q18 1 72 -2q-1 67 -24.5 100t-87.5 33q-69 0 -134 -29l-19 76q73 33 166 33q91 0 142 -44t55 -130q2 -19 2 -61v-293zM347 71v192q-35 4 -76 1q-62 -8 -96.5 -32t-34.5 -78q0 -94 118 -94q53 0 89 11z
M260 677l-104 -92l-47 53l151 155l150 -155l-46 -53z" />
    <glyph glyph-name="atilde" unicode="&#xe3;" horiz-adv-x="521" 
d="M446 17q-74 -31 -197 -31q-101 0 -156 41.5t-55 124.5q0 164 236 182q18 1 72 -2q-1 67 -24.5 100t-87.5 33q-69 0 -134 -29l-19 76q73 33 166 33q91 0 142 -44t55 -130q2 -19 2 -61v-293zM347 71v192q-35 4 -76 1q-62 -8 -96.5 -32t-34.5 -78q0 -94 118 -94q53 0 89 11z
M318 604q-28 0 -72 18.5t-55 18.5q-26 0 -51 -48l-62 35q15 38 44 68t69 30q31 0 73.5 -19t53.5 -19q26 0 51 49l61 -36q-18 -36 -47.5 -66.5t-64.5 -30.5z" />
    <glyph glyph-name="adieresis" unicode="&#xe4;" horiz-adv-x="521" 
d="M446 17q-74 -31 -197 -31q-101 0 -156 41.5t-55 124.5q0 164 236 182q18 1 72 -2q-1 67 -24.5 100t-87.5 33q-69 0 -134 -29l-19 76q73 33 166 33q91 0 142 -44t55 -130q2 -19 2 -61v-293zM347 71v192q-35 4 -76 1q-62 -8 -96.5 -32t-34.5 -78q0 -94 118 -94q53 0 89 11z
M222 679q0 -29 -18 -46.5t-46 -17.5q-27 0 -45 17.5t-18 46.5t18 46.5t45 17.5q28 0 46 -17.5t18 -46.5zM419 679q0 -29 -18 -46.5t-45 -17.5q-28 0 -45.5 17.5t-17.5 46.5t18 46.5t45 17.5t45 -17.5t18 -46.5z" />
    <glyph glyph-name="aring" unicode="&#xe5;" horiz-adv-x="521" 
d="M446 17q-74 -31 -197 -31q-101 0 -156 41.5t-55 124.5q0 164 236 182q18 1 72 -2q-1 67 -24.5 100t-87.5 33q-69 0 -134 -29l-19 76q73 33 166 33q91 0 142 -44t55 -130q2 -19 2 -61v-293zM347 71v192q-35 4 -76 1q-62 -8 -96.5 -32t-34.5 -78q0 -94 118 -94q53 0 89 11z
M370 706q0 -49 -32 -79t-79 -30q-46 0 -78 29.5t-32 79.5q0 49 32 79t78 30t78.5 -30t32.5 -79zM305 706q0 22 -13 35t-33 13q-19 0 -32 -13t-13 -35t12.5 -34.5t32.5 -12.5t33 12.5t13 34.5z" />
    <glyph glyph-name="ae" unicode="&#xe6;" horiz-adv-x="860" 
d="M458 313h247q-3 64 -33 99t-84 35t-89.5 -38.5t-40.5 -95.5zM255 -19q-102 0 -160.5 41.5t-58.5 131.5q0 87 62 128t165 41q56 0 86 -11q-1 24 -2 38.5t-7.5 35.5t-17 32t-31.5 20t-50 9q-76 0 -138 -23l-13 91q60 25 157 25q126 0 169 -86q56 69 138 82q26 4 51 3
q98 -5 153 -72t55 -193q0 -8 -1 -23.5t-1 -22.5h-353q12 -153 163 -153q76 0 141 30l16 -91q-58 -30 -146 -33q-33 -2 -56 1q-85 7 -140 53q-76 -54 -181 -54zM352 226q-30 12 -83 12q-127 0 -127 -83q0 -84 115 -84q76 0 124 35q-28 50 -29 120z" />
    <glyph glyph-name="ccedilla" unicode="&#xe7;" horiz-adv-x="471" 
d="M326 -19q5 -17 2 -41q44 -28 41 -68q-4 -33 -31.5 -55t-83.5 -22q-49 0 -86 15l15 72q26 -12 66 -12q28 0 25 22q-3 12 -14 19t-39 17q10 34 23 59q-98 17 -149 89t-51 183q0 125 69 203t186 78q88 0 148 -29l-25 -90q-53 24 -115 24q-76 0 -115 -48.5t-39 -137.5
q0 -184 164 -184q60 0 120 28l19 -92q-56 -27 -130 -30z" />
    <glyph glyph-name="egrave" unicode="&#xe8;" horiz-adv-x="558" 
d="M494 254l-344 -25q14 -160 161 -160q77 0 137 30l21 -78q-62 -36 -167 -36q-124 0 -190 73.5t-66 206.5t65.5 206.5t166.5 73.5q94 0 149.5 -55.5t63.5 -163.5q2 -31 3 -72zM393 317q-1 74 -31 111.5t-85 37.5q-58 0 -93 -44.5t-36 -123.5zM303 584h-66l-150 189h132z
" />
    <glyph glyph-name="eacute" unicode="&#xe9;" horiz-adv-x="558" 
d="M494 254l-344 -25q14 -160 161 -160q77 0 137 30l21 -78q-62 -36 -167 -36q-124 0 -190 73.5t-66 206.5t65.5 206.5t166.5 73.5q94 0 149.5 -55.5t63.5 -163.5q2 -31 3 -72zM393 317q-1 74 -31 111.5t-85 37.5q-58 0 -93 -44.5t-36 -123.5zM305 605h-66l85 189h131z" />
    <glyph glyph-name="ecircumflex" unicode="&#xea;" horiz-adv-x="558" 
d="M494 254l-344 -25q14 -160 161 -160q77 0 137 30l21 -78q-62 -36 -167 -36q-124 0 -190 73.5t-66 206.5t65.5 206.5t166.5 73.5q94 0 149.5 -55.5t63.5 -163.5q2 -31 3 -72zM393 317q-1 74 -31 111.5t-85 37.5q-58 0 -93 -44.5t-36 -123.5zM271 667l-104 -92l-47 53
l151 155l150 -155l-46 -53z" />
    <glyph glyph-name="edieresis" unicode="&#xeb;" horiz-adv-x="558" 
d="M494 254l-344 -25q14 -160 161 -160q77 0 137 30l21 -78q-62 -36 -167 -36q-124 0 -190 73.5t-66 206.5t65.5 206.5t166.5 73.5q94 0 149.5 -55.5t63.5 -163.5q2 -31 3 -72zM393 317q-1 74 -31 111.5t-85 37.5q-58 0 -93 -44.5t-36 -123.5zM234 670q0 -29 -18 -46.5
t-46 -17.5q-27 0 -45 17.5t-18 46.5t18 46.5t45 17.5q28 0 46 -17.5t18 -46.5zM431 670q0 -29 -18 -46.5t-45 -17.5q-28 0 -45.5 17.5t-17.5 46.5t18 46.5t45 17.5t45 -17.5t18 -46.5z" />
    <glyph glyph-name="igrave" unicode="&#xec;" horiz-adv-x="252" 
d="M178 528v-536h-105v536h105zM158 584h-66l-150 189h132z" />
    <glyph glyph-name="iacute" unicode="&#xed;" horiz-adv-x="252" 
d="M178 528v-536h-105v536h105zM160 605h-66l85 189h131z" />
    <glyph glyph-name="icircumflex" unicode="&#xee;" horiz-adv-x="252" 
d="M178 528v-536h-105v536h105zM126 667l-104 -92l-47 53l151 155l150 -155l-46 -53z" />
    <glyph glyph-name="idieresis" unicode="&#xef;" horiz-adv-x="252" 
d="M178 528v-536h-105v536h105zM88 670q0 -29 -18 -46.5t-46 -17.5q-27 0 -45 17.5t-18 46.5t18 46.5t45 17.5q28 0 46 -17.5t18 -46.5zM285 670q0 -29 -18 -46.5t-45 -17.5q-28 0 -45.5 17.5t-17.5 46.5t18 46.5t45 17.5t45 -17.5t18 -46.5z" />
    <glyph glyph-name="eth" unicode="&#xf0;" horiz-adv-x="584" 
d="M44 242q0 119 67.5 185.5t179.5 66.5q72 0 125 -40q-12 73 -53 139l-118 -37l-28 60l96 35q-37 41 -88 73l66 64q73 -44 122 -102l121 42l26 -72l-101 -35q79 -127 79 -293q0 -71 -12 -129.5t-40 -110t-80 -80.5t-124 -29q-110 0 -174 75.5t-64 187.5zM429 351
q-55 51 -132 51q-74 0 -109.5 -44t-35.5 -116t34.5 -120t95.5 -48q145 0 147 240v37z" />
    <glyph glyph-name="ntilde" unicode="&#xf1;" horiz-adv-x="575" 
d="M490 -4h-103v285q0 39 -1 60t-7 48.5t-18 41t-34.5 23.5t-55.5 10q-55 0 -97 -14v-454h-104v510q78 38 208 38q56 0 96.5 -14.5t62.5 -36t34.5 -57t15.5 -65.5t3 -73v-302zM351 624q-29 0 -72.5 19t-54.5 19q-16 0 -27.5 -12t-24.5 -36l-61 35q14 38 43 68t69 30
q31 0 74 -19t54 -19q26 0 51 49l61 -36q-19 -36 -48 -67t-64 -31z" />
    <glyph glyph-name="ograve" unicode="&#xf2;" 
d="M513 264q0 -125 -62 -202t-171 -77q-110 0 -172 76.5t-62 202.5t62.5 203.5t170.5 77.5q109 0 171.5 -77.5t62.5 -203.5zM407 265q0 88 -31 144t-96 56q-66 0 -98 -56t-32 -144q0 -89 32 -143.5t98 -54.5q65 0 96 54.5t31 143.5zM312 584h-66l-150 189h132z" />
    <glyph glyph-name="oacute" unicode="&#xf3;" 
d="M513 264q0 -125 -62 -202t-171 -77q-110 0 -172 76.5t-62 202.5t62.5 203.5t170.5 77.5q109 0 171.5 -77.5t62.5 -203.5zM407 265q0 88 -31 144t-96 56q-66 0 -98 -56t-32 -144q0 -89 32 -143.5t98 -54.5q65 0 96 54.5t31 143.5zM314 605h-66l85 189h131z" />
    <glyph glyph-name="ocircumflex" unicode="&#xf4;" 
d="M513 264q0 -125 -62 -202t-171 -77q-110 0 -172 76.5t-62 202.5t62.5 203.5t170.5 77.5q109 0 171.5 -77.5t62.5 -203.5zM407 265q0 88 -31 144t-96 56q-66 0 -98 -56t-32 -144q0 -89 32 -143.5t98 -54.5q65 0 96 54.5t31 143.5zM280 667l-104 -92l-47 53l151 155
l150 -155l-46 -53z" />
    <glyph glyph-name="otilde" unicode="&#xf5;" 
d="M513 264q0 -125 -62 -202t-171 -77q-110 0 -172 76.5t-62 202.5t62.5 203.5t170.5 77.5q109 0 171.5 -77.5t62.5 -203.5zM407 265q0 88 -31 144t-96 56q-66 0 -98 -56t-32 -144q0 -89 32 -143.5t98 -54.5q65 0 96 54.5t31 143.5zM338 594q-28 0 -72 18.5t-55 18.5
q-26 0 -51 -48l-62 35q15 38 44 68t69 30q31 0 73.5 -19t53.5 -19q26 0 51 49l61 -36q-18 -36 -47.5 -66.5t-64.5 -30.5z" />
    <glyph glyph-name="odieresis" unicode="&#xf6;" 
d="M513 264q0 -125 -62 -202t-171 -77q-110 0 -172 76.5t-62 202.5t62.5 203.5t170.5 77.5q109 0 171.5 -77.5t62.5 -203.5zM407 265q0 88 -31 144t-96 56q-66 0 -98 -56t-32 -144q0 -89 32 -143.5t98 -54.5q65 0 96 54.5t31 143.5zM242 670q0 -29 -18 -46.5t-46 -17.5
q-27 0 -45 17.5t-18 46.5t18 46.5t45 17.5q28 0 46 -17.5t18 -46.5zM439 670q0 -29 -18 -46.5t-45 -17.5q-28 0 -45.5 17.5t-17.5 46.5t18 46.5t45 17.5t45 -17.5t18 -46.5z" />
    <glyph glyph-name="divide" unicode="&#xf7;" horiz-adv-x="565" 
d="M350 500q0 -30 -20 -49.5t-49 -19.5t-49 19.5t-20 49.5t19.5 49t49.5 19t49.5 -19t19.5 -49zM350 102q0 -30 -20 -49.5t-49 -19.5t-49 19.5t-20 48.5q0 31 20 50.5t49 19.5t49 -19.5t20 -49.5zM519 255h-474v89h474v-89z" />
    <glyph glyph-name="oslash" unicode="&#xf8;" 
d="M545 260q0 -126 -69.5 -203.5t-180.5 -77.5q-78 0 -136 40l-50 -66l-64 48l56 71q-57 72 -57 188q0 125 70.5 202.5t180.5 77.5q79 0 136 -41l24 32t26 34l63 -47l-55 -72q56 -75 56 -186zM151 263q2 -56 27 -90l192 247q-37 27 -83 26q-63 -3 -99.5 -52t-36.5 -131z
M438 256q-1 53 -27 89l-191 -248q35 -26 82 -24q63 3 99.5 52t36.5 131z" />
    <glyph glyph-name="ugrave" unicode="&#xf9;" horiz-adv-x="575" 
d="M482 25q-72 -39 -205 -39q-118 0 -163.5 60.5t-45.5 178.5v308h103v-281q0 -97 21.5 -140.5t92.5 -43.5q64 0 94 15v450h103v-508zM316 584h-66l-150 189h132z" />
    <glyph glyph-name="uacute" unicode="&#xfa;" horiz-adv-x="575" 
d="M482 25q-72 -39 -205 -39q-118 0 -163.5 60.5t-45.5 178.5v308h103v-281q0 -97 21.5 -140.5t92.5 -43.5q64 0 94 15v450h103v-508zM317 605h-66l85 189h131z" />
    <glyph glyph-name="ucircumflex" unicode="&#xfb;" horiz-adv-x="575" 
d="M482 25q-72 -39 -205 -39q-118 0 -163.5 60.5t-45.5 178.5v308h103v-281q0 -97 21.5 -140.5t92.5 -43.5q64 0 94 15v450h103v-508zM284 667l-104 -92l-47 53l151 155l150 -155l-46 -53z" />
    <glyph glyph-name="udieresis" unicode="&#xfc;" horiz-adv-x="575" 
d="M482 25q-72 -39 -205 -39q-118 0 -163.5 60.5t-45.5 178.5v308h103v-281q0 -97 21.5 -140.5t92.5 -43.5q64 0 94 15v450h103v-508zM246 670q0 -29 -18 -46.5t-46 -17.5q-27 0 -45 17.5t-18 46.5t18 46.5t45 17.5q28 0 46 -17.5t18 -46.5zM443 670q0 -29 -18 -46.5
t-45 -17.5q-28 0 -45.5 17.5t-17.5 46.5t18 46.5t45 17.5t45 -17.5t18 -46.5z" />
    <glyph glyph-name="yacute" unicode="&#xfd;" horiz-adv-x="507" 
d="M483 533q-92 -326 -188 -582q-26 -63 -52.5 -92.5t-69.5 -29.5q-44 0 -103 28l20 68q46 -23 60 -23q17 0 30 15.5t19 32.5t13 41q1 5 2 8q-115 271 -192 534h109q41 -162 107 -350l9.5 -30.5l9 -29.5t6.5 -18q2 2 5.5 14.5t8 32.5t8.5 31q46 147 98 350h100zM287 605h-66
l85 189h131z" />
    <glyph glyph-name="thorn" unicode="&#xfe;" 
d="M73 768l105 18v-266q54 18 104 18q119 0 191 -75.5t72 -203.5q0 -126 -64 -202.5t-177 -76.5q-67 0 -126 33v-206h-105v961zM178 427v-317q55 -35 114 -35q75 0 109.5 49.5t34.5 133.5q0 87 -43 136.5t-116 49.5q-51 0 -99 -17z" />
    <glyph glyph-name="ydieresis" unicode="&#xff;" horiz-adv-x="507" 
d="M483 533q-92 -326 -188 -582q-26 -63 -52.5 -92.5t-69.5 -29.5q-44 0 -103 28l20 68q46 -23 60 -23q17 0 30 15.5t19 32.5t13 41q1 5 2 8q-115 271 -192 534h109q41 -162 107 -350l9.5 -30.5l9 -29.5t6.5 -18q2 2 5.5 14.5t8 32.5t8.5 31q46 147 98 350h100zM216 670
q0 -29 -18 -46.5t-46 -17.5q-27 0 -45 17.5t-18 46.5t18 46.5t45 17.5q28 0 46 -17.5t18 -46.5zM413 670q0 -29 -18 -46.5t-45 -17.5q-28 0 -45.5 17.5t-17.5 46.5t18 46.5t45 17.5t45 -17.5t18 -46.5z" />
    <glyph glyph-name="Amacron" unicode="&#x100;" horiz-adv-x="663" 
d="M627 -4h-116l-61 186h-268q-40 -111 -63 -186h-105q168 478 258 698h96q69 -171 259 -698zM427 260l-83 239q-6 16 -11.5 35t-9 30t-6.5 17q-2 -4 -15 -42q-16 -50 -50 -145t-47 -134h222zM457 788h-298v85h298v-85z" />
    <glyph glyph-name="amacron" unicode="&#x101;" horiz-adv-x="521" 
d="M446 17q-74 -31 -197 -31q-101 0 -156 41.5t-55 124.5q0 164 236 182q18 1 72 -2q-1 67 -24.5 100t-87.5 33q-69 0 -134 -29l-19 76q73 33 166 33q91 0 142 -44t55 -130q2 -19 2 -61v-293zM347 71v192q-35 4 -76 1q-62 -8 -96.5 -32t-34.5 -78q0 -94 118 -94q53 0 89 11z
M407 630h-298v85h298v-85z" />
    <glyph glyph-name="Abreve" unicode="&#x102;" horiz-adv-x="663" 
d="M627 -4h-116l-61 186h-268q-40 -111 -63 -186h-105q168 478 258 698h96q69 -171 259 -698zM427 260l-83 239q-6 16 -11.5 35t-9 30t-6.5 17q-2 -4 -15 -42q-16 -50 -50 -145t-47 -134h222zM309 760q-65 0 -105 41.5t-37 117.5h76q3 -75 66 -75t66 75h75q0 -78 -38 -118.5
t-103 -40.5z" />
    <glyph glyph-name="abreve" unicode="&#x103;" horiz-adv-x="521" 
d="M446 17q-74 -31 -197 -31q-101 0 -156 41.5t-55 124.5q0 164 236 182q18 1 72 -2q-1 67 -24.5 100t-87.5 33q-69 0 -134 -29l-19 76q73 33 166 33q91 0 142 -44t55 -130q2 -19 2 -61v-293zM347 71v192q-35 4 -76 1q-62 -8 -96.5 -32t-34.5 -78q0 -94 118 -94q53 0 89 11z
M260 602q-65 0 -105 41.5t-37 117.5h76q3 -75 66 -75t66 75h75q0 -78 -38 -118.5t-103 -40.5z" />
    <glyph glyph-name="Aogonek" unicode="&#x104;" horiz-adv-x="663" 
d="M627 -4h-116l-61 186h-268q-40 -111 -63 -186h-105q168 478 258 698h96q69 -171 259 -698zM427 260l-83 239q-6 16 -11.5 35t-9 30t-6.5 17q-2 -4 -15 -42q-16 -50 -50 -145t-47 -134h222zM541 -204q-114 0 -114 84q0 73 97 138h89q-21 -25 -35 -47q-4 -2 -5 -3q1 1 2 1
q-45 -48 -46 -65q1 -24 33 -24q19 0 46 9l9 -79q-37 -14 -76 -14z" />
    <glyph glyph-name="aogonek" unicode="&#x105;" horiz-adv-x="521" 
d="M247 540q119 0 163 -60.5t44 -174.5v-299q-18 -13 -42 -37l2 1l-12 -12t-13.5 -14.5l-10 -12.5t-8.5 -14.5t-2 -12.5q2 -27 37 -24q21 2 42 9l9 -79q-26 -11 -65 -13q-24 -1 -44 2q-64 11 -74 60q-6 30 11 68q12 28 44 59q-40 -5 -84 -5q-96 0 -152 42t-56 131
q0 87 62 128t165 41q53 0 86 -11q0 28 -1 43q0 94 -118 92q-69 -1 -127 -23l-13 91q60 25 157 25zM255 71q53 0 95 7v148q-19 8 -46 10t-40 2q-122 -2 -122 -83q0 -84 113 -84z" />
    <glyph glyph-name="Cacute" unicode="&#x106;" horiz-adv-x="620" 
d="M528 27q-59 -43 -180 -43q-135 0 -215.5 99t-80.5 262q0 160 83.5 261t215.5 101q109 0 173 -45l-29 -79q-55 36 -129 36q-65 0 -110.5 -35.5t-66.5 -98.5q-26 -65 -24 -150q2 -95 37 -163t102 -88q32 -10 69 -9q70 1 126 31zM366 773h-66l85 189h131z" />
    <glyph glyph-name="cacute" unicode="&#x107;" horiz-adv-x="471" 
d="M418 19q-54 -34 -138 -34q-109 0 -171.5 75.5t-62.5 203.5t63.5 204.5t168.5 76.5q77 0 135 -33l-24 -75q-46 25 -96 25q-71 0 -106 -51.5t-35 -144.5q0 -92 36 -144.5t109 -52.5q53 0 99 27zM295 626h-66l85 189h131z" />
    <glyph glyph-name="Ccircumflex" unicode="&#x108;" horiz-adv-x="620" 
d="M528 27q-59 -43 -180 -43q-135 0 -215.5 99t-80.5 262q0 160 83.5 261t215.5 101q109 0 173 -45l-29 -79q-55 36 -129 36q-65 0 -110.5 -35.5t-66.5 -98.5q-26 -65 -24 -150q2 -95 37 -163t102 -88q32 -10 69 -9q70 1 126 31zM333 834l-104 -92l-47 53l151 155l150 -155
l-46 -53z" />
    <glyph glyph-name="ccircumflex" unicode="&#x109;" horiz-adv-x="471" 
d="M418 19q-54 -34 -138 -34q-109 0 -171.5 75.5t-62.5 203.5t63.5 204.5t168.5 76.5q77 0 135 -33l-24 -75q-46 25 -96 25q-71 0 -106 -51.5t-35 -144.5q0 -92 36 -144.5t109 -52.5q53 0 99 27zM262 687l-104 -92l-47 53l151 155l150 -155l-46 -53z" />
    <glyph glyph-name="Cdotaccent" unicode="&#x10a;" horiz-adv-x="620" 
d="M528 27q-59 -43 -180 -43q-135 0 -215.5 99t-80.5 262q0 160 83.5 261t215.5 101q109 0 173 -45l-29 -79q-55 36 -129 36q-65 0 -110.5 -35.5t-66.5 -98.5q-26 -65 -24 -150q2 -95 37 -163t102 -88q32 -10 69 -9q70 1 126 31zM332 762q-28 0 -46.5 18.5t-18.5 47.5
q0 30 18.5 48.5t46.5 18.5t46.5 -18.5t18.5 -48.5q0 -29 -18.5 -47.5t-46.5 -18.5z" />
    <glyph glyph-name="cdotaccent" unicode="&#x10b;" horiz-adv-x="471" 
d="M418 19q-54 -34 -138 -34q-109 0 -171.5 75.5t-62.5 203.5t63.5 204.5t168.5 76.5q77 0 135 -33l-24 -75q-46 25 -96 25q-71 0 -106 -51.5t-35 -144.5q0 -92 36 -144.5t109 -52.5q53 0 99 27zM261 615q-28 0 -46.5 18.5t-18.5 47.5q0 30 18.5 48.5t46.5 18.5t46.5 -18.5
t18.5 -48.5q0 -29 -18.5 -47.5t-46.5 -18.5z" />
    <glyph glyph-name="Ccaron" unicode="&#x10c;" horiz-adv-x="620" 
d="M528 27q-59 -43 -180 -43q-135 0 -215.5 99t-80.5 262q0 160 83.5 261t215.5 101q109 0 173 -45l-29 -79q-55 36 -129 36q-65 0 -110.5 -35.5t-66.5 -98.5q-26 -65 -24 -150q2 -95 37 -163t102 -88q32 -10 69 -9q70 1 126 31zM228 968l104 -92l105 92l46 -53l-151 -154
l-150 154z" />
    <glyph glyph-name="ccaron" unicode="&#x10d;" horiz-adv-x="471" 
d="M418 19q-54 -34 -138 -34q-109 0 -171.5 75.5t-62.5 203.5t63.5 204.5t168.5 76.5q77 0 135 -33l-24 -75q-46 25 -96 25q-71 0 -106 -51.5t-35 -144.5q0 -92 36 -144.5t109 -52.5q53 0 99 27zM157 821l104 -92l105 92l46 -53l-151 -154l-150 154z" />
    <glyph glyph-name="Dcaron" unicode="&#x10e;" horiz-adv-x="712" 
d="M604 348q0 -170 -88.5 -265t-251.5 -95q-110 0 -188 28v657q82 29 187 29q162 0 251.5 -92t89.5 -262zM493 349q0 271 -227 271q-54 0 -82 -8v-531q24 -8 83 -8q226 0 226 276zM201 968l104 -92l105 92l46 -53l-151 -154l-150 154z" />
    <glyph glyph-name="dcaron" unicode="&#x10f;" horiz-adv-x="666" 
d="M516 782v-764q-87 -34 -204 -34q-121 0 -193.5 73.5t-72.5 202.5q0 124 64 200t175 76q72 0 124 -33v266q18 2 53.5 6.5t53.5 6.5zM409 83v332q-47 35 -109 35q-75 0 -109.5 -50.5t-34.5 -137.5q0 -91 42.5 -140.5t114.5 -49.5q65 0 96 11zM581 784h103l-29 -241h-74v241
z" />
    <glyph glyph-name="Dcroat" unicode="&#x110;" horiz-adv-x="725" 
d="M675 347q0 -177 -106.5 -269.5t-288.5 -92.5q-105 0 -188 19v313h-80v89h80v282q86 20 190 20q181 0 287 -91.5t106 -269.5zM201 317v-230q45 -5 87 -5q134 0 203.5 70t69.5 195q0 126 -68.5 195t-202.5 69q-39 0 -89 -5v-200h131v-89h-131z" />
    <glyph glyph-name="dcroat" unicode="&#x111;" 
d="M516 786v-95h75v-80h-75v-601q-97 -31 -204 -31q-123 0 -195.5 75t-72.5 203q0 125 64.5 201.5t177.5 76.5q72 0 124 -33v109h-171v80h171v77zM410 85v320q-52 35 -113 35q-75 0 -109.5 -49t-34.5 -132q0 -87 43 -136t117 -49q66 0 97 11z" />
    <glyph glyph-name="Emacron" unicode="&#x112;" horiz-adv-x="569" 
d="M470 -4h-394v698h381v-84h-272v-211h243v-83h-243v-236h285v-84zM423 788h-298v85h298v-85z" />
    <glyph glyph-name="emacron" unicode="&#x113;" horiz-adv-x="558" 
d="M494 254l-344 -25q14 -160 161 -160q77 0 137 30l21 -78q-62 -36 -167 -36q-124 0 -190 73.5t-66 206.5t65.5 206.5t166.5 73.5q94 0 149.5 -55.5t63.5 -163.5q2 -31 3 -72zM393 317q-1 74 -31 111.5t-85 37.5q-58 0 -93 -44.5t-36 -123.5zM419 621h-298v85h298v-85z" />
    <glyph glyph-name="Ebreve" unicode="&#x114;" horiz-adv-x="569" 
d="M470 -4h-394v698h381v-84h-272v-211h243v-83h-243v-236h285v-84zM275 760q-65 0 -105 41.5t-37 117.5h76q3 -75 66 -75t66 75h75q0 -78 -38 -118.5t-103 -40.5z" />
    <glyph glyph-name="ebreve" unicode="&#x115;" horiz-adv-x="558" 
d="M494 254l-344 -25q14 -160 161 -160q77 0 137 30l21 -78q-62 -36 -167 -36q-124 0 -190 73.5t-66 206.5t65.5 206.5t166.5 73.5q94 0 149.5 -55.5t63.5 -163.5q2 -31 3 -72zM393 317q-1 74 -31 111.5t-85 37.5q-58 0 -93 -44.5t-36 -123.5zM271 592q-65 0 -105 41.5
t-37 117.5h76q3 -75 66 -75t66 75h75q0 -78 -38 -118.5t-103 -40.5z" />
    <glyph glyph-name="Edotaccent" unicode="&#x116;" horiz-adv-x="569" 
d="M470 -4h-394v698h381v-84h-272v-211h243v-83h-243v-236h285v-84zM274 762q-28 0 -46.5 18.5t-18.5 47.5q0 30 18.5 48.5t46.5 18.5t46.5 -18.5t18.5 -48.5q0 -29 -18.5 -47.5t-46.5 -18.5z" />
    <glyph glyph-name="edotaccent" unicode="&#x117;" horiz-adv-x="558" 
d="M494 254l-344 -25q14 -160 161 -160q77 0 137 30l21 -78q-62 -36 -167 -36q-124 0 -190 73.5t-66 206.5t65.5 206.5t166.5 73.5q94 0 149.5 -55.5t63.5 -163.5q2 -31 3 -72zM393 317q-1 74 -31 111.5t-85 37.5q-58 0 -93 -44.5t-36 -123.5zM270 595q-28 0 -46.5 18.5
t-18.5 47.5q0 30 18.5 48.5t46.5 18.5t46.5 -18.5t18.5 -48.5q0 -29 -18.5 -47.5t-46.5 -18.5z" />
    <glyph glyph-name="Eogonek" unicode="&#x118;" horiz-adv-x="569" 
d="M426 -8h-86h-261v709h436v-96h-327v-194h291v-95h-291v-228h352v-90q-77 -59 -78 -94q1 -24 36 -24q21 2 43 9l9 -79q-37 -14 -76 -14q-114 0 -114 84q0 56 66 112z" />
    <glyph glyph-name="eogonek" unicode="&#x119;" horiz-adv-x="558" 
d="M44 259q0 133 71 207t170 74q107 0 166.5 -67.5t59.5 -198.5q0 -8 -1 -23.5t-1 -22.5h-353q12 -133 128 -150q24 -3 47 -2q68 1 129 29l17 -90q-100 -74 -101 -111q1 -24 36 -24q19 2 43 9l8 -79q-35 -14 -75 -14q-104 0 -112 70q-3 20 6 46q13 39 54 73q-25 -3 -53 -1
q-122 8 -180.5 81.5t-58.5 193.5zM157 313h247q-3 64 -33 99t-84 35t-89.5 -38.5t-40.5 -95.5z" />
    <glyph glyph-name="Ecaron" unicode="&#x11a;" horiz-adv-x="569" 
d="M470 -4h-394v698h381v-84h-272v-211h243v-83h-243v-236h285v-84zM171 968l104 -92l105 92l46 -53l-151 -154l-150 154z" />
    <glyph glyph-name="ecaron" unicode="&#x11b;" horiz-adv-x="558" 
d="M494 254l-344 -25q14 -160 161 -160q77 0 137 30l21 -78q-62 -36 -167 -36q-124 0 -190 73.5t-66 206.5t65.5 206.5t166.5 73.5q94 0 149.5 -55.5t63.5 -163.5q2 -31 3 -72zM393 317q-1 74 -31 111.5t-85 37.5q-58 0 -93 -44.5t-36 -123.5zM166 801l104 -92l105 92
l46 -53l-151 -154l-150 154z" />
    <glyph glyph-name="Gcircumflex" unicode="&#x11c;" horiz-adv-x="670" 
d="M567 22q-70 -38 -203 -38q-140 0 -226.5 95t-86.5 268q0 168 90 264t227 96q118 0 192 -45l-33 -79q-58 35 -142 36q-105 2 -164 -68t-59 -207q0 -130 55 -202.5t151 -72.5q68 0 94 13v207h-69v86h174v-353zM359 834l-104 -92l-47 53l151 155l150 -155l-46 -53z" />
    <glyph glyph-name="gcircumflex" unicode="&#x11d;" horiz-adv-x="579" 
d="M485 14q0 -225 -234 -225q-102 0 -175 34q4 16 13 45.5t11 34.5q56 -27 127 -30q68 -1 105 29q52 28 52 100v30q-43 -28 -113 -28q-101 0 -163 68.5t-62 192.5q0 126 67 202.5t188 76.5q106 0 184 -34v-496zM384 107v348q-33 12 -84 12q-73 0 -111.5 -53.5t-38.5 -145.5
q0 -93 36.5 -140t101.5 -47q55 0 96 26zM298 667l-104 -92l-47 53l151 155l150 -155l-46 -53z" />
    <glyph glyph-name="Gbreve" unicode="&#x11e;" horiz-adv-x="670" 
d="M567 22q-70 -38 -203 -38q-140 0 -226.5 95t-86.5 268q0 168 90 264t227 96q118 0 192 -45l-33 -79q-58 35 -142 36q-105 2 -164 -68t-59 -207q0 -130 55 -202.5t151 -72.5q68 0 94 13v207h-69v86h174v-353zM359 760q-65 0 -105 41.5t-37 117.5h76q3 -75 66 -75t66 75h75
q0 -78 -38 -118.5t-103 -40.5z" />
    <glyph glyph-name="gbreve" unicode="&#x11f;" horiz-adv-x="579" 
d="M485 14q0 -225 -234 -225q-102 0 -175 34q4 16 13 45.5t11 34.5q56 -27 127 -30q68 -1 105 29q52 28 52 100v30q-43 -28 -113 -28q-101 0 -163 68.5t-62 192.5q0 126 67 202.5t188 76.5q106 0 184 -34v-496zM384 107v348q-33 12 -84 12q-73 0 -111.5 -53.5t-38.5 -145.5
q0 -93 36.5 -140t101.5 -47q55 0 96 26zM297 592q-65 0 -105 41.5t-37 117.5h76q3 -75 66 -75t66 75h75q0 -78 -38 -118.5t-103 -40.5z" />
    <glyph glyph-name="Gdotaccent" unicode="&#x120;" horiz-adv-x="670" 
d="M567 22q-70 -38 -203 -38q-140 0 -226.5 95t-86.5 268q0 168 90 264t227 96q118 0 192 -45l-33 -79q-58 35 -142 36q-105 2 -164 -68t-59 -207q0 -130 55 -202.5t151 -72.5q68 0 94 13v207h-69v86h174v-353zM358 762q-28 0 -46.5 18.5t-18.5 47.5q0 30 18.5 48.5
t46.5 18.5t46.5 -18.5t18.5 -48.5q0 -29 -18.5 -47.5t-46.5 -18.5z" />
    <glyph glyph-name="gdotaccent" unicode="&#x121;" horiz-adv-x="579" 
d="M485 14q0 -225 -234 -225q-102 0 -175 34q4 16 13 45.5t11 34.5q56 -27 127 -30q68 -1 105 29q52 28 52 100v30q-43 -28 -113 -28q-101 0 -163 68.5t-62 192.5q0 126 67 202.5t188 76.5q106 0 184 -34v-496zM384 107v348q-33 12 -84 12q-73 0 -111.5 -53.5t-38.5 -145.5
q0 -93 36.5 -140t101.5 -47q55 0 96 26zM296 595q-28 0 -46.5 18.5t-18.5 47.5q0 30 18.5 48.5t46.5 18.5t46.5 -18.5t18.5 -48.5q0 -29 -18.5 -47.5t-46.5 -18.5z" />
    <glyph glyph-name="Gcommaaccent" unicode="&#x122;" horiz-adv-x="670" 
d="M484 87q1 24 3.5 73t3.5 73q-1 2 -7 17v101h116v-332q-77 -36 -220 -36q-151 0 -239.5 96.5t-88.5 267.5q0 167 94.5 265.5t241.5 98.5q127 0 210 -51l-36 -87q-57 40 -161 42q-105 3 -169 -67t-64 -201q0 -129 55.5 -200.5t163.5 -71.5q68 0 97 12zM331 -67v21h94
q3 -15 3 -26q0 -5 -0.5 -12t-0.5 -9q-4 -51 -34 -78t-76 -31q-14 -2 -22 -1q-20 0 -38 6v69q40 0 57 14t17 47z" />
    <glyph glyph-name="gcommaaccent" unicode="&#x123;" horiz-adv-x="579" 
d="M400 19q-8 22 -10 26q-40 -31 -110 -31q-103 0 -168.5 64.5t-65.5 190.5q0 119 69.5 193t191.5 74q111 0 200 -31v-476q0 -119 -63 -173t-190 -54q-94 0 -178 30l22 89q55 -26 137 -29q75 -2 112 24q52 26 53 103zM400 132v307q-33 11 -94 11q-71 0 -110.5 -48.5
t-39.5 -131.5q0 -86 39 -128.5t97 -42.5q68 0 108 33zM252 615q-3 77 32 120t89 57l37 -58q-31 -18 -46 -41.5t-15 -70.5v-21h-96q-1 4 -1 14z" />
    <glyph glyph-name="Hcircumflex" unicode="&#x124;" horiz-adv-x="704" 
d="M577 -4h-108v319h-284v-319h-109v698h109v-296h284v296h108v-698zM326 834l-104 -92l-47 53l151 155l150 -155l-46 -53z" />
    <glyph glyph-name="hcircumflex" unicode="&#x125;" horiz-adv-x="575" 
d="M490 -4h-103v283q0 39 -1.5 62t-7.5 49t-18 40t-34 23t-54 9q-56 0 -98 -21v-445h-104v784h104v-264q56 23 107 25q56 1 96.5 -13t61.5 -35.5t33 -57.5t15 -66t3 -73v-300zM287 884l-104 -92l-47 53l151 155l150 -155l-45 -53z" />
    <glyph glyph-name="Hbar" unicode="&#x126;" horiz-adv-x="730" 
d="M718 515h-80v-523h-109v319h-328v-319h-109v523h-80v87h80v99h109v-99h328v99h109v-99h80v-87zM529 408v107h-328v-107h328z" />
    <glyph glyph-name="hbar" unicode="&#x127;" horiz-adv-x="577" 
d="M181 -8h-105v619h-75v80h75v77l105 18v-95h175v-80h-175v-96q53 19 110 19q120 0 169.5 -64t49.5 -183v-295h-105v275q0 96 -27.5 134t-98.5 38q-57 0 -98 -17v-430z" />
    <glyph glyph-name="Itilde" unicode="&#x128;" horiz-adv-x="267" 
d="M186 -4h-108v698h108v-698zM189 762q-28 0 -72 18.5t-55 18.5q-26 0 -51 -48l-62 35q15 38 44 68t69 30q31 0 73.5 -19t53.5 -19q26 0 51 49l61 -36q-18 -36 -47.5 -66.5t-64.5 -30.5z" />
    <glyph glyph-name="itilde" unicode="&#x129;" horiz-adv-x="252" 
d="M178 528v-536h-105v536h105zM184 586q-28 0 -72 18.5t-55 18.5q-26 0 -51 -48l-62 35q15 38 44 68t69 30q31 0 73.5 -19t53.5 -19q26 0 51 49l61 -36q-18 -36 -47.5 -66.5t-64.5 -30.5z" />
    <glyph glyph-name="Imacron" unicode="&#x12a;" horiz-adv-x="267" 
d="M186 -4h-108v698h108v-698zM278 788h-298v85h298v-85z" />
    <glyph glyph-name="imacron" unicode="&#x12b;" horiz-adv-x="252" 
d="M178 528v-536h-105v536h105zM274 621h-298v85h298v-85z" />
    <glyph glyph-name="Ibreve" unicode="&#x12c;" horiz-adv-x="267" 
d="M186 -4h-108v698h108v-698zM131 760q-65 0 -105 41.5t-37 117.5h76q3 -75 66 -75t66 75h75q0 -78 -38 -118.5t-103 -40.5z" />
    <glyph glyph-name="ibreve" unicode="&#x12d;" horiz-adv-x="252" 
d="M178 528v-536h-105v536h105zM126 592q-65 0 -105 41.5t-37 117.5h76q3 -75 66 -75t66 75h75q0 -78 -38 -118.5t-103 -40.5z" />
    <glyph glyph-name="Iogonek" unicode="&#x12e;" horiz-adv-x="267" 
d="M188 701v-705q-74 -63 -75 -92q1 -24 37 -24q21 2 42 9l9 -79q-37 -14 -76 -14q-114 0 -114 84q0 62 68 114v707h109z" />
    <glyph glyph-name="iogonek" unicode="&#x12f;" horiz-adv-x="252" 
d="M178 528v-532q-4 -4 -18.5 -17.5t-20.5 -20l-15.5 -17.5t-13.5 -19.5t-4 -17.5q1 -24 36 -24q19 2 43 9l9 -79q-37 -14 -76 -14q-114 0 -114 84q0 59 69 116v532h105zM193 674q0 -31 -19.5 -50t-48.5 -19t-48.5 19t-19.5 50t19.5 50t48.5 19t48.5 -19t19.5 -50z" />
    <glyph glyph-name="Idotaccent" unicode="&#x130;" horiz-adv-x="267" 
d="M79 -4v700h112v-700h-112zM134 765q-28 0 -46.5 18.5t-18.5 48.5q0 29 18.5 47.5t46.5 18.5t46.5 -18.5t18.5 -47.5q0 -30 -18.5 -48.5t-46.5 -18.5z" />
    <glyph glyph-name="dotlessi" unicode="&#x131;" horiz-adv-x="252" 
d="M178 528v-536h-105v536h105z" />
    <glyph glyph-name="IJ" unicode="&#x132;" horiz-adv-x="765" 
d="M79 -4v700h112v-700h-112zM662 696v-497q0 -240 -221 -245q-106 -1 -177 51l33 86q68 -43 135 -32q62 8 90.5 48t28.5 124v465h111z" />
    <glyph glyph-name="ij" unicode="&#x133;" horiz-adv-x="503" 
d="M440 683q0 -27 -18.5 -44.5t-44.5 -17.5q-27 0 -45 17.5t-18 44.5t18 44t45 17q26 0 44.5 -17.5t18.5 -43.5zM429 23q0 -195 -155 -221q-29 -9 -71 -4l8 68q60 11 86.5 45.5t27.5 106.5v515h104v-510zM187 683q0 -27 -18 -44.5t-45 -17.5q-26 0 -44 17.5t-18 44.5t18 44
t44 17q27 0 45 -17t18 -44zM176 -4h-103v537h103v-537z" />
    <glyph glyph-name="Jcircumflex" unicode="&#x134;" horiz-adv-x="499" 
d="M304 127q0 -211 -188 -237q-64 -6 -138 20q14 54 22 81q61 -18 107 1q53 18 71 63t18 137v46v456h108v-567zM251 834l-104 -92l-47 53l151 155l150 -155l-46 -53z" />
    <glyph glyph-name="jcircumflex" unicode="&#x135;" horiz-adv-x="252" 
d="M-2 -195q-37 0 -73 14l15 89q30 -10 53 -10q46 0 63 26t17 84v520h105v-519q0 -105 -43.5 -154.5t-136.5 -49.5zM125 667l-104 -92l-47 53l151 155l150 -155l-46 -53z" />
    <glyph glyph-name="Kcommaaccent" unicode="&#x136;" horiz-adv-x="623" 
d="M619 -4h-85q-7 0 -21.5 0.5t-21.5 1.5q-58 94 -139.5 182.5t-160.5 144.5v-329h-112v700h112v-305q69 66 151.5 155.5t127.5 149.5h129q-129 -151 -303 -327q82 -63 177.5 -173t145.5 -200zM291 -67v21h94q3 -15 3 -26q0 -16 -1 -21q-4 -51 -33.5 -78t-75.5 -31
q-16 -2 -23 -1q-21 0 -37 6v69q39 0 56 14t17 47z" />
    <glyph glyph-name="kcommaaccent" unicode="&#x137;" horiz-adv-x="519" 
d="M233 -67v21h95q2 -20 3 -26q0 -11 -2 -21q-4 -51 -33.5 -78t-75.5 -31q-14 -2 -23 -1q-19 0 -37 6v69q39 0 56 14t17 47zM501 -4h-119q-138 203 -206 258v-258h-103v784h103v-475l191 228h117l-216 -246q123 -126 233 -291z" />
    <glyph glyph-name="kgreenlandic" unicode="&#x138;" horiz-adv-x="527" 
d="M178 -8h-105v536h105v-214q140 140 206 214h127q-110 -128 -240 -248q66 -50 139 -132.5t116 -155.5h-122q-43 65 -107 131t-119 104v-235z" />
    <glyph glyph-name="Lacute" unicode="&#x139;" horiz-adv-x="519" 
d="M446 -4h-368v698h108v-614h260v-84zM166 773h-66l85 189h131z" />
    <glyph glyph-name="lacute" unicode="&#x13a;" horiz-adv-x="298" 
d="M269 45l-19 -59q-98 8 -137.5 48.5t-39.5 139.5v606h103v-550q0 -75 9.5 -111t26 -49t57.5 -25zM159 857h-66l85 189h131z" />
    <glyph glyph-name="Lcommaaccent" unicode="&#x13b;" horiz-adv-x="519" 
d="M191 87h297v-91h-409v700h112v-609zM258 -67v21h94q1 -6 2 -15t1 -11q0 -5 -0.5 -12t-0.5 -9q-4 -51 -34 -78t-76 -31q-14 -2 -22 -1q-20 0 -38 6v69q40 0 57 14t17 47z" />
    <glyph glyph-name="lcommaaccent" unicode="&#x13c;" horiz-adv-x="272" 
d="M106 -67v21h94q3 -15 3 -26q0 -16 -1 -21q-4 -51 -33.5 -78t-75.5 -31q-15 -2 -23 -1q-20 0 -38 6v69q40 0 57 14t17 47zM269 45l-19 -59q-98 8 -137.5 48.5t-39.5 139.5v606h103v-550q0 -75 9.5 -111t26 -49t57.5 -25z" />
    <glyph glyph-name="Lcaron" unicode="&#x13d;" horiz-adv-x="519" 
d="M191 87h297v-91h-409v700h112v-609zM271 703h103l-29 -242h-74v242z" />
    <glyph glyph-name="lcaron" unicode="&#x13e;" horiz-adv-x="380" 
d="M249 782h103l-29 -241h-74v241zM269 45l-19 -59q-98 8 -137.5 48.5t-39.5 139.5v606h103v-550q0 -75 9.5 -111t26 -49t57.5 -25z" />
    <glyph glyph-name="Ldot" unicode="&#x13f;" horiz-adv-x="519" 
d="M191 87h297v-91h-409v700h112v-609zM397 309q-29 0 -48.5 19.5t-19.5 50.5t19.5 50.5t48.5 19.5t49 -19.5t20 -50.5t-20 -50.5t-49 -19.5z" />
    <glyph glyph-name="ldot" unicode="&#x140;" horiz-adv-x="298" 
d="M269 45l-19 -59q-98 8 -137.5 48.5t-39.5 139.5v606h103v-550q0 -75 9.5 -111t26 -49t57.5 -25zM124 846q-28 0 -46.5 18.5t-18.5 47.5q0 30 18.5 48.5t46.5 18.5t46.5 -18.5t18.5 -48.5q0 -29 -18.5 -47.5t-46.5 -18.5z" />
    <glyph glyph-name="Lslash" unicode="&#x141;" horiz-adv-x="538" 
d="M207 423l111 57l38 -78l-149 -77v-237h321v-96h-430v278l-69 -35l-39 78l108 55v333h109v-278z" />
    <glyph glyph-name="lslash" unicode="&#x142;" horiz-adv-x="286" 
d="M189 476l68 35l36 -76l-104 -53v-235q0 -41 16.5 -56t62.5 -20l-15 -89q-81 3 -120.5 32t-44.5 96q-4 45 -4 107v111l-52 -27l-37 75l89 45v359h105v-304z" />
    <glyph glyph-name="Nacute" unicode="&#x143;" horiz-adv-x="722" 
d="M608 -4h-59l-32 2q-104 182 -300 476q-8 11 -18.5 29.5l-16.5 28.5t-9 10q0 -13 1 -91t1 -119v-336h-99v698h97q165 -228 301 -451l15.5 -27.5l13.5 -24.5t8 -12q0 27 -1 125t-1 146v244h99v-698zM383 773h-66l85 189h131z" />
    <glyph glyph-name="nacute" unicode="&#x144;" horiz-adv-x="575" 
d="M490 -4h-103v285q0 39 -1 60t-7 48.5t-18 41t-34.5 23.5t-55.5 10q-55 0 -97 -14v-454h-104v510q78 38 208 38q56 0 96.5 -14.5t62.5 -36t34.5 -57t15.5 -65.5t3 -73v-302zM304 605h-66l85 189h131z" />
    <glyph glyph-name="Ncommaaccent" unicode="&#x145;" horiz-adv-x="722" 
d="M629 -4h-59l-32 2q-57 102 -174 275.5t-180 245.5v-231v-292h-105v700h89q151 -170 301 -403l55 -90v231v262h105v-700zM321 -67v21h94q1 -6 2 -15t1 -11q0 -5 -0.5 -12t-0.5 -9q-4 -51 -34 -78t-76 -31q-14 -2 -22 -1q-20 0 -38 6v69q40 0 57 14t17 47z" />
    <glyph glyph-name="ncommaaccent" unicode="&#x146;" horiz-adv-x="575" 
d="M74 -4v506q86 34 214 34q125 0 173.5 -63t48.5 -185v-292h-108v268q0 103 -25.5 143.5t-97.5 40.5q-61 0 -97 -11v-441h-108zM244 -67v21h95q2 -20 2 -26q1 -10 -1 -21q-4 -51 -33.5 -78t-75.5 -31q-14 -2 -23 -1q-19 0 -37 6v69q39 0 56 14t17 47z" />
    <glyph glyph-name="Ncaron" unicode="&#x147;" horiz-adv-x="722" 
d="M608 -4h-59l-32 2q-104 182 -300 476q-8 11 -18.5 29.5l-16.5 28.5t-9 10q0 -13 1 -91t1 -119v-336h-99v698h97q165 -228 301 -451l15.5 -27.5l13.5 -24.5t8 -12q0 27 -1 125t-1 146v244h99v-698zM245 968l104 -92l105 92l46 -53l-151 -154l-150 154z" />
    <glyph glyph-name="ncaron" unicode="&#x148;" horiz-adv-x="575" 
d="M490 -4h-103v285q0 39 -1 60t-7 48.5t-18 41t-34.5 23.5t-55.5 10q-55 0 -97 -14v-454h-104v510q78 38 208 38q56 0 96.5 -14.5t62.5 -36t34.5 -57t15.5 -65.5t3 -73v-302zM165 801l104 -92l105 92l46 -53l-151 -154l-150 154z" />
    <glyph glyph-name="napostrophe" unicode="&#x149;" horiz-adv-x="583" 
d="M82 -4v506q86 34 214 34q126 0 174 -62.5t48 -185.5v-292h-107v268q0 103 -25.5 143.5t-97.5 40.5q-62 0 -98 -11v-441h-108zM42 784h100q1 -6 3.5 -17t3.5 -15q-6 -98 -70 -201l-75 27q43 89 43 160q0 25 -5 46z" />
    <glyph glyph-name="Eng" unicode="&#x14a;" horiz-adv-x="722" 
d="M535 -21v43q-60 104 -165.5 256.5t-182.5 245.5v-532h-108v709h86q88 -96 196.5 -243.5t173.5 -257.5v501h108v-715q0 -83 -26 -127t-99 -50q-27 -5 -53 -2q-25 2 -50 11l14 89q23 -9 49 -9q31 0 44 19.5t13 61.5z" />
    <glyph glyph-name="eng" unicode="&#x14b;" horiz-adv-x="575" 
d="M402 -27v298q0 96 -27 134.5t-98 38.5q-58 0 -99 -11v-441h-105v516q106 30 214 30q120 0 170 -64t50 -183v-309q0 -83 -26 -126t-101 -48q-20 -3 -46 -1q-23 2 -48 11l15 84q22 -8 45 -8q30 0 43 19t13 60z" />
    <glyph glyph-name="Omacron" unicode="&#x14c;" horiz-adv-x="778" 
d="M644 345q0 -166 -79.5 -263.5t-216.5 -97.5t-216.5 97.5t-79.5 263.5q0 165 79.5 263.5t216.5 98.5t216.5 -98.5t79.5 -263.5zM533 347q0 121 -47 198t-138 77q-92 0 -138.5 -77t-46.5 -198t46 -198t139 -77t139 77t46 198zM496 812h-298v85h298v-85z" />
    <glyph glyph-name="omacron" unicode="&#x14d;" 
d="M513 264q0 -125 -62 -202t-171 -77q-110 0 -172 76.5t-62 202.5t62.5 203.5t170.5 77.5q109 0 171.5 -77.5t62.5 -203.5zM407 265q0 88 -31 144t-96 56q-66 0 -98 -56t-32 -144q0 -89 32 -143.5t98 -54.5q65 0 96 54.5t31 143.5zM428 621h-298v85h298v-85z" />
    <glyph glyph-name="Obreve" unicode="&#x14e;" horiz-adv-x="778" 
d="M644 345q0 -166 -79.5 -263.5t-216.5 -97.5t-216.5 97.5t-79.5 263.5q0 165 79.5 263.5t216.5 98.5t216.5 -98.5t79.5 -263.5zM533 347q0 121 -47 198t-138 77q-92 0 -138.5 -77t-46.5 -198t46 -198t139 -77t139 77t46 198zM348 784q-65 0 -105 41.5t-37 117.5h76
q3 -75 66 -75t66 75h75q0 -78 -38 -118.5t-103 -40.5z" />
    <glyph glyph-name="obreve" unicode="&#x14f;" 
d="M513 264q0 -125 -62 -202t-171 -77q-110 0 -172 76.5t-62 202.5t62.5 203.5t170.5 77.5q109 0 171.5 -77.5t62.5 -203.5zM407 265q0 88 -31 144t-96 56q-66 0 -98 -56t-32 -144q0 -89 32 -143.5t98 -54.5q65 0 96 54.5t31 143.5zM280 592q-65 0 -105 41.5t-37 117.5h76
q3 -75 66 -75t66 75h75q0 -78 -38 -118.5t-103 -40.5z" />
    <glyph glyph-name="Ohungarumlaut" unicode="&#x150;" horiz-adv-x="778" 
d="M706 346q0 -171 -92 -267.5t-235 -96.5t-235 97t-92 267t92.5 267.5t234.5 97.5q143 0 235 -97t92 -268zM590 348q0 124 -56.5 197t-154.5 73t-154.5 -73t-56.5 -197t56.5 -197.5t154.5 -73.5t154.5 73.5t56.5 197.5zM381 950l69 -59l-139 -164l-60 45zM550 950l72 -61
l-142 -162l-59 45z" />
    <glyph glyph-name="ohungarumlaut" unicode="&#x151;" 
d="M541 261q0 -125 -68.5 -201t-179.5 -76q-110 0 -178.5 76t-68.5 201q0 123 69 199.5t178 76.5q110 0 179 -76t69 -200zM430 261q0 87 -36.5 137.5t-100.5 50.5t-100.5 -50.5t-36.5 -137.5t36.5 -137t100.5 -50t100.5 50t36.5 137zM284 798l69 -59l-139 -164l-59 45z
M456 798l72 -61l-142 -162l-59 45z" />
    <glyph glyph-name="OE" unicode="&#x152;" horiz-adv-x="992" 
d="M518 87v519q-40 5 -83 5q-133 0 -201 -69.5t-68 -194.5q0 -126 68 -195.5t201 -69.5q18 0 83 5zM962 -8h-419q-49 -6 -102 -6q-178 0 -283.5 92t-105.5 269t105.5 268.5t283.5 91.5q53 0 101 -6h395v-96h-311v-194h276v-95h-276v-228h336v-96z" />
    <glyph glyph-name="oe" unicode="&#x153;" horiz-adv-x="942" 
d="M294 540q129 0 192 -113q51 88 142 108q37 6 63 3q97 -6 150.5 -72.5t53.5 -191.5q0 -8 -1 -23.5t-1 -22.5h-353q13 -125 115 -147q31 -6 65 -5q62 2 124 29l17 -91q-54 -29 -141 -32q-47 -2 -81 4q-103 17 -156 103q-64 -110 -189 -110q-111 0 -180.5 77.5t-69.5 203.5
q0 125 69.5 202.5t180.5 77.5zM436 260q0 85 -37.5 135t-103.5 50t-104 -50t-38 -135q0 -86 38 -136t104 -50t103.5 50t37.5 136zM541 313h247q-3 64 -33 99t-84 35t-89.5 -38.5t-40.5 -95.5z" />
    <glyph glyph-name="Racute" unicode="&#x154;" horiz-adv-x="636" 
d="M569 -4h-120q-113 197 -187 290h-78v-290h-106v678q81 28 184 28q135 0 204.5 -55t69.5 -160q0 -76 -43.5 -126t-119.5 -64v-1q70 -89 196 -300zM427 485q0 142 -158 142q-48 0 -85 -11v-264h85q158 0 158 133zM323 773h-66l85 189h131z" />
    <glyph glyph-name="racute" unicode="&#x155;" horiz-adv-x="387" 
d="M348 533l-20 -79q-33 9 -78 9q-51 -1 -76 -15v-452h-104v509q77 35 171 37q51 2 107 -9zM236 605h-66l85 189h131z" />
    <glyph glyph-name="Rcommaaccent" unicode="&#x156;" horiz-adv-x="632" 
d="M571 482q0 -137 -139 -187q39 -49 93.5 -137t88.5 -162h-122q-48 93 -161 262q-27 6 -55 15h-86v-277h-111v684q80 23 192 23q300 0 300 -221zM278 615q-38 0 -88 -5v-261h72q46 0 78.5 5t60.5 18.5t42 40.5t14 68q0 134 -179 134zM287 -67v21h95q1 -6 2 -15t1 -11
q0 -11 -2 -21q-4 -51 -33.5 -78t-75.5 -31q-14 -2 -23 -1q-19 0 -37 6v69q40 0 56.5 14t16.5 47z" />
    <glyph glyph-name="rcommaaccent" unicode="&#x157;" horiz-adv-x="387" 
d="M268 536q64 0 110 -16q-3 -15 -9.5 -42.5l-9.5 -39.5q-36 9 -81 8q-8 2 -14 2q-46 1 -82 -12v-440h-108v503q84 36 194 37zM78 -67v21h95q2 -20 3 -26q0 -11 -2 -21q-4 -51 -33.5 -78t-75.5 -31q-14 -2 -23 -1q-19 0 -37 6v69q39 0 56 14t17 47z" />
    <glyph glyph-name="Rcaron" unicode="&#x158;" horiz-adv-x="636" 
d="M569 -4h-120q-113 197 -187 290h-78v-290h-106v678q81 28 184 28q135 0 204.5 -55t69.5 -160q0 -76 -43.5 -126t-119.5 -64v-1q70 -89 196 -300zM427 485q0 142 -158 142q-48 0 -85 -11v-264h85q158 0 158 133zM184 968l104 -92l105 92l46 -53l-151 -154l-150 154z" />
    <glyph glyph-name="rcaron" unicode="&#x159;" horiz-adv-x="387" 
d="M268 536q64 0 110 -16q-3 -15 -9.5 -42.5l-9.5 -39.5q-36 9 -81 8q-8 2 -14 2q-46 1 -82 -12v-440h-108v503q84 36 194 37zM128 783l104 -92l105 92l46 -53l-151 -154l-150 154z" />
    <glyph glyph-name="Sacute" unicode="&#x15a;" horiz-adv-x="535" 
d="M462 187q0 -94 -64 -148.5t-173 -54.5q-123 0 -193 45q11 28 31 84q68 -41 153 -41q64 0 99 28t35 82q0 50 -33.5 77t-112.5 59q-136 56 -155 158q-4 20 -2 50q5 82 63.5 131.5t154.5 49.5q103 0 172 -44l-31 -79q-60 38 -134 38q-56 0 -87.5 -26t-31.5 -76q0 -48 33 -74
t104 -53q91 -38 131.5 -86t40.5 -120zM274 773h-66l85 189h131z" />
    <glyph glyph-name="sacute" unicode="&#x15b;" horiz-adv-x="444" 
d="M388 143q0 -70 -54 -114t-145 -44q-96 0 -157 35l26 80q48 -32 125 -32q45 0 72 19t27 54q0 34 -22.5 53t-83.5 44q-68 27 -99.5 63.5t-31.5 89.5q0 67 49 110.5t130 43.5q83 0 143 -33l-24 -76q-48 29 -109 29q-40 0 -63.5 -18.5t-23.5 -50.5q0 -23 13.5 -40t31.5 -26.5
t58 -26.5q72 -29 105 -66t33 -94zM236 605h-66l85 189h131z" />
    <glyph glyph-name="Scircumflex" unicode="&#x15c;" horiz-adv-x="535" 
d="M462 187q0 -94 -64 -148.5t-173 -54.5q-123 0 -193 45q11 28 31 84q68 -41 153 -41q64 0 99 28t35 82q0 50 -33.5 77t-112.5 59q-136 56 -155 158q-4 20 -2 50q5 82 63.5 131.5t154.5 49.5q103 0 172 -44l-31 -79q-60 38 -134 38q-56 0 -87.5 -26t-31.5 -76q0 -48 33 -74
t104 -53q91 -38 131.5 -86t40.5 -120zM240 834l-104 -92l-47 53l151 155l150 -155l-46 -53z" />
    <glyph glyph-name="scircumflex" unicode="&#x15d;" horiz-adv-x="444" 
d="M388 143q0 -70 -54 -114t-145 -44q-96 0 -157 35l26 80q48 -32 125 -32q45 0 72 19t27 54q0 34 -22.5 53t-83.5 44q-68 27 -99.5 63.5t-31.5 89.5q0 67 49 110.5t130 43.5q83 0 143 -33l-24 -76q-48 29 -109 29q-40 0 -63.5 -18.5t-23.5 -50.5q0 -23 13.5 -40t31.5 -26.5
t58 -26.5q72 -29 105 -66t33 -94zM202 667l-104 -92l-47 53l151 155l150 -155l-46 -53z" />
    <glyph glyph-name="Scedilla" unicode="&#x15e;" horiz-adv-x="535" 
d="M301 -19q8 -16 4 -41q43 -27 42 -68q-12 -77 -116 -77q-50 0 -85 15l14 72q26 -12 66 -12q13 0 20 5.5t6 16.5q-3 12 -14.5 19t-40.5 18q7 21 21 49q-124 8 -193 52l33 93q92 -50 189 -50q146 0 146 102q0 20 -4.5 35.5t-17.5 29t-22.5 22t-34 20t-36 16l-43.5 16.5
q-47 18 -77.5 34.5t-59 40.5t-42 56.5t-13.5 74.5q0 94 64 145.5t177 51.5q57 0 111 -15t87 -36l-36 -92q-72 46 -162 46q-129 0 -129 -93q0 -25 9.5 -43.5t33 -33.5t42 -23.5t57.5 -24.5q55 -21 86 -37t63 -41.5t46 -61t14 -84.5q0 -87 -52.5 -136.5t-152.5 -60.5z" />
    <glyph glyph-name="scedilla" unicode="&#x15f;" horiz-adv-x="444" 
d="M259 -60q43 -32 38 -75q-14 -70 -111 -70q-49 0 -86 15l15 72q26 -12 65 -12q14 0 20.5 5.5t5.5 16.5q-3 12 -14 19t-40 18q7 21 22 51q-89 4 -144 32l23 93q64 -32 138 -33q27 0 39 2q76 8 76 58q0 31 -22 47t-90 43q-38 16 -60 27t-46.5 30.5t-35.5 45.5t-11 61
q0 70 52 112t142 42q84 0 153 -28l-21 -91q-66 28 -131 28q-40 0 -65 -14.5t-25 -44.5q0 -21 14 -36t30.5 -23t59.5 -26q85 -34 123.5 -69t38.5 -102q0 -63 -41 -101.5t-114 -48.5q7 -20 2 -44z" />
    <glyph glyph-name="Scaron" unicode="&#x160;" horiz-adv-x="535" 
d="M462 187q0 -94 -64 -148.5t-173 -54.5q-123 0 -193 45q11 28 31 84q68 -41 153 -41q64 0 99 28t35 82q0 50 -33.5 77t-112.5 59q-136 56 -155 158q-4 20 -2 50q5 82 63.5 131.5t154.5 49.5q103 0 172 -44l-31 -79q-60 38 -134 38q-56 0 -87.5 -26t-31.5 -76q0 -48 33 -74
t104 -53q91 -38 131.5 -86t40.5 -120zM135 968l104 -92l105 92l46 -53l-151 -154l-150 154z" />
    <glyph glyph-name="scaron" unicode="&#x161;" horiz-adv-x="444" 
d="M388 143q0 -70 -54 -114t-145 -44q-96 0 -157 35l26 80q48 -32 125 -32q45 0 72 19t27 54q0 34 -22.5 53t-83.5 44q-68 27 -99.5 63.5t-31.5 89.5q0 67 49 110.5t130 43.5q83 0 143 -33l-24 -76q-48 29 -109 29q-40 0 -63.5 -18.5t-23.5 -50.5q0 -23 13.5 -40t31.5 -26.5
t58 -26.5q72 -29 105 -66t33 -94zM97 801l104 -92l105 92l46 -53l-151 -154l-150 154z" />
    <glyph glyph-name="uni0162" unicode="&#x162;" horiz-adv-x="566" 
d="M320 -60q44 -29 41 -70q-14 -75 -114 -75q-49 0 -86 15l14 72q27 -12 66 -12q13 0 20 5.5t6 16.5q-3 12 -14 19t-40 18q16 42 27 63h-11v613h-219v96h546v-96h-218v-613h-18q5 -22 0 -52z" />
    <glyph glyph-name="uni0163" unicode="&#x163;" horiz-adv-x="403" 
d="M284 -60q43 -32 38 -75q-14 -70 -111 -70q-49 0 -86 15l15 72q22 -10 58 -11q34 -2 37 20q-1 15 -22 24l-36 14q3 9 12 29.5l12 27.5q-80 14 -106 69.5t-26 170.5v454h105v-152h199v-91h-199v-242q0 -60 17 -87.5t53 -31.5q9 -1 29 -1q52 2 102 27l20 -88
q-49 -27 -114 -31q8 -21 3 -43z" />
    <glyph glyph-name="Tcaron" unicode="&#x164;" horiz-adv-x="566" 
d="M479 610h-175v-614h-108v614h-176v84h459v-84zM144 968l104 -92l105 92l46 -53l-151 -154l-150 154z" />
    <glyph glyph-name="tcaron" unicode="&#x165;" horiz-adv-x="428" 
d="M183 689v-164h183v-85h-183v-243q0 -72 21.5 -97.5t67.5 -25.5q51 0 97 25q2 -14 8 -41.5t8 -41.5q-52 -30 -122 -31q-58 -1 -96.5 14.5t-58 50t-26.5 75t-7 99.5h-8v66l8 178v199zM242 800h103l-31 -210h-72v210z" />
    <glyph glyph-name="Tbar" unicode="&#x166;" horiz-adv-x="566" 
d="M10 701h546v-96h-218v-215h129v-87h-129v-311h-109v311h-129v87h129v215h-219v96z" />
    <glyph glyph-name="tbar" unicode="&#x167;" horiz-adv-x="403" 
d="M174 691v-163h199v-91h-199v-124h195v-81h-195q2 -38 15 -57q2 -60 23 -80t64 -19q49 1 99 26l20 -88q-61 -34 -139 -34q-104 0 -145.5 53.5t-41.5 165.5v474z" />
    <glyph glyph-name="Utilde" unicode="&#x168;" horiz-adv-x="688" 
d="M564 228q0 -109 -63.5 -177t-182.5 -68q-104 0 -166.5 54.5t-72.5 144.5q-5 38 -5 95v417h108v-404q0 -111 31 -164t108 -53q55 0 91 32t43 93q5 47 5 93v403h104v-466zM382 762q-28 0 -72 18.5t-55 18.5q-26 0 -51 -48l-62 35q15 38 44 68t69 30q31 0 73.5 -19t53.5 -19
q26 0 51 49l61 -36q-18 -36 -47.5 -66.5t-64.5 -30.5z" />
    <glyph glyph-name="utilde" unicode="&#x169;" horiz-adv-x="575" 
d="M482 25q-72 -39 -205 -39q-118 0 -163.5 60.5t-45.5 178.5v308h103v-281q0 -97 21.5 -140.5t92.5 -43.5q64 0 94 15v450h103v-508zM342 594q-28 0 -72 18.5t-55 18.5q-26 0 -51 -48l-62 35q15 38 44 68t69 30q31 0 73.5 -19t53.5 -19q26 0 51 49l61 -36
q-18 -36 -47.5 -66.5t-64.5 -30.5z" />
    <glyph glyph-name="Umacron" unicode="&#x16a;" horiz-adv-x="688" 
d="M564 228q0 -109 -63.5 -177t-182.5 -68q-104 0 -166.5 54.5t-72.5 144.5q-5 38 -5 95v417h108v-404q0 -111 31 -164t108 -53q55 0 91 32t43 93q5 47 5 93v403h104v-466zM472 788h-298v85h298v-85z" />
    <glyph glyph-name="umacron" unicode="&#x16b;" horiz-adv-x="575" 
d="M482 25q-72 -39 -205 -39q-118 0 -163.5 60.5t-45.5 178.5v308h103v-281q0 -97 21.5 -140.5t92.5 -43.5q64 0 94 15v450h103v-508zM431 621h-298v85h298v-85z" />
    <glyph glyph-name="Ubreve" unicode="&#x16c;" horiz-adv-x="688" 
d="M564 228q0 -109 -63.5 -177t-182.5 -68q-104 0 -166.5 54.5t-72.5 144.5q-5 38 -5 95v417h108v-404q0 -111 31 -164t108 -53q55 0 91 32t43 93q5 47 5 93v403h104v-466zM324 760q-65 0 -105 41.5t-37 117.5h76q3 -75 66 -75t66 75h75q0 -78 -38 -118.5t-103 -40.5z" />
    <glyph glyph-name="ubreve" unicode="&#x16d;" horiz-adv-x="575" 
d="M482 25q-72 -39 -205 -39q-118 0 -163.5 60.5t-45.5 178.5v308h103v-281q0 -97 21.5 -140.5t92.5 -43.5q64 0 94 15v450h103v-508zM284 592q-65 0 -105 41.5t-37 117.5h76q3 -75 66 -75t66 75h75q0 -78 -38 -118.5t-103 -40.5z" />
    <glyph glyph-name="Uring" unicode="&#x16e;" horiz-adv-x="688" 
d="M564 228q0 -109 -63.5 -177t-182.5 -68q-104 0 -166.5 54.5t-72.5 144.5q-5 38 -5 95v417h108v-404q0 -111 31 -164t108 -53q55 0 91 32t43 93q5 47 5 93v403h104v-466zM434 863q0 -49 -32 -79t-79 -30q-46 0 -78 29.5t-32 79.5q0 49 32 79t78 30t78.5 -30t32.5 -79z
M369 863q0 22 -13 35t-33 13q-19 0 -32 -13t-13 -35t12.5 -34.5t32.5 -12.5t33 12.5t13 34.5z" />
    <glyph glyph-name="uring" unicode="&#x16f;" horiz-adv-x="575" 
d="M482 25q-72 -39 -205 -39q-118 0 -163.5 60.5t-45.5 178.5v308h103v-281q0 -97 21.5 -140.5t92.5 -43.5q64 0 94 15v450h103v-508zM394 696q0 -49 -32 -79t-79 -30q-46 0 -78 29.5t-32 79.5q0 49 32 79t78 30t78.5 -30t32.5 -79zM329 696q0 22 -13 35t-33 13
q-19 0 -32 -13t-13 -35t12.5 -34.5t32.5 -12.5t33 12.5t13 34.5z" />
    <glyph glyph-name="Uhungarumlaut" unicode="&#x170;" horiz-adv-x="688" 
d="M564 228q0 -109 -63.5 -177t-182.5 -68q-104 0 -166.5 54.5t-72.5 144.5q-5 38 -5 95v417h108v-404q0 -111 31 -164t108 -53q55 0 91 32t43 93q5 47 5 93v403h104v-466zM364 776l129 179l71 -61l-142 -163zM387 895l-140 -164l-57 45l127 180z" />
    <glyph glyph-name="uhungarumlaut" unicode="&#x171;" horiz-adv-x="575" 
d="M482 25q-72 -39 -205 -39q-118 0 -163.5 60.5t-45.5 178.5v308h103v-281q0 -97 21.5 -140.5t92.5 -43.5q64 0 94 15v450h103v-508zM300 632l129 179l71 -61l-142 -163zM323 751l-140 -164l-57 45l127 180z" />
    <glyph glyph-name="Uogonek" unicode="&#x172;" horiz-adv-x="688" 
d="M339 -21q-12 0 -34 4q-119 9 -175 83t-56 192v443h109v-432q0 -98 43 -146t118 -48q74 0 117 48t43 146v432h110v-443q0 -177 -116 -245q-41 -23 -74.5 -53t-34.5 -56q1 -24 36 -24q21 2 43 9l9 -79q-37 -14 -76 -14q-114 0 -114 84q0 49 52 99z" />
    <glyph glyph-name="uogonek" unicode="&#x173;" horiz-adv-x="575" 
d="M380 -11q-52 -8 -92 -8q-120 0 -170.5 64.5t-50.5 183.5v299h106v-279q0 -95 28 -134t97 -39q68 0 98 10v442h105v-519q-2 -2 -42 -39q1 0 1 0.5t1 0.5q-45 -45 -46 -66q2 -26 36 -24q21 2 43 9l9 -79q-33 -14 -76 -14q-103 0 -111 70q-3 23 5 47q12 35 59 75z" />
    <glyph glyph-name="Wcircumflex" unicode="&#x174;" horiz-adv-x="929" 
d="M848 694q-80 -396 -166 -698h-99l-126 415q-5 18 -11 44.5t-8 32.5q-3 -5 -5.5 -16.5t-7 -29.5l-7.5 -31q-26 -94 -127 -415h-98q-83 286 -166 698h111q44 -240 90 -452q17 -83 24 -105q5 4 27 90l119 427h86q60 -237 117 -425q4 -13 10 -34.5t10.5 -35.5t7.5 -22
q1 1 15 71q47 205 100 486h104zM440 834l-104 -92l-47 53l151 155l150 -155l-46 -53z" />
    <glyph glyph-name="wcircumflex" unicode="&#x175;" horiz-adv-x="778" 
d="M758 533q-70 -268 -165 -537h-89q-67 204 -100 324q-5 15 -9 37t-5 25q-60 -216 -115 -386h-90q-90 254 -165 537h107q37 -166 94 -358q3 -11 6 -25.5l4.5 -22t3.5 -10.5l13 48q93 330 103 368h86q22 -102 98 -368l5 -18l5 -18.5t4 -10.5q1 1 3 9.5l5.5 22.5l6.5 25
q48 154 95 358h99zM390 667l-104 -92l-47 53l151 155l150 -155l-46 -53z" />
    <glyph glyph-name="Ycircumflex" unicode="&#x176;" horiz-adv-x="595" 
d="M546 694q-125 -242 -217 -404v-294h-107v293q-115 202 -218 405h120q76 -169 155 -312q74 136 157 312h110zM280 834l-104 -92l-47 53l151 155l150 -155l-46 -53z" />
    <glyph glyph-name="ycircumflex" unicode="&#x177;" horiz-adv-x="507" 
d="M483 533q-92 -326 -188 -582q-26 -63 -52.5 -92.5t-69.5 -29.5q-44 0 -103 28l20 68q46 -23 60 -23q17 0 30 15.5t19 32.5t13 41q1 5 2 8q-115 271 -192 534h109q41 -162 107 -350l9.5 -30.5l9 -29.5t6.5 -18q2 2 5.5 14.5t8 32.5t8.5 31q46 147 98 350h100zM253 667
l-104 -92l-47 53l151 155l150 -155l-46 -53z" />
    <glyph glyph-name="Ydieresis" unicode="&#x178;" horiz-adv-x="595" 
d="M546 694q-125 -242 -217 -404v-294h-107v293q-115 202 -218 405h120q76 -169 155 -312q74 136 157 312h110zM242 837q0 -29 -18 -46.5t-46 -17.5q-27 0 -45 17.5t-18 46.5t18 46.5t45 17.5q28 0 46 -17.5t18 -46.5zM439 837q0 -29 -18 -46.5t-45 -17.5q-28 0 -45.5 17.5
t-17.5 46.5t18 46.5t45 17.5t45 -17.5t18 -46.5z" />
    <glyph glyph-name="Zacute" unicode="&#x179;" horiz-adv-x="574" 
d="M476 -4h-450v77q26 57 71 139l73.5 130l92 152l70.5 116h-290v84h426v-70q-22 -41 -141 -241.5t-168 -302.5h316v-84zM295 773h-66l85 189h131z" />
    <glyph glyph-name="zacute" unicode="&#x17a;" horiz-adv-x="468" 
d="M411 -4h-382v63q28 53 70.5 123.5l98.5 158.5l72 114h-225v78h359v-60l-56 -85q-119 -177 -192 -315h255v-77zM263 605h-66l85 189h131z" />
    <glyph glyph-name="Zdotaccent" unicode="&#x17b;" horiz-adv-x="574" 
d="M476 -4h-450v77q26 57 71 139l73.5 130l92 152l70.5 116h-290v84h426v-70q-22 -41 -141 -241.5t-168 -302.5h316v-84zM260 762q-28 0 -46.5 18.5t-18.5 47.5q0 30 18.5 48.5t46.5 18.5t46.5 -18.5t18.5 -48.5q0 -29 -18.5 -47.5t-46.5 -18.5z" />
    <glyph glyph-name="zdotaccent" unicode="&#x17c;" horiz-adv-x="468" 
d="M411 -4h-382v63q28 53 70.5 123.5l98.5 158.5l72 114h-225v78h359v-60l-56 -85q-119 -177 -192 -315h255v-77zM228 595q-28 0 -46.5 18.5t-18.5 47.5q0 30 18.5 48.5t46.5 18.5t46.5 -18.5t18.5 -48.5q0 -29 -18.5 -47.5t-46.5 -18.5z" />
    <glyph glyph-name="Zcaron" unicode="&#x17d;" horiz-adv-x="574" 
d="M476 -4h-450v77q26 57 71 139l73.5 130l92 152l70.5 116h-290v84h426v-70q-22 -41 -141 -241.5t-168 -302.5h316v-84zM157 968l104 -92l105 92l46 -53l-151 -154l-150 154z" />
    <glyph glyph-name="zcaron" unicode="&#x17e;" horiz-adv-x="468" 
d="M411 -4h-382v63q28 53 70.5 123.5l98.5 158.5l72 114h-225v78h359v-60l-56 -85q-119 -177 -192 -315h255v-77zM125 801l104 -92l105 92l46 -53l-151 -154l-150 154z" />
    <glyph glyph-name="longs" unicode="&#x17f;" horiz-adv-x="270" 
d="M178 566v-574h-105v576q0 216 209 216q77 0 121 -23l-22 -90q-46 20 -92 20q-60 0 -85.5 -30t-25.5 -95z" />
    <glyph glyph-name="uni0180" unicode="&#x180;" 
d="M178 786v-95h180v-80h-180v-109q59 33 126 33q113 0 177 -77t64 -201q0 -127 -73 -202.5t-195 -75.5q-107 0 -204 31v601h-75v80h75v77zM178 405v-320q31 -11 98 -11q74 0 117 49t43 136q0 82 -35 131.5t-109 49.5q-59 0 -114 -35z" />
    <glyph glyph-name="uni0181" unicode="&#x181;" horiz-adv-x="740" 
d="M363 708q281 0 296 -171q3 -32 -6 -71q-20 -65 -81 -94q124 -39 124 -173q0 -214 -327 -214q-107 0 -192 21v599q-73 -6 -73 -78q0 -20 6 -43l-90 -12q-10 42 -10 65q0 45 18.5 77t48 50t78 28t95 13t113.5 3zM408 315h-123v-231q47 -5 91 -5q207 0 207 122
q0 63 -44 88.5t-131 25.5zM376 614q-67 0 -91 -2v-205h76q37 0 61.5 1.5t51.5 7.5t42.5 17.5t25.5 31t10 47.5q0 102 -176 102z" />
    <glyph glyph-name="uni0182" unicode="&#x182;" horiz-adv-x="623" 
d="M253 344h-67v-257q52 -5 88 -5q198 0 198 130q0 76 -54.5 104t-164.5 28zM186 439h75q159 0 241 -53.5t82 -172.5q0 -228 -314 -228q-103 0 -191 22v694h442v-96h-335v-166z" />
    <glyph glyph-name="uni0183" unicode="&#x183;" 
d="M178 688v-185q59 33 126 33q113 0 177 -77t64 -201q0 -129 -72.5 -204t-195.5 -75q-107 0 -204 31v769h415v-91h-310zM178 405v-320q31 -11 98 -11q74 0 117 49t43 136q0 83 -34.5 132.5t-109.5 49.5q-61 0 -114 -36z" />
    <glyph glyph-name="uni0184" unicode="&#x184;" 
d="M178 787v-281q59 33 126 33q113 0 177 -77t64 -203q0 -129 -72.5 -204.5t-195.5 -75.5q-107 0 -204 31v621l-74 81q85 50 179 75zM178 409v-324q31 -11 98 -11q74 0 117 49.5t43 137.5q0 84 -34.5 133.5t-109.5 49.5q-59 0 -114 -35z" />
    <glyph glyph-name="uni0185" unicode="&#x185;" horiz-adv-x="613" 
d="M272 352q-47 0 -81 -4v-262q39 -5 96 -4q87 1 136.5 30.5t49.5 104.5t-52.5 105t-148.5 30zM191 710v-267q36 4 79 4q315 0 315 -230q0 -231 -311 -231q-107 0 -191 21v547l-77 80q93 53 185 76z" />
    <glyph glyph-name="uni0186" unicode="&#x186;" horiz-adv-x="616" 
d="M222 76q112 0 171 71.5t59 198.5q0 126 -58.5 198.5t-168.5 72.5q-101 0 -178 -41l-31 91q30 19 88 34.5t131 15.5q150 0 240.5 -98t90.5 -272q0 -175 -94 -272.5t-246 -97.5q-116 0 -207 49l32 92q80 -42 171 -42z" />
    <glyph glyph-name="uni0187" unicode="&#x187;" horiz-adv-x="659" 
d="M397 617q-110 0 -171.5 -72t-61.5 -198q0 -125 58.5 -198t168.5 -73q103 0 182 42l31 -93q-27 -18 -86.5 -33t-134.5 -15q-151 0 -242 97.5t-91 272.5q0 171 97.5 270.5t240.5 99.5q69 0 121 -21q32 97 136 97q44 0 78 -17l-22 -83q-27 11 -51 11q-29 0 -43 -16t-23 -47
l-19 -66q-84 42 -168 42z" />
    <glyph glyph-name="uni0188" unicode="&#x188;" horiz-adv-x="506" 
d="M363 535q25 79 96 92q21 4 47 3q39 -3 62 -14l-22 -82q-24 11 -49 11q-15 0 -27 -6.5t-19 -15t-12.5 -23.5t-7.5 -25t-5 -28l-4 -24q-52 22 -115 22q-76 0 -115 -48.5t-39 -137.5q0 -184 164 -184q62 0 120 27l19 -91q-64 -31 -151 -31q-128 0 -194.5 75.5t-66.5 203.5
q0 125 69 203t186 78q34 0 64 -5z" />
    <glyph glyph-name="uni0189" unicode="&#x189;" horiz-adv-x="725" 
d="M675 347q0 -177 -106.5 -269.5t-288.5 -92.5q-105 0 -188 19v313h-80v89h80v282q86 20 190 20q181 0 287 -91.5t106 -269.5zM201 317v-230q45 -5 87 -5q134 0 203.5 70t69.5 195q0 126 -68.5 195t-202.5 69q-39 0 -89 -5v-200h131v-89h-131z" />
    <glyph glyph-name="uni018A" unicode="&#x18a;" horiz-adv-x="810" 
d="M366 708q181 0 287.5 -91.5t106.5 -269.5q0 -177 -106.5 -269.5t-288.5 -92.5q-107 0 -188 19v601q-73 -6 -73 -78q0 -20 6 -43l-90 -12q-10 42 -10 65q0 38 12.5 67t38 47.5t55 30t74 17t83 7.5t93.5 2zM372 611q-76 0 -86 -1v-523q45 -5 87 -5q134 0 203.5 70t69.5 195
q0 126 -69 195t-205 69z" />
    <glyph glyph-name="uni018B" unicode="&#x18b;" horiz-adv-x="623" 
d="M436 344h-35q-51 0 -85 -2.5t-68 -10t-53.5 -21.5t-31.5 -38.5t-12 -59.5q0 -128 187 -130q54 -2 98 4v258zM362 439h74v166h-334v96h442v-695q-84 -21 -191 -21q-314 0 -314 228q0 120 82 173t241 53z" />
    <glyph glyph-name="uni018C" unicode="&#x18c;" 
d="M410 503v185h-309v91h415v-769q-97 -31 -204 -31q-123 0 -195.5 75t-72.5 204q0 124 64 201t177 77q68 0 125 -33zM410 85v320q-50 36 -113 36q-75 0 -109.5 -49.5t-34.5 -132.5q0 -87 43 -136t117 -49q68 0 97 11z" />
    <glyph glyph-name="uni018D" unicode="&#x18d;" horiz-adv-x="578" 
d="M535 292q0 -75 -43.5 -138.5t-113.5 -96.5q55 -37 67 -82q6 -24 3 -52q-4 -61 -58.5 -89t-133.5 -28q-98 0 -164 30l23 87q50 -24 124 -26q40 0 57 3q50 11 50 42q0 30 -44 55q-13 7 -61 30q-46 24 -76.5 44t-61 50.5t-45.5 71.5t-15 93q0 110 63.5 182.5t182.5 72.5
t182.5 -73t63.5 -176zM296 107q57 26 93.5 73t36.5 109q0 67 -33.5 112t-103.5 45q-67 0 -102 -41.5t-35 -116.5q0 -39 12 -69t36.5 -51.5t43.5 -33t52 -27.5z" />
    <glyph glyph-name="uni018E" unicode="&#x18e;" horiz-adv-x="569" 
d="M490 -8h-461v96h352v228h-291v95h291v194h-326v96h435v-709z" />
    <glyph glyph-name="uni018F" unicode="&#x18f;" horiz-adv-x="704" 
d="M537 285h-374q3 -96 47.5 -153.5t127.5 -57.5q91 0 140.5 62t58.5 149zM54 379h485q-7 118 -65.5 178.5t-161.5 60.5q-54 0 -105.5 -14t-81.5 -34l-32 91q87 56 223 56q159 0 248.5 -98t89.5 -268q0 -181 -89 -277.5t-229 -96.5q-138 0 -212.5 90t-74.5 265q0 25 5 47z
" />
    <glyph glyph-name="uni0190" unicode="&#x190;" horiz-adv-x="570" 
d="M322 620q-76 0 -106 -35q-27 -36 -1 -76q0 -51 40.5 -73.5t96.5 -22.5h80v-95h-67q-65 0 -107.5 -9t-71 -38t-28.5 -78q0 -101 127 -116q30 -3 61 -2q94 4 170 47l35 -92q-96 -53 -222 -53q-285 0 -285 215q0 74 41 119.5t106 63.5q-90 31 -110 114q-6 29 -5 54
q7 86 72.5 129.5t172.5 43.5q122 0 207 -53l-37 -91q-76 48 -169 48z" />
    <glyph glyph-name="uni0191" unicode="&#x191;" horiz-adv-x="535" 
d="M188 310v-221q0 -132 -12 -179q-25 -96 -123 -104q-10 -1 -21 -1q-38 0 -73 13l15 89q22 -9 48 -9q17 0 28 6t17 14t8.5 28t3 35t0.5 48v9v663h431v-96h-322v-199h286v-96h-286z" />
    <glyph glyph-name="florin" unicode="&#x192;" horiz-adv-x="389" 
d="M178 437v-381q0 -119 -29 -176t-106 -70q-30 -6 -59 -3q-34 2 -59 12l15 89q30 -10 53 -10q46 0 63 26t17 84v514q0 42 2 63q8 199 207 199q77 0 121 -23l-22 -90q-46 20 -92 20q-68 0 -89 -36t-22 -127h202v-91h-202z" />
    <glyph glyph-name="uni0193" unicode="&#x193;" horiz-adv-x="681" 
d="M391 717q68 0 127 -21q16 52 48.5 74t89.5 22q44 0 78 -16l-23 -83q-27 11 -51 11q-29 0 -42.5 -16t-23.5 -48q-2 -6 -6 -20l-22 -41q-70 39 -165 39q-110 0 -173.5 -70.5t-63.5 -200.5q0 -127 59 -199.5t171 -72.5q72 0 108 12v260h110v-332q-85 -37 -229 -37
q-148 0 -240.5 98t-92.5 271q0 172 97.5 271t243.5 99z" />
    <glyph glyph-name="uni0194" unicode="&#x194;" horiz-adv-x="651" 
d="M326 80q-52 -78 -52 -126q0 -23 13 -39t39 -16q25 0 38 15.5t13 39.5q0 44 -51 126zM386 161l14 -22l40 -69t24 -55t13 -65q0 -56 -35.5 -99.5t-115.5 -43.5q-78 0 -114 43.5t-36 99.5q0 41 19.5 83t58.5 106h-1l12 19q-118 204 -268 543h120q120 -276 210 -444
q88 165 210 444h117q-109 -262 -268 -540z" />
    <glyph glyph-name="uni0195" unicode="&#x195;" horiz-adv-x="883" 
d="M494 290v-58q0 -84 26 -120t83 -36q56 0 81.5 36t25.5 120v296h106v-305q0 -118 -49.5 -180.5t-163.5 -62.5q-115 0 -164.5 62.5t-49.5 180.5v47q0 97 -23.5 135.5t-90.5 38.5q-43 0 -97 -18v-434h-105v776l105 18v-267q53 19 108 19q117 0 162.5 -63.5t45.5 -184.5z" />
    <glyph glyph-name="uni0196" unicode="&#x196;" horiz-adv-x="382" 
d="M77 179v522h110v-523q0 -60 20.5 -82.5t64.5 -22.5t84 18l21 -90q-53 -24 -118 -24q-96 0 -139 47.5t-43 154.5z" />
    <glyph glyph-name="uni0197" unicode="&#x197;" horiz-adv-x="323" 
d="M216 -8h-109v325h-98v87h98v297h109v-297h98v-87h-98v-325z" />
    <glyph glyph-name="uni0198" unicode="&#x198;" horiz-adv-x="663" 
d="M388 636q35 39 68 59t79 20q63 0 120 -55l-52 -77q-36 36 -67 36t-72 -42q-84 -86 -183 -205q87 -58 190 -171t157 -209h-122q-69 93 -155 182t-163 137v-319h-109v709h109v-294q107 129 159 185z" />
    <glyph glyph-name="uni0199" unicode="&#x199;" horiz-adv-x="519" 
d="M73 -8v616q0 89 31.5 132.5t119.5 43.5q39 0 70 -12l-14 -84q-24 8 -46 8q-38 0 -47 -26.5t-9 -101.5v-248q124 122 197 208h128q-142 -153 -233 -243q61 -46 133 -132t114 -161h-122q-41 67 -102 133.5t-115 106.5v-240h-105z" />
    <glyph glyph-name="uni019A" unicode="&#x19a;" horiz-adv-x="284" 
d="M269 71l-15 -89q-81 3 -120.5 32t-44.5 96q-5 47 -5 87v164h-77v82h77v325l106 18v-343h92v-82h-92v-214q0 -41 16.5 -56t62.5 -20z" />
    <glyph glyph-name="uni019B" unicode="&#x19b;" horiz-adv-x="507" 
d="M266 403q-100 -198 -152 -411h-108q29 113 86 255.5t120 260.5l-5 25.5l-6 31.5q-19 -6 -56 -19.5t-54 -18.5l-28 77q13 4 38.5 12.5t38.5 12.5q-18 44 -35.5 64t-46.5 28q-27 9 -31 11q12 25 32 46q16 6 44 6q60 0 97 -28.5t65 -81.5l125 43l28 -77l-119 -41
q107 -265 204 -607h-111q-53 207 -126 411z" />
    <glyph glyph-name="uni019C" unicode="&#x19c;" horiz-adv-x="970" 
d="M493 40q-93 -63 -186 -63q-133 0 -183 71.5t-50 209.5v443h109v-415q0 -116 27 -164t104 -48q73 0 130 49q-16 50 -16 138v440h109v-424q0 -109 27.5 -156t102.5 -47q67 0 115 15v612h109v-689q-114 -35 -229 -35q-110 0 -169 63z" />
    <glyph glyph-name="uni019D" unicode="&#x19d;" horiz-adv-x="722" 
d="M187 524v-465q0 -38 -0.5 -59t-3.5 -52t-8.5 -48.5t-17 -38t-27.5 -31t-40.5 -18t-56.5 -7.5q-39 0 -74 13l15 89q22 -9 48 -9q31 0 44 19.5t13 61.5v722h86q88 -96 196.5 -243.5t173.5 -257.5v501h108v-709h-86l-36 53q-69 116 -165.5 254.5t-168.5 224.5z" />
    <glyph glyph-name="uni019E" unicode="&#x19e;" horiz-adv-x="581" 
d="M73 -8v510q67 36 214 36q120 0 170 -64t50 -183v-484h-105v464q0 95 -27.5 134t-97.5 39q-58 0 -99 -11v-441h-105z" />
    <glyph glyph-name="uni019F" unicode="&#x19f;" horiz-adv-x="778" 
d="M728 347q0 -176 -96 -273t-243 -97q-145 0 -242 97.5t-97 272.5t97.5 272.5t241.5 97.5q146 0 242.5 -97.5t96.5 -272.5zM389 76q94 0 153.5 61.5t67.5 167.5h-443q9 -107 68.5 -168t153.5 -61zM389 618q-93 0 -152 -59.5t-69 -164.5h442q-11 105 -69 164.5t-152 59.5z
" />
    <glyph glyph-name="Ohorn" unicode="&#x1a0;" horiz-adv-x="778" 
d="M728 347q0 -176 -96 -273t-243 -97q-145 0 -242 97.5t-97 272.5t97.5 272.5t241.5 97.5q113 0 195 -61q39 40 39 105q0 21 -3 48h101q4 -23 4 -43q0 -110 -72 -173q75 -97 75 -246zM615 347q0 126 -61 198.5t-165 72.5t-164.5 -73t-60.5 -198t60.5 -198t164.5 -73t165 73
t61 198z" />
    <glyph glyph-name="ohorn" unicode="&#x1a1;" horiz-adv-x="593" 
d="M545 260q0 -126 -69.5 -203.5t-180.5 -77.5q-112 0 -181.5 77.5t-69.5 203.5q0 125 70.5 202.5t180.5 77.5q89 0 153 -55q38 42 38 104q0 22 -3 46h98q0 -3 4 -35q0 -23 -3 -44q-9 -83 -75 -139q38 -65 38 -157zM436 260q0 85 -37.5 135t-103.5 50t-104 -50t-38 -135
q0 -86 38 -136t104 -50t103.5 50t37.5 136z" />
    <glyph glyph-name="uni01A2" unicode="&#x1a2;" horiz-adv-x="1022" 
d="M376 717q110 0 195 -65q80 64 168 64q63 0 104 -18t62.5 -55.5t29.5 -83t8 -111.5v-456h-109v451q0 97 -22 136.5t-82 39.5q-45 0 -95 -38q67 -93 67 -234q0 -175 -93.5 -272.5t-232.5 -97.5q-138 0 -232 98t-94 272t94.5 272t231.5 98zM376 76q98 0 155.5 73t57.5 198
q0 126 -57.5 198.5t-155.5 72.5t-155 -73t-57 -198t57 -198t155 -73z" />
    <glyph glyph-name="uni01A3" unicode="&#x1a3;" horiz-adv-x="819" 
d="M534 260q0 -126 -68 -203.5t-177 -77.5t-177 77.5t-68 203.5q0 125 69 202.5t176 77.5q83 0 143 -47q63 46 134 46q58 0 95.5 -17t56.5 -51.5t26 -74.5t7 -99v-490h-105v482q0 82 -18 119.5t-68 37.5q-37 0 -68 -25q42 -68 42 -161zM425 260q0 85 -36.5 135t-99.5 50
q-65 0 -100.5 -49.5t-35.5 -135.5t36.5 -136t99.5 -50t99.5 50t36.5 136z" />
    <glyph glyph-name="uni01A4" unicode="&#x1a4;" horiz-adv-x="705" 
d="M365 708q312 0 312 -228q0 -121 -81 -175.5t-237 -54.5h-73v-258h-109v613q-73 -7 -73 -78q0 -20 6 -43l-90 -12q-10 42 -10 65q0 38 12.5 66.5t38 47t55 30.5t73.5 17.5t83 7.5t93 2zM371 611q-75 0 -85 -1v-264h67q107 0 159 29t52 106q0 130 -193 130z" />
    <glyph glyph-name="uni01A5" unicode="&#x1a5;" 
d="M178 617v-97q54 18 104 18q119 0 191 -75.5t72 -203.5q0 -126 -64 -202.5t-177 -76.5q-67 0 -126 33v-206h-105v801q0 83 26.5 126.5t100.5 47.5q15 2 46 0q29 -2 48 -10l-14 -84q-24 8 -46 8q-30 0 -43 -19t-13 -60zM178 427v-317q55 -35 114 -35q75 0 109.5 49.5
t34.5 133.5q0 87 -43 136.5t-116 49.5q-48 0 -99 -17z" />
    <glyph glyph-name="uni01A6" unicode="&#x1a6;" horiz-adv-x="632" 
d="M79 784h109v-83q48 5 84 5q303 0 303 -224q0 -142 -139 -192q50 -67 118.5 -179t118.5 -228h-119q-99 213 -230 383q-34 -2 -51 -2h-85v-272h-109v792zM274 609q-48 0 -86 -4v-248h38q49 0 76.5 1.5t62.5 8t53 19.5t31 37t13 60q0 71 -50.5 98.5t-137.5 27.5z" />
    <glyph glyph-name="uni01A7" unicode="&#x1a7;" horiz-adv-x="535" 
d="M288 73q97 0 189 50l33 -93q-89 -53 -223 -53q-125 0 -191.5 51t-66.5 150q0 39 11 70.5t27 52.5t46 40.5t56 31.5t70 29q40 16 58 24t41.5 23.5t32.5 34t9 43.5q0 93 -129 93q-90 0 -162 -46l-36 92q84 51 200 51q113 0 176 -51.5t63 -145.5q0 -80 -47.5 -124.5
t-144.5 -81.5q-91 -35 -116 -54q-42 -32 -42 -85q0 -102 146 -102z" />
    <glyph glyph-name="uni01A8" unicode="&#x1a8;" horiz-adv-x="444" 
d="M244 71q76 0 147 34l22 -92q-71 -34 -170 -34q-103 0 -157 39.5t-54 115.5q0 67 39.5 102t124.5 69q59 24 80 39.5t21 45.5t-24.5 44.5t-64.5 14.5q-67 0 -131 -28l-21 91q69 28 155 28q91 0 141.5 -41t50.5 -113q0 -35 -11 -61t-35.5 -45.5t-46.5 -30.5t-60 -27
q-69 -28 -91 -43.5t-22 -46.5q0 -61 107 -61z" />
    <glyph glyph-name="uni01A9" unicode="&#x1a9;" horiz-adv-x="564" 
d="M386 360q-15 -19 -102.5 -120t-122.5 -152h371v-96h-504v83q38 56 139 176l39 47l51 62l-110.5 134.5t-105.5 132.5v74h489v-96h-340q20 -29 94 -119z" />
    <glyph glyph-name="uni01AA" unicode="&#x1aa;" horiz-adv-x="332" 
d="M154 -40v550q-32 -28 -78 -28q-61 0 -101.5 41.5t-40.5 108.5q0 72 44.5 113t112.5 41q46 0 78.5 -15t50 -36.5t26.5 -59t11 -68t2 -77.5v-560q0 -41 16.5 -56t62.5 -20q-1 -6 -4.5 -28.5t-7.5 -36.5t-10 -24q-88 3 -125 38.5t-37 116.5zM90 570q31 0 64 36v17
q0 74 -65 74q-29 0 -43.5 -17.5t-14.5 -45.5q0 -29 15 -46.5t44 -17.5z" />
    <glyph glyph-name="uni01AB" unicode="&#x1ab;" horiz-adv-x="403" 
d="M266 76q69 0 115 16q9 -59 9 -117q0 -84 -32 -127t-114 -43q-37 0 -72 13l15 84q23 -8 48 -8q29 0 41 15.5t13 51.5q1 11 1 27q-37 -4 -62 -3q-96 5 -127.5 62.5t-31.5 186.5v439l105 18v-163h199v-91h-199v-242q0 -69 22 -94t70 -25z" />
    <glyph glyph-name="uni01AC" unicode="&#x1ac;" horiz-adv-x="588" 
d="M251 605h-63q-83 0 -83 -80q0 -20 6 -42l-91 -12q-10 40 -10 65q0 31 6.5 55t18.5 41t29 29.5t37.5 19.5t44 12t49 6l52.5 2t54 0h28h249v-96h-218v-613h-109v613z" />
    <glyph glyph-name="uni01AD" unicode="&#x1ad;" horiz-adv-x="403" 
d="M174 528h202v-91h-202v-242q0 -97 52 -113q21 -8 50 -6q50 1 100 26l21 -88q-68 -34 -140 -34q-104 0 -146 53.5t-42 165.5v369q0 216 208 216q79 0 120 -23l-21 -90q-44 20 -92 20q-68 0 -89 -36t-21 -127z" />
    <glyph glyph-name="uni01AE" unicode="&#x1ae;" horiz-adv-x="566" 
d="M338 605v-626q0 -42 13 -61.5t44 -19.5q26 0 48 9l15 -89q-35 -13 -73 -13q-88 0 -122 45.5t-34 135.5v619h-219v96h546v-96h-218z" />
    <glyph glyph-name="Uhorn" unicode="&#x1af;" horiz-adv-x="708" 
d="M504 701h71q61 0 61 62q0 13 -3 46h100q4 -32 4 -43q0 -55 -28 -96t-95 -49v-363q0 -128 -66 -204.5t-205 -76.5q-138 0 -203.5 76.5t-65.5 204.5v443h109v-411q0 -215 161 -215q75 0 117.5 48t42.5 146v432z" />
    <glyph glyph-name="uhorn" unicode="&#x1b0;" horiz-adv-x="596" 
d="M501 450v-438q-100 -31 -213 -31q-120 0 -170.5 64.5t-50.5 183.5v299h106v-279q0 -95 28 -134t97 -39q68 0 98 10v442h75q55 0 55 61q0 23 -3 46h96q5 -25 5 -44q0 -53 -29.5 -93.5t-93.5 -47.5z" />
    <glyph glyph-name="uni01B1" unicode="&#x1b1;" horiz-adv-x="778" 
d="M389 -23q-143 0 -237 91t-94 255q0 167 119 284h-135v94h284v-76q-155 -122 -155 -302q0 -115 59.5 -181.5t158.5 -66.5t158.5 66.5t59.5 181.5q0 180 -155 302v76h284v-94h-135q120 -122 120 -284q0 -164 -94 -255t-238 -91z" />
    <glyph glyph-name="uni01B2" unicode="&#x1b2;" horiz-adv-x="693" 
d="M633 357q0 -57 -8 -108t-28.5 -102t-53 -87.5t-86 -59.5t-121.5 -23q-134 0 -198 76.5t-64 203.5v444h109v-433q0 -97 41 -145t109 -48q189 0 189 274q0 134 -32 197t-104 63q-14 0 -44 -6l-10 93q34 8 70 8q231 0 231 -347z" />
    <glyph glyph-name="uni01B3" unicode="&#x1b3;" horiz-adv-x="671" 
d="M299 379q20 40 85 161q4 7 16.5 31t17.5 32.5l16.5 28t19.5 28t20 20t24.5 17.5t26.5 9q27 5 51 3q61 -2 111 -57l-51 -75q-35 37 -66 37q-18 0 -27.5 -7t-23.5 -29q-93 -156 -151 -270l-15 -71v-245h-110v285q-145 222 -248 424h126q78 -164 178 -322z" />
    <glyph glyph-name="uni01B4" unicode="&#x1b4;" horiz-adv-x="568" 
d="M443 388q-60 -220 -116 -368q-40 -103 -82.5 -152t-114.5 -59q-27 -5 -60 -3q-44 3 -77 19l20 87q38 -17 72 -17q47 0 76.5 23t51.5 79q-135 254 -207 531h112q47 -200 146 -411q37 116 74 254q8 31 11 41.5t11.5 34.5t14 32l16.5 23t23.5 20t30 10t39.5 5q39 0 91 -19
l-24 -85q-30 14 -53 14q-25 0 -36 -13t-19 -46z" />
    <glyph glyph-name="uni01B5" unicode="&#x1b5;" horiz-adv-x="574" 
d="M535 701v-86q-61 -68 -165 -210h144v-87h-209q-97 -140 -146 -230h386v-96h-516v73q55 105 154 253h-113v87h174q96 136 154 200h-351v96h488z" />
    <glyph glyph-name="uni01B6" unicode="&#x1b6;" horiz-adv-x="468" 
d="M432 528v-79q-37 -40 -115 -137h105v-80h-168q-44 -58 -99 -151h285v-89h-411v67q32 61 110 173h-80v80h140q55 75 98 126h-254v90h389z" />
    <glyph glyph-name="uni01B7" unicode="&#x1b7;" horiz-adv-x="564" 
d="M522 193q0 -111 -76.5 -163.5t-209.5 -52.5q-122 0 -221 54l35 93q91 -51 186 -51q172 0 172 121q0 72 -55 100.5t-151 28.5h-27v47l2 22q55 55 187 214h-315v95h458v-67q-54 -77 -199 -236q94 -13 154 -62t60 -143z" />
    <glyph glyph-name="uni01B8" unicode="&#x1b8;" horiz-adv-x="565" 
d="M42 193q0 94 59.5 143t154.5 63q-133 144 -198 236v66h457v-95h-312q97 -125 189 -216v-67h-29q-97 0 -152 -28.5t-55 -100.5q0 -121 172 -121q97 0 186 51l36 -92q-100 -55 -222 -55q-133 0 -209.5 52.5t-76.5 163.5z" />
    <glyph glyph-name="uni01B9" unicode="&#x1b9;" horiz-adv-x="475" 
d="M357 223v-71h-42q-175 0 -175 -123q0 -61 40 -94t118 -33q90 0 158 32l26 -89q-74 -38 -187 -38q-124 0 -193.5 56t-69.5 164q0 93 56 141t145 60q-115 134 -178 234v66h403v-91h-268q72 -108 167 -214z" />
    <glyph glyph-name="uni01BA" unicode="&#x1ba;" horiz-adv-x="470" 
d="M252 284q94 -16 137.5 -52t43.5 -105q0 -37 -12.5 -65.5t-29.5 -46t-51.5 -33t-60 -23t-73.5 -19.5q-39 -10 -56.5 -16t-32.5 -18.5t-15 -31.5q0 -24 16 -53l-89 -19q-25 36 -25 79q0 50 33 82t80 46.5t94 26.5t80 34t33 58q0 43 -43.5 62t-151.5 24v72q79 69 149 151
h-262v91h398v-73q-71 -91 -162 -171z" />
    <glyph glyph-name="uni01BB" unicode="&#x1bb;" horiz-adv-x="536" 
d="M465 520q0 -71 -65 -152h81v-87h-161q-6 -5 -25 -23l-25 -24l-22 -22t-22 -23l-17.5 -20.5t-16 -21.5l-11 -19.5t-9 -21.5t-2.5 -20h314v-94h-437q-3 16 -3 38q0 72 37.5 130t103.5 121h-108v87h194q82 80 82 147q0 55 -31 81t-84 26q-82 0 -157 -72l-55 76
q32 33 89.5 62t123.5 29q111 0 168.5 -52t57.5 -145z" />
    <glyph glyph-name="uni01BC" unicode="&#x1bc;" horiz-adv-x="544" 
d="M485 606h-268q-6 -126 -13 -175q159 -12 234 -70.5t75 -163.5q0 -101 -68 -160.5t-210 -59.5q-56 0 -115.5 15t-80.5 28l24 95q66 -35 151 -39q64 -2 101 12q85 23 85 107q0 74 -71 109.5t-237 35.5q19 154 24 266h-96v95h465v-95z" />
    <glyph glyph-name="uni01BD" unicode="&#x1bd;" horiz-adv-x="496" 
d="M460 150q0 -79 -59.5 -125t-177.5 -46q-54 0 -108.5 10.5t-77.5 23.5l22 92q63 -29 148 -31q35 -2 62 3q83 15 83 74q0 53 -44 73t-161 20h-65l10 94q8 96 8 100h-78v90h415v-90h-241q-8 -92 -10 -109q135 0 204.5 -41t69.5 -138z" />
    <glyph glyph-name="uni01BE" unicode="&#x1be;" horiz-adv-x="460" 
d="M369 437h-198q1 -11 5 -40q10 -37 39.5 -62.5t64.5 -40t68.5 -31.5t56 -49t22.5 -80q0 -76 -56 -115.5t-160 -39.5q-102 0 -173 34l23 92q65 -31 140 -33q31 0 61 5q59 12 59 55q0 30 -23.5 47.5t-92.5 45.5q-40 16 -60 27t-41.5 32.5t-30 55t-8.5 83.5v250l105 18v-163
h199v-91z" />
    <glyph glyph-name="uni01BF" unicode="&#x1bf;" horiz-adv-x="572" 
d="M277 538q120 0 185.5 -63t65.5 -177q0 -76 -27.5 -135t-80 -100t-109 -67.5t-133.5 -50.5v-138h-105v687q94 44 204 44zM276 443q-50 0 -98 -17v-380q38 13 65.5 24t62.5 32.5t57.5 45t38 60.5t16.5 81q1 30 -7 63q-11 43 -46.5 67t-88.5 24z" />
    <glyph glyph-name="uni01C0" unicode="&#x1c0;" horiz-adv-x="279" 
d="M87 -193v980h97v-980h-97z" />
    <glyph glyph-name="uni01C1" unicode="&#x1c1;" horiz-adv-x="478" 
d="M87 -193v980h97v-980h-97zM287 -193v980h97v-980h-97z" />
    <glyph glyph-name="uni01C2" unicode="&#x1c2;" horiz-adv-x="569" 
d="M234 442v349h101v-349h198v-88h-198v-103h198v-88h-198v-356h-101v356h-198v88h198v103h-198v88h198z" />
    <glyph glyph-name="uni01C3" unicode="&#x1c3;" horiz-adv-x="277" 
d="M168 747l-3 -266q0 -43 -3 -88.5t-8 -102l-7 -79.5h-63q-19 222 -19 270l-3 266q26 12 52 12q28 0 54 -12zM181 56q0 -28 -18.5 -46.5t-46.5 -18.5t-47 18.5t-19 46.5t18.5 47t47.5 19q28 0 46.5 -19t18.5 -47z" />
    <glyph glyph-name="uni01C4" unicode="&#x1c4;" horiz-adv-x="1273" 
d="M646 346q0 -172 -101 -264.5t-278 -92.5q-106 0 -188 22v670q81 22 187 22q178 0 279 -92t101 -265zM190 607v-521q35 -5 85 -5q126 0 191 68.5t65 197.5q0 128 -64.5 196.5t-191.5 68.5q-50 0 -85 -5zM1216 696l-5 -78q-241 -331 -349 -531h363v-91h-497l5 70
q57 116 163 278t185 261h-333v91h468zM888 941l104 -92l105 92l46 -54l-151 -154l-150 154z" />
    <glyph glyph-name="uni01C5" unicode="&#x1c5;" horiz-adv-x="1173" 
d="M646 346q0 -172 -101 -264.5t-278 -92.5q-106 0 -188 22v670q81 22 187 22q178 0 279 -92t101 -265zM190 607v-521q35 -5 85 -5q126 0 191 68.5t65 197.5q0 128 -64.5 196.5t-191.5 68.5q-50 0 -85 -5zM1129 525q-1 -12 -2.5 -35.5t-2.5 -35.5l-36 -44
q-129 -167 -220 -328h268v-86h-400q6 48 8 73q72 140 249 371h-241v85h377zM835 783l105 -92l104 92l47 -53l-151 -154l-150 154z" />
    <glyph glyph-name="uni01C6" unicode="&#x1c6;" horiz-adv-x="1054" 
d="M516 782v-764q-87 -34 -204 -34q-121 0 -193.5 73.5t-72.5 202.5q0 124 64 200t175 76q72 0 124 -33v266q18 2 53.5 6.5t53.5 6.5zM409 83v332q-47 35 -109 35q-75 0 -109.5 -50.5t-34.5 -137.5q0 -91 42.5 -140.5t114.5 -49.5q65 0 96 11zM1009 525q-1 -12 -2.5 -35.5
t-1.5 -35.5q-51 -61 -128.5 -171t-127.5 -201h267v-86h-399q2 13 4.5 37t3.5 36q78 151 249 371h-242v85h377zM714 783l104 -92l104 92l47 -53l-151 -154l-150 154z" />
    <glyph glyph-name="uni01C7" unicode="&#x1c7;" horiz-adv-x="1037" 
d="M191 87h297v-91h-409v700h112v-609zM935 696v-497q0 -240 -221 -245q-105 -1 -178 51l34 86q66 -43 134 -32q62 8 90.5 48t28.5 124v465h112z" />
    <glyph glyph-name="uni01C8" unicode="&#x1c8;" horiz-adv-x="770" 
d="M191 87h297v-91h-409v700h112v-609zM523 -195q-32 -2 -70 9l11 74q20 -2 42 3q49 2 67.5 30t18.5 92v512h107v-506q0 -105 -42.5 -157.5t-133.5 -56.5zM712 677q0 -29 -19.5 -47.5t-47.5 -18.5t-47.5 18.5t-19.5 47.5t19.5 47.5t47.5 18.5t47.5 -18.5t19.5 -47.5z" />
    <glyph glyph-name="uni01C9" unicode="&#x1c9;" horiz-adv-x="523" 
d="M244 30l-42 -42q-62 5 -92.5 34t-33.5 90q-3 43 -3 89v568q19 2 55 6.5l53 6.5v-485q0 -107 12 -165q-1 -43 10.5 -64t40.5 -38zM276 -195q-33 -2 -69 9l10 74q21 -2 42 3q50 2 68 30t18 92v512h108v-506q0 -105 -43 -157.5t-134 -56.5zM466 677q0 -29 -19.5 -47.5
t-47.5 -18.5q-29 0 -48.5 18.5t-19.5 47.5t19.5 47.5t47.5 18.5q29 0 48.5 -18.5t19.5 -47.5z" />
    <glyph glyph-name="uni01CA" unicode="&#x1ca;" horiz-adv-x="1220" 
d="M629 -4h-59l-32 2q-57 102 -174 275.5t-180 245.5v-231v-292h-105v700h89q151 -170 301 -403l55 -90v231v262h105v-700zM1117 696v-497q0 -240 -220 -245q-108 -1 -178 51l33 86q68 -43 135 -32q62 8 90.5 48t28.5 124v465h111z" />
    <glyph glyph-name="uni01CB" unicode="&#x1cb;" horiz-adv-x="973" 
d="M629 -4h-59l-32 2q-57 102 -174 275.5t-180 245.5v-231v-292h-105v700h89q151 -170 301 -403l55 -90v231v262h105v-700zM726 -195q-32 -2 -70 9l11 74q20 -2 42 3q49 2 67.5 30t18.5 92v512h108v-506q0 -105 -43 -157.5t-134 -56.5zM916 677q0 -29 -19.5 -47.5
t-47.5 -18.5q-29 0 -48.5 18.5t-19.5 47.5t19.5 47.5t47.5 18.5q29 0 48.5 -18.5t19.5 -47.5z" />
    <glyph glyph-name="uni01CC" unicode="&#x1cc;" horiz-adv-x="826" 
d="M74 -4v506q86 34 214 34q125 0 173.5 -63t48.5 -185v-292h-108v268q0 103 -25.5 143.5t-97.5 40.5q-61 0 -97 -11v-441h-108zM579 -195q-33 -2 -69 9l10 74q21 -2 42 3q50 2 68 30t18 92v512h108v-506q0 -105 -43 -157.5t-134 -56.5zM769 677q0 -29 -19.5 -47.5
t-47.5 -18.5q-29 0 -48 18t-19 48t19 48t48 18q28 0 47.5 -18.5t19.5 -47.5z" />
    <glyph glyph-name="uni01CD" unicode="&#x1cd;" horiz-adv-x="252" 
d="M178 528v-536h-105v536h105zM21 801l104 -92l105 92l46 -53l-151 -154l-150 154z" />
    <glyph glyph-name="uni01CE" unicode="&#x1ce;" horiz-adv-x="521" 
d="M446 17q-74 -31 -197 -31q-101 0 -156 41.5t-55 124.5q0 164 236 182q18 1 72 -2q-1 67 -24.5 100t-87.5 33q-69 0 -134 -29l-19 76q73 33 166 33q91 0 142 -44t55 -130q2 -19 2 -61v-293zM347 71v192q-35 4 -76 1q-62 -8 -96.5 -32t-34.5 -78q0 -94 118 -94q53 0 89 11z
M155 810l104 -92l105 92l46 -53l-151 -154l-150 154z" />
    <glyph glyph-name="uni01CF" unicode="&#x1cf;" horiz-adv-x="267" 
d="M186 -4h-108v698h108v-698zM26 968l104 -92l105 92l46 -53l-151 -154l-150 154z" />
    <glyph glyph-name="uni01D0" unicode="&#x1d0;" horiz-adv-x="252" 
d="M178 528v-536h-105v536h105zM21 801l104 -92l105 92l46 -53l-151 -154l-150 154z" />
    <glyph glyph-name="uni01D1" unicode="&#x1d1;" horiz-adv-x="695" 
d="M644 345q0 -166 -79.5 -263.5t-216.5 -97.5t-216.5 97.5t-79.5 263.5q0 165 79.5 263.5t216.5 98.5t216.5 -98.5t79.5 -263.5zM533 347q0 121 -47 198t-138 77q-92 0 -138.5 -77t-46.5 -198t46 -198t139 -77t139 77t46 198zM243 966l104 -92l105 92l46 -53l-151 -154
l-150 154z" />
    <glyph glyph-name="uni01D2" unicode="&#x1d2;" 
d="M513 264q0 -125 -62 -202t-171 -77q-110 0 -172 76.5t-62 202.5t62.5 203.5t170.5 77.5q109 0 171.5 -77.5t62.5 -203.5zM407 265q0 88 -31 144t-96 56q-66 0 -98 -56t-32 -144q0 -89 32 -143.5t98 -54.5q65 0 96 54.5t31 143.5zM175 801l104 -92l105 92l46 -53
l-151 -154l-150 154z" />
    <glyph glyph-name="uni01D3" unicode="&#x1d3;" horiz-adv-x="688" 
d="M564 228q0 -109 -63.5 -177t-182.5 -68q-104 0 -166.5 54.5t-72.5 144.5q-5 38 -5 95v417h108v-404q0 -111 31 -164t108 -53q55 0 91 32t43 93q5 47 5 93v403h104v-466zM219 968l104 -92l105 92l46 -53l-151 -154l-150 154z" />
    <glyph glyph-name="uni01D4" unicode="&#x1d4;" horiz-adv-x="575" 
d="M482 25q-72 -39 -205 -39q-118 0 -163.5 60.5t-45.5 178.5v308h103v-281q0 -97 21.5 -140.5t92.5 -43.5q64 0 94 15v450h103v-508zM179 801l104 -92l105 92l46 -53l-151 -154l-150 154z" />
    <glyph glyph-name="uni01D5" unicode="&#x1d5;" horiz-adv-x="688" 
d="M338 -19q-136 0 -199 76t-63 207v432h111v-415q0 -204 153 -204q152 0 152 204v415h110v-445q0 -123 -66 -196.5t-198 -73.5zM197 919v76h293v-76h-293zM303 809q-1 -27 -18 -43.5t-42 -16.5q-26 0 -42.5 17t-16.5 44q0 29 17 45t42 16q27 0 43 -16.5t17 -45.5zM504 810
q0 -27 -17 -44t-42 -17q-26 0 -42.5 16.5t-17.5 45.5q1 28 17 44t41 16q28 2 44 -16q17 -20 17 -45z" />
    <glyph glyph-name="uni01D6" unicode="&#x1d6;" horiz-adv-x="575" 
d="M482 25q-72 -39 -205 -39q-118 0 -163.5 60.5t-45.5 178.5v308h103v-281q0 -97 21.5 -140.5t92.5 -43.5q64 0 94 15v450h103v-508zM116 755v76h293v-76h-293zM222 645q-1 -27 -17.5 -43t-42.5 -16t-42.5 16.5t-16.5 43.5q0 29 17 45t42 16q27 0 43 -16.5t17 -45.5z
M423 646q0 -27 -16.5 -43.5t-42.5 -16.5t-42.5 16.5t-17.5 44.5q1 29 17 44.5t41 16.5q29 0 44 -17q17 -19 17 -45z" />
    <glyph glyph-name="uni01D7" unicode="&#x1d7;" horiz-adv-x="688" 
d="M564 228q0 -109 -63.5 -177t-182.5 -68q-104 0 -166.5 54.5t-72.5 144.5q-5 38 -5 95v417h108v-404q0 -111 31 -164t108 -53q55 0 91 32t43 93q5 47 5 93v403h104v-466zM257 804l126 190l81 -60l-144 -176zM238 820q0 -29 -18 -46.5t-45 -17.5t-45 17.5t-18 46.5t18 46.5
t45 17.5t45 -17.5t18 -46.5zM553 820q0 -29 -18 -46.5t-45 -17.5t-45 17.5t-18 46.5t18 46.5t45 17.5q28 0 45.5 -17.5t17.5 -46.5z" />
    <glyph glyph-name="uni01D8" unicode="&#x1d8;" horiz-adv-x="547" 
d="M476 25q-72 -39 -205 -39q-118 0 -164 61t-46 178v308h104v-281q0 -97 21.5 -140.5t92.5 -43.5q64 0 94 15v450h103v-508zM191 624l126 190l81 -60l-144 -176zM172 640q0 -29 -18 -46.5t-45 -17.5t-45 17.5t-18 46.5t18 46.5t45 17.5t45 -17.5t18 -46.5zM487 640
q0 -29 -18 -46.5t-45 -17.5t-45 17.5t-18 46.5t18 46.5t45 17.5q28 0 45.5 -17.5t17.5 -46.5z" />
    <glyph glyph-name="uni01D9" unicode="&#x1d9;" horiz-adv-x="584" 
d="M539 228q0 -110 -63 -177.5t-182 -67.5q-105 0 -167 54.5t-72 144.5q-5 38 -5 95v417h108v-404q0 -111 31 -164t108 -53q55 0 91 32t43 93q4 37 4 93v403h104v-466zM187 1023l104 -92l105 92l46 -53l-151 -155l-150 155zM234 812q0 -29 -18 -46.5t-45 -17.5t-45 17.5
t-18 46.5t18 47t45 18t45 -18t18 -47zM468 812q0 -29 -18 -46.5t-45 -17.5t-45 17.5t-18 46.5t18 47t45 18t45 -18t18 -47z" />
    <glyph glyph-name="uni01DA" unicode="&#x1da;" horiz-adv-x="585" 
d="M465 25q-72 -39 -205 -39q-119 0 -164.5 60.5t-45.5 178.5v308h104v-281q0 -97 21.5 -140.5t91.5 -43.5q66 0 94 15v450h104v-508zM154 885l104 -92l105 92l46 -53l-151 -155l-150 155zM201 674q0 -29 -18 -46.5t-45 -17.5t-45 17.5t-18 46.5t18 47t45 18t45 -18t18 -47z
M435 674q0 -29 -18 -46.5t-45 -17.5t-45 17.5t-18 46.5t18 47t45 18t45 -18t18 -47z" />
    <glyph glyph-name="uni01DB" unicode="&#x1db;" horiz-adv-x="686" 
d="M568 228q0 -109 -63.5 -177t-181.5 -68q-105 0 -167.5 54.5t-72.5 144.5q-4 40 -4 95v417h107v-404q0 -111 31 -164t108 -53q55 0 91.5 32t43.5 93q4 37 4 93v403h104v-466zM378 797q0 -29 -18.5 -47.5t-47.5 -18.5q-28 0 -47 18.5t-19 46.5q0 29 18.5 47.5t47.5 18.5
q28 0 47 -18.5t19 -46.5zM401 797q0 -29 -18.5 -47.5t-47.5 -18.5q-28 0 -47 18.5t-19 46.5q0 29 18.5 47.5t47.5 18.5q28 0 47 -18.5t19 -46.5zM255 1020l126 -189l-64 -46l-144 176z" />
    <glyph glyph-name="uni01DC" unicode="&#x1dc;" horiz-adv-x="508" 
d="M465 25q-72 -39 -205 -39q-119 0 -164.5 60.5t-45.5 178.5v308h104v-281q0 -97 21.5 -140.5t91.5 -43.5q66 0 94 15v450h104v-508zM305 652q0 -29 -18.5 -47.5t-47.5 -18.5q-28 0 -47 18.5t-19 46.5q0 29 18.5 47.5t47.5 18.5q28 0 47 -18.5t19 -46.5zM328 652
q0 -29 -18.5 -47.5t-47.5 -18.5q-28 0 -47 18.5t-19 46.5q0 29 18.5 47.5t47.5 18.5q28 0 47 -18.5t19 -46.5zM182 875l126 -189l-64 -46l-144 176z" />
    <glyph glyph-name="uni01DD" unicode="&#x1dd;" horiz-adv-x="558" 
d="M514 261q0 -133 -71 -207t-170 -74q-107 0 -166.5 67t-59.5 199q0 18 2 46h353q-12 125 -115 148q-34 5 -65 4q-68 -2 -124 -29l-17 91q23 12 69 23t95 11q136 0 202.5 -75.5t66.5 -203.5zM401 207h-247q3 -64 33 -99t84 -35q55 0 89.5 38.5t40.5 95.5z" />
    <glyph glyph-name="uni01DE" unicode="&#x1de;" horiz-adv-x="663" 
d="M620 -4h-76l-39 3l-41 121l-20 62h-269q-40 -111 -63 -186h-105q168 478 258 698h96q69 -171 259 -698zM420 260l-82 239q-8 20 -16 48t-11 34q-4 -6 -12 -31q-17 -54 -53.5 -157l-46.5 -133h221zM169 919v76h292v-76h-292zM274 809q-1 -27 -17.5 -43.5t-42.5 -16.5
t-42.5 17t-16.5 44q0 29 17 45t42 16q27 0 43 -16.5t17 -45.5zM475 810q0 -27 -16.5 -44t-42.5 -17t-42.5 16.5t-16.5 45.5q0 28 16 44t42 16q25 0 42.5 -17.5t17.5 -43.5z" />
    <glyph glyph-name="uni01DF" unicode="&#x1df;" horiz-adv-x="521" 
d="M446 17q-74 -31 -197 -31q-101 0 -156 41.5t-55 124.5q0 164 236 182h72q-1 67 -24.5 99t-87.5 32q-69 0 -134 -29l-19 76q73 33 166 33q91 0 142 -44t55 -130q2 -19 2 -61v-293zM347 71v192q-35 4 -76 1q-62 -8 -96.5 -32t-34.5 -78q0 -94 118 -94q53 0 89 11zM102 755
v76h293v-76h-293zM207 645q0 -26 -17 -42.5t-42 -16.5q-26 0 -42.5 16.5t-16.5 43.5q0 30 16.5 45.5t42.5 15.5t42.5 -16.5t16.5 -45.5zM409 646q0 -27 -17 -43.5t-43 -16.5q-25 0 -41.5 16.5t-17.5 44.5q1 29 16.5 44.5t41.5 16.5q25 0 43 -17.5t18 -44.5z" />
    <glyph glyph-name="uni01E0" unicode="&#x1e0;" horiz-adv-x="663" 
d="M620 -4h-76l-39 3l-41 121l-20 62h-269q-40 -111 -63 -186h-105q168 478 258 698h96q69 -171 259 -698zM420 260l-82 239q-8 20 -16 48t-11 34q-4 -6 -12 -31q-17 -54 -53.5 -157l-46.5 -133h221zM177 916v78h270v-78h-270zM372 810q0 -27 -17 -44t-43 -17t-42.5 17
t-16.5 44q0 28 17 45t43 17q25 0 42 -17.5t17 -44.5z" />
    <glyph glyph-name="uni01E1" unicode="&#x1e1;" horiz-adv-x="521" 
d="M446 17q-74 -31 -197 -31q-101 0 -156 41.5t-55 124.5q0 164 236 182h72q-1 67 -24.5 99t-87.5 32q-69 0 -134 -29l-19 76q73 33 166 33q91 0 142 -44t55 -130q2 -19 2 -61v-293zM347 71v192q-35 4 -76 1q-62 -8 -96.5 -32t-34.5 -78q0 -94 118 -94q53 0 89 11zM103 762
v78h271v-78h-271zM298 655q0 -27 -16.5 -43.5t-42.5 -16.5t-43 16.5t-17 43.5q0 28 17 45.5t43 17.5t42.5 -17.5t16.5 -45.5z" />
    <glyph glyph-name="uni01E2" unicode="&#x1e2;" horiz-adv-x="937" 
d="M908 -8h-445v182h-255q-78 -144 -97 -182h-118q200 382 437 709h452v-96h-311v-194h276v-95h-276v-228h337v-96zM463 268v314q-108 -152 -156 -234l-48 -80h204zM722 788h-298v85h298v-85z" />
    <glyph glyph-name="uni01E3" unicode="&#x1e3;" horiz-adv-x="860" 
d="M458 313h247q-3 64 -33 99t-84 35t-89.5 -38.5t-40.5 -95.5zM255 -19q-102 0 -160.5 41.5t-58.5 131.5q0 87 62 128t165 41q56 0 86 -11q-1 24 -2 38.5t-7.5 35.5t-17 32t-31.5 20t-50 9q-76 0 -138 -23l-13 91q60 25 157 25q126 0 169 -86q56 69 138 82q26 4 51 3
q98 -5 153 -72t55 -193q0 -8 -1 -23.5t-1 -22.5h-353q12 -153 163 -153q76 0 141 30l16 -91q-58 -30 -146 -33q-33 -2 -56 1q-85 7 -140 53q-76 -54 -181 -54zM352 226q-30 12 -83 12q-127 0 -127 -83q0 -84 115 -84q76 0 124 35q-28 50 -29 120zM567 633h-298v85h298v-85z
" />
    <glyph glyph-name="uni01E4" unicode="&#x1e4;" horiz-adv-x="701" 
d="M502 87v110h-111v86h111v88h110v-88h80v-86h-80v-182q-85 -37 -229 -37q-148 0 -240.5 98t-92.5 271q0 172 97.5 271t243.5 99q133 0 218 -54l-35 -93q-72 48 -180 48q-104 0 -167 -71t-63 -200q0 -127 59 -199.5t171 -72.5q72 0 108 12z" />
    <glyph glyph-name="uni01E5" unicode="&#x1e5;" horiz-adv-x="591" 
d="M377 10q20 11 23 37q-49 -32 -119 -32q-106 0 -171.5 65t-65.5 193q0 118 70 191.5t190 73.5q103 0 202 -30v-190h79v-80h-79v-160q0 -23 -2 -61q-4 -112 -67 -162.5t-188 -50.5q-88 0 -177 29l20 95q71 -31 159 -31q67 0 96.5 26t29.5 87zM400 141v97h-109v80h109v118
q-38 10 -95 10q-71 0 -112 -48t-41 -126q0 -82 39 -123.5t98 -41.5q70 0 111 34z" />
    <glyph glyph-name="Gcaron" unicode="&#x1e6;" horiz-adv-x="670" 
d="M567 22q-70 -38 -203 -38q-140 0 -226.5 95t-86.5 268q0 168 90 264t227 96q118 0 192 -45l-33 -79q-58 35 -142 36q-105 2 -164 -68t-59 -207q0 -130 55 -202.5t151 -72.5q68 0 94 13v207h-69v86h174v-353zM254 968l104 -92l105 92l46 -53l-151 -154l-150 154z" />
    <glyph glyph-name="gcaron" unicode="&#x1e7;" horiz-adv-x="579" 
d="M485 14q0 -225 -234 -225q-102 0 -175 34q4 16 13 45.5t11 34.5q56 -27 127 -30q68 -1 105 29q52 28 52 100v30q-43 -28 -113 -28q-101 0 -163 68.5t-62 192.5q0 126 67 202.5t188 76.5q106 0 184 -34v-496zM384 107v348q-33 12 -84 12q-73 0 -111.5 -53.5t-38.5 -145.5
q0 -93 36.5 -140t101.5 -47q55 0 96 26zM193 801l104 -92l105 92l46 -53l-151 -154l-150 154z" />
    <glyph glyph-name="uni01E8" unicode="&#x1e8;" horiz-adv-x="623" 
d="M573 -4h-84q-7 0 -20.5 1t-20.5 1q-118 188 -263 334v-336h-107v698h107v-305q122 132 251 305h121q-92 -116 -276 -325q75 -77 155 -178.5t137 -194.5zM188 961l104 -92l105 92l46 -53l-151 -154l-150 154z" />
    <glyph glyph-name="uni01E9" unicode="&#x1e9;" horiz-adv-x="519" 
d="M501 -4h-119q-138 203 -206 258v-258h-103v784h103v-475l191 228h117l-216 -246q123 -126 233 -291zM258 801l104 -92l105 92l46 -53l-151 -154l-150 154z" />
    <glyph glyph-name="uni01EA" unicode="&#x1ea;" horiz-adv-x="778" 
d="M615 347q0 126 -61 198.5t-165 72.5t-164.5 -73t-60.5 -198t60.5 -198t164.5 -73t165 73t61 198zM370 -21q-138 6 -229 102.5t-91 265.5q0 175 97.5 272.5t241.5 97.5q146 0 242.5 -97.5t96.5 -272.5q0 -118 -45.5 -201t-124.5 -127q-40 -20 -79.5 -53t-42.5 -62
q1 -24 36 -24q20 2 42 9l9 -79q-35 -14 -75 -14q-104 0 -112 70q-2 42 40 88q-6 8 -6 25z" />
    <glyph glyph-name="uni01EB" unicode="&#x1eb;" 
d="M422 12q-104 -63 -105 -108q1 -24 36 -24q19 2 43 9l9 -79q-37 -14 -76 -14q-104 0 -112 70q-2 21 3 41q11 37 50 75q-101 8 -163.5 83.5t-62.5 194.5q0 125 70.5 202.5t180.5 77.5q111 0 180.5 -77.5t69.5 -202.5q0 -85 -32.5 -149t-90.5 -99zM436 260q0 85 -37.5 135
t-103.5 50t-104 -50t-38 -135q0 -86 38 -136t104 -50t103.5 50t37.5 136z" />
    <glyph glyph-name="uni01EC" unicode="&#x1ec;" horiz-adv-x="778" 
d="M615 347q0 126 -61 198.5t-165 72.5t-164.5 -73t-60.5 -198t60.5 -198t164.5 -73t165 73t61 198zM370 -21q-138 6 -229 102.5t-91 265.5q0 175 97.5 272.5t241.5 97.5q146 0 242.5 -97.5t96.5 -272.5q0 -118 -45.5 -201t-124.5 -127q-40 -20 -79.5 -53t-42.5 -62
q1 -24 36 -24q20 2 42 9l9 -79q-35 -14 -75 -14q-104 0 -112 70q-2 42 40 88q-6 8 -6 25zM538 788h-297v85h297v-85z" />
    <glyph glyph-name="uni01ED" unicode="&#x1ed;" 
d="M422 12q-104 -65 -105 -108q1 -24 36 -24q19 2 43 9l9 -79q-37 -14 -76 -14q-104 0 -112 70q-2 21 3 41q11 37 50 75q-101 8 -163.5 83.5t-62.5 194.5q0 125 70.5 202.5t180.5 77.5q111 0 180.5 -77.5t69.5 -202.5q0 -85 -32.5 -149t-90.5 -99zM436 260q0 85 -37.5 135
t-103.5 50t-104 -50t-38 -135q0 -86 38 -136t104 -50t103.5 50t37.5 136zM444 633h-298v85h298v-85z" />
    <glyph glyph-name="uni01EE" unicode="&#x1ee;" horiz-adv-x="564" 
d="M522 193q0 -111 -76.5 -163.5t-209.5 -52.5q-122 0 -221 54l35 93q91 -51 186 -51q172 0 172 121q0 72 -55 100.5t-151 28.5h-27v47l2 22q55 55 187 214h-315v95h458v-67q-54 -77 -199 -236q94 -13 154 -62t60 -143zM172 941l104 -92l104 92l47 -54l-151 -154l-150 154z
" />
    <glyph glyph-name="uni01EF" unicode="&#x1ef;" horiz-adv-x="471" 
d="M116 152v50l2 24q97 108 165 211h-268v91h403v-66q-72 -112 -177 -234q88 -12 144 -60t56 -141q0 -108 -69.5 -164t-193.5 -56q-117 0 -187 38l26 90q68 -33 159 -33q77 0 117 32.5t40 94.5q0 123 -175 123h-42zM109 783l104 -92l105 92l46 -53l-151 -154l-150 154z" />
    <glyph glyph-name="uni01F0" unicode="&#x1f0;" horiz-adv-x="252" 
d="M-2 -195q-37 0 -73 14l15 89q30 -10 53 -10q46 0 63 26t17 84v520h105v-519q0 -105 -43.5 -154.5t-136.5 -49.5zM23 783l105 -92l104 92l47 -53l-151 -154l-150 154z" />
    <glyph glyph-name="uni01F1" unicode="&#x1f1;" horiz-adv-x="1273" 
d="M646 346q0 -172 -101 -264.5t-278 -92.5q-106 0 -188 22v670q81 22 187 22q178 0 279 -92t101 -265zM190 607v-521q35 -5 85 -5q126 0 191 68.5t65 197.5q0 128 -64.5 196.5t-191.5 68.5q-50 0 -85 -5zM1216 696l-5 -78q-241 -331 -349 -531h363v-91h-497l5 70
q57 116 163 278t185 261h-333v91h468z" />
    <glyph glyph-name="uni01F2" unicode="&#x1f2;" horiz-adv-x="1173" 
d="M646 346q0 -172 -101 -264.5t-278 -92.5q-106 0 -188 22v670q81 22 187 22q178 0 279 -92t101 -265zM190 607v-521q35 -5 85 -5q126 0 191 68.5t65 197.5q0 128 -64.5 196.5t-191.5 68.5q-50 0 -85 -5zM1129 525q-1 -12 -2.5 -35.5t-2.5 -35.5l-36 -44
q-129 -167 -220 -328h268v-86h-400q6 48 8 73q72 140 249 371h-241v85h377z" />
    <glyph glyph-name="uni01F3" unicode="&#x1f3;" horiz-adv-x="1054" 
d="M516 782v-764q-87 -34 -204 -34q-121 0 -193.5 73.5t-72.5 202.5q0 124 64 200t175 76q72 0 124 -33v266q18 2 53.5 6.5t53.5 6.5zM409 83v332q-47 35 -109 35q-75 0 -109.5 -50.5t-34.5 -137.5q0 -91 42.5 -140.5t114.5 -49.5q65 0 96 11zM1009 525q-1 -12 -2.5 -35.5
t-1.5 -35.5q-51 -61 -128.5 -171t-127.5 -201h267v-86h-399q2 13 4.5 37t3.5 36q78 151 249 371h-242v85h377z" />
    <glyph glyph-name="uni01F4" unicode="&#x1f4;" horiz-adv-x="670" 
d="M567 22q-70 -38 -203 -38q-140 0 -226.5 95t-86.5 268q0 168 90 264t227 96q118 0 192 -45l-33 -79q-58 35 -142 36q-105 2 -164 -68t-59 -207q0 -130 55 -202.5t151 -72.5q68 0 94 13v207h-69v86h174v-353zM392 773h-66l85 189h131z" />
    <glyph glyph-name="uni01F5" unicode="&#x1f5;" horiz-adv-x="579" 
d="M485 14q0 -225 -234 -225q-102 0 -175 34q4 16 13 45.5t11 34.5q56 -27 127 -30q68 -1 105 29q52 28 52 100v30q-43 -28 -113 -28q-101 0 -163 68.5t-62 192.5q0 126 67 202.5t188 76.5q106 0 184 -34v-496zM384 107v348q-33 12 -84 12q-73 0 -111.5 -53.5t-38.5 -145.5
q0 -93 36.5 -140t101.5 -47q55 0 96 26zM331 605h-66l85 189h131z" />
    <glyph glyph-name="uni01F6" unicode="&#x1f6;" horiz-adv-x="1051" 
d="M876 260v267h109v-284q0 -126 -53 -195.5t-184 -69.5t-184.5 69.5t-53.5 194.5v72h-322v-322h-109v709h109v-291h322v291h109v-441q0 -97 30 -140.5t99 -43.5q68 0 98 43.5t30 140.5z" />
    <glyph glyph-name="uni01F7" unicode="&#x1f7;" horiz-adv-x="641" 
d="M188 -5v-188h-109v849q132 51 227 51q143 0 218.5 -66.5t75.5 -196.5q0 -69 -21.5 -128.5t-57 -105t-90 -86t-112.5 -70.5t-131 -59zM188 588v-486q55 24 92.5 43.5t79.5 50.5t67 64.5t42 82t17 105.5q0 81 -46 122t-133 41q-63 0 -119 -23z" />
    <glyph glyph-name="uni01F8" unicode="&#x1f8;" horiz-adv-x="722" 
d="M608 -4h-59l-32 2q-104 182 -300 476q-8 11 -18.5 29.5l-16.5 28.5t-9 10q0 -13 1 -91t1 -119v-336h-99v698h97q165 -228 301 -451l15.5 -27.5l13.5 -24.5t8 -12q0 27 -1 125t-1 146v244h99v-698zM382 751h-66l-150 189h132z" />
    <glyph glyph-name="uni01F9" unicode="&#x1f9;" horiz-adv-x="575" 
d="M490 -4h-103v285q0 39 -1 60t-7 48.5t-18 41t-34.5 23.5t-55.5 10q-55 0 -97 -14v-454h-104v510q78 38 208 38q56 0 96.5 -14.5t62.5 -36t34.5 -57t15.5 -65.5t3 -73v-302zM302 584h-66l-150 189h132z" />
    <glyph glyph-name="Aringacute" unicode="&#x1fa;" horiz-adv-x="663" 
d="M627 -4h-116l-61 186h-268q-40 -111 -63 -186h-105q168 478 258 698h96q69 -171 259 -698zM427 260l-83 239q-6 16 -11.5 35t-9 30t-6.5 17q-2 -4 -15 -42q-16 -50 -50 -145t-47 -134h222zM429 820q0 -49 -32 -79t-79 -30q-46 0 -78 29.5t-32 79.5q0 49 32 79t78 30
t78.5 -30t32.5 -79zM364 820q0 22 -13 35t-33 13q-19 0 -32 -13t-13 -35t12.5 -34.5t32.5 -12.5t33 12.5t13 34.5zM371 1152l72 -73l-182 -150l-54 55z" />
    <glyph glyph-name="aringacute" unicode="&#x1fb;" horiz-adv-x="521" 
d="M446 17q-74 -31 -197 -31q-101 0 -156 41.5t-55 124.5q0 164 236 182h72q-1 67 -24.5 99t-87.5 32q-69 0 -134 -29l-19 76q73 33 166 33q91 0 142 -44t55 -130q2 -19 2 -61v-293zM347 71v192q-35 4 -76 1q-62 -8 -96.5 -32t-34.5 -78q0 -94 118 -94q53 0 89 11zM356 688
q0 -49 -32 -79t-79 -30q-46 0 -78 29.5t-32 79.5q0 49 32 79t78 30t78.5 -30t32.5 -79zM291 688q0 22 -13 35t-33 13q-19 0 -32 -13t-13 -35t12.5 -34.5t32.5 -12.5t33 12.5t13 34.5zM298 1020l72 -73l-182 -150l-54 55z" />
    <glyph glyph-name="AEacute" unicode="&#x1fc;" horiz-adv-x="937" 
d="M908 -8h-445v182h-255q-78 -144 -97 -182h-118q200 382 437 709h452v-96h-311v-194h276v-95h-276v-228h337v-96zM463 268v314q-108 -152 -156 -234l-48 -80h204zM653 949l72 -72l-182 -150l-55 55z" />
    <glyph glyph-name="aeacute" unicode="&#x1fd;" horiz-adv-x="860" 
d="M458 313h247q-3 64 -33 99t-84 35t-89.5 -38.5t-40.5 -95.5zM255 -19q-102 0 -160.5 41.5t-58.5 131.5q0 87 62 128t165 41q56 0 86 -11q-1 24 -2 38.5t-7.5 35.5t-17 32t-31.5 20t-50 9q-76 0 -138 -23l-13 91q60 25 157 25q126 0 169 -86q56 69 138 82q26 4 51 3
q98 -5 153 -72t55 -193q0 -8 -1 -23.5t-1 -22.5h-353q12 -153 163 -153q76 0 141 30l16 -91q-58 -30 -146 -33q-33 -2 -56 1q-85 7 -140 53q-76 -54 -181 -54zM352 226q-30 12 -83 12q-127 0 -127 -83q0 -84 115 -84q76 0 124 35q-28 50 -29 120zM507 792l72 -72l-182 -150
l-54 55z" />
    <glyph glyph-name="Oslashacute" unicode="&#x1fe;" horiz-adv-x="778" 
d="M728 347q0 -176 -96 -273t-243 -97q-107 0 -187 54l-61 -80l-71 54l65 84q-85 94 -85 258q0 175 97.5 272.5t241.5 97.5q107 0 188 -56l63 82l71 -54l-66 -86q83 -97 83 -256zM164 347q0 -98 43 -165l306 396q-52 40 -124 40q-104 0 -164.5 -73t-60.5 -198zM615 347
q0 98 -42 163l-307 -397q51 -37 123 -37q104 0 165 73t61 198zM462 949l72 -72l-182 -150l-54 55z" />
    <glyph glyph-name="oslashacute" unicode="&#x1ff;" 
d="M545 260q0 -126 -69.5 -203.5t-180.5 -77.5q-78 0 -136 40l-50 -66l-64 48l56 71q-57 72 -57 188q0 125 70.5 202.5t180.5 77.5q79 0 136 -41l24 32t26 34l63 -47l-55 -72q56 -75 56 -186zM151 263q2 -56 27 -90l192 247q-35 27 -83 26q-63 -3 -99.5 -52t-36.5 -131z
M438 256q-1 53 -27 89l-191 -248q37 -25 82 -24q63 3 99.5 52t36.5 131zM369 792l72 -72l-182 -150l-54 55z" />
    <glyph glyph-name="uni0200" unicode="&#x200;" horiz-adv-x="663" 
d="M651 -4h-79l-42 3q-32 84 -58 167h-300l-59 -170h-112q172 478 274 700h102q91 -201 274 -700zM322 574q-34 -73 -122 -322h244q-91 252 -122 322zM266 899l69 60l129 -179l-59 -45zM88 898l72 61l129 -179l-59 -45z" />
    <glyph glyph-name="uni0201" unicode="&#x201;" horiz-adv-x="521" 
d="M446 17q-74 -31 -197 -31q-101 0 -156 41.5t-55 124.5q0 164 236 182h72q-1 67 -24.5 99t-87.5 32q-69 0 -134 -29l-19 76q73 33 166 33q91 0 142 -44t55 -130q2 -19 2 -61v-293zM347 71v192q-35 4 -76 1q-62 -8 -96.5 -32t-34.5 -78q0 -94 118 -94q53 0 89 11zM181 746
l70 59l129 -179l-59 -44zM4 744l72 61l129 -179l-60 -44z" />
    <glyph glyph-name="uni0202" unicode="&#x202;" horiz-adv-x="663" 
d="M651 -4h-79l-42 3q-32 84 -58 167h-300l-59 -170h-112q172 478 274 700h102q91 -201 274 -700zM322 574q-34 -73 -122 -322h244q-91 252 -122 322zM331 914q66 0 104 -40.5t38 -118.5h-76q-3 76 -66 76t-66 -76h-76q-3 77 37 118t105 41z" />
    <glyph glyph-name="uni0203" unicode="&#x203;" horiz-adv-x="521" 
d="M264 771q66 0 104 -40.5t38 -118.5h-76q-2 75 -66 75t-66 -75h-76q-3 77 37 118t105 41zM446 17q-74 -31 -197 -31q-101 0 -156 41.5t-55 124.5q0 164 236 182q18 1 72 -2q-1 67 -24.5 100t-87.5 33q-69 0 -134 -29l-19 76q73 33 166 33q91 0 142 -44t55 -130
q2 -19 2 -61v-293zM347 71v192q-35 4 -76 1q-62 -8 -96.5 -32t-34.5 -78q0 -94 118 -94q53 0 89 11z" />
    <glyph glyph-name="uni0204" unicode="&#x204;" horiz-adv-x="569" 
d="M470 -4h-394v698h381v-84h-272v-210h243v-83h-243v-237h285v-84zM266 899l69 60l129 -179l-59 -45zM88 898l72 61l129 -179l-59 -45z" />
    <glyph glyph-name="uni0205" unicode="&#x205;" horiz-adv-x="558" 
d="M494 254l-344 -25q14 -160 161 -160q77 0 137 30l21 -78q-62 -36 -167 -36q-124 0 -190 73.5t-66 206.5t65.5 206.5t166.5 73.5q94 0 149.5 -55.5t63.5 -163.5q2 -18 2 -29q1 -13 1 -43zM393 317q-1 74 -31 111.5t-85 37.5q-58 0 -93 -44.5t-36 -123.5zM181 746l70 59
l129 -179l-59 -44zM4 744l72 61l129 -179l-60 -44z" />
    <glyph glyph-name="uni0206" unicode="&#x206;" horiz-adv-x="569" 
d="M517 -4h-438v700h416v-91h-304v-199h270v-89h-270v-230h326v-91zM297 914q66 0 104 -40.5t38 -118.5h-76q-3 76 -66 76t-66 -76h-75q-4 76 36 117.5t105 41.5z" />
    <glyph glyph-name="uni0207" unicode="&#x207;" horiz-adv-x="558" 
d="M46 261q0 129 69.5 202.5t170.5 73.5q91 0 147 -50t70 -147q5 -32 5 -62q1 -16 -1 -43l-350 -6q11 -155 162 -155q75 0 138 29l19 -85q-64 -33 -165 -33q-134 0 -199.5 75t-65.5 201zM156 306l246 3q-2 68 -32 105.5t-85 37.5q-56 0 -91 -42t-38 -104zM286 757
q66 0 103.5 -40.5t37.5 -118.5h-75q-2 75 -66 75q-62 0 -67 -75h-75q-3 77 37 118t105 41z" />
    <glyph glyph-name="uni0208" unicode="&#x208;" horiz-adv-x="267" 
d="M186 -4h-108v698h108v-698zM53 899l69 60l129 -179l-59 -45zM-125 898l72 61l129 -179l-59 -45z" />
    <glyph glyph-name="uni0209" unicode="&#x209;" horiz-adv-x="252" 
d="M178 528v-536h-105v536h105zM65 746l70 59l129 -179l-59 -44zM-112 744l71 61l130 -179l-60 -44z" />
    <glyph glyph-name="uni020A" unicode="&#x20a;" horiz-adv-x="267" 
d="M79 -4v700h112v-700h-112zM135 928q65 0 103 -40.5t38 -118.5h-75q-3 75 -66 75t-66 -75h-76q-3 76 37 117.5t105 41.5z" />
    <glyph glyph-name="uni020B" unicode="&#x20b;" horiz-adv-x="252" 
d="M178 528v-536h-105v536h105zM127 771q66 0 103.5 -40.5t37.5 -118.5h-75q-3 75 -66 75q-62 0 -67 -75h-75q-3 77 37 118t105 41z" />
    <glyph glyph-name="uni020C" unicode="&#x20c;" horiz-adv-x="778" 
d="M643 345q0 -166 -79.5 -263.5t-216.5 -97.5t-216.5 97.5t-79.5 263.5q0 165 80 263.5t216 98.5q137 0 216.5 -98.5t79.5 -263.5zM532 347q0 121 -47 198t-138 77t-138 -77t-47 -198t46 -198t139 -77t139 77t46 198zM266 899l69 60l129 -179l-59 -45zM88 898l72 61
l129 -179l-59 -45z" />
    <glyph glyph-name="uni020D" unicode="&#x20d;" 
d="M513 264q0 -125 -62 -202t-171 -77q-110 0 -172 76.5t-62 202.5t62.5 203.5t170.5 77.5q109 0 171.5 -77.5t62.5 -203.5zM407 265q0 88 -31 144t-96 56q-66 0 -98 -56t-32 -144q0 -89 32 -143.5t98 -54.5q65 0 96 54.5t31 143.5zM189 746l69 59l129 -179l-59 -44zM11 744
l72 61l129 -179l-59 -44z" />
    <glyph glyph-name="uni020E" unicode="&#x20e;" horiz-adv-x="778" 
d="M644 345q0 -166 -79.5 -263.5t-216.5 -97.5t-216.5 97.5t-79.5 263.5q0 165 79.5 263.5t216.5 98.5t216.5 -98.5t79.5 -263.5zM533 347q0 121 -47 198t-138 77q-92 0 -138.5 -77t-46.5 -198t46 -198t139 -77t139 77t46 198zM333 913q65 0 105 -41.5t36 -117.5h-48
q-1 30 -23 57.5t-70 27.5q-49 0 -70 -27t-22 -58h-50q-3 77 37 118t105 41z" />
    <glyph glyph-name="uni020F" unicode="&#x20f;" 
d="M513 264q0 -125 -62 -202t-171 -77q-110 0 -172 76.5t-62 202.5t62.5 203.5t170.5 77.5q109 0 171.5 -77.5t62.5 -203.5zM407 265q0 88 -31 144t-96 56q-66 0 -98 -56t-32 -144q0 -89 32 -143.5t98 -54.5q65 0 96 54.5t31 143.5zM280 744q65 0 105 -41.5t36 -117.5h-48
q-1 30 -23 57.5t-70 27.5q-49 0 -70 -27t-22 -58h-50q-3 77 37 118t105 41z" />
    <glyph glyph-name="uni0210" unicode="&#x210;" horiz-adv-x="632" 
d="M569 -4h-120q-62 105 -156 239q-2 2 -26 23.5l-36 32.5h-47v-295h-106v678q81 28 184 28q135 0 204.5 -55t69.5 -160q0 -78 -45.5 -127t-123.5 -63v-1q94 -118 202 -300zM427 485q1 70 -39.5 103t-113.5 35q-37 0 -52 -2q-19 -1 -38 -7v-264q34 -4 63 -4q88 0 134 32.5
t46 106.5zM266 899l69 60l129 -179l-59 -45zM88 898l72 61l129 -179l-59 -45z" />
    <glyph glyph-name="uni0211" unicode="&#x211;" horiz-adv-x="387" 
d="M348 533l-20 -79q-34 8 -73 6q-6 2 -13 2q-42 0 -68 -14v-452h-104v509q77 35 171 37q51 2 107 -9zM181 746l70 59l129 -179l-59 -44zM4 744l72 61l129 -179l-60 -44z" />
    <glyph glyph-name="uni0212" unicode="&#x212;" horiz-adv-x="632" 
d="M571 482q0 -137 -139 -187q39 -49 93.5 -137t88.5 -162h-122q-48 93 -161 262q-27 6 -55 15h-86v-277h-111v684q80 23 192 23q300 0 300 -221zM278 615q-38 0 -88 -5v-261h72q46 0 78.5 5t60.5 18.5t42 40.5t14 68q0 134 -179 134zM298 914q66 0 104 -40.5t38 -118.5h-76
q-3 76 -66 76t-66 -76h-75q-4 76 36 117.5t105 41.5z" />
    <glyph glyph-name="uni0213" unicode="&#x213;" horiz-adv-x="387" 
d="M268 536q64 0 110 -16q-3 -15 -9.5 -42.5l-9.5 -39.5q-36 9 -81 8q-8 2 -14 2q-46 1 -82 -12v-440h-108v503q84 36 194 37zM232 757q65 0 105 -41t37 -118h-76q-2 75 -66 75t-66 -75h-76q-3 77 37 118t105 41z" />
    <glyph glyph-name="uni0214" unicode="&#x214;" horiz-adv-x="688" 
d="M564 228q0 -109 -63.5 -177t-182.5 -68q-104 0 -166.5 54.5t-72.5 144.5q-5 38 -5 95v417h108v-404q0 -111 31 -164t108 -53q55 0 91 32t43 93q5 47 5 93v403h104v-466zM266 899l69 60l129 -179l-59 -45zM88 898l72 61l129 -179l-59 -45z" />
    <glyph glyph-name="uni0215" unicode="&#x215;" horiz-adv-x="575" 
d="M482 25q-72 -39 -205 -39q-118 0 -163.5 60.5t-45.5 178.5v308h103v-281q0 -97 21.5 -140.5t92.5 -43.5q64 0 94 15v450h103v-508zM181 746l70 59l129 -179l-59 -44zM4 744l72 61l129 -179l-60 -44z" />
    <glyph glyph-name="uni0216" unicode="&#x216;" horiz-adv-x="688" 
d="M338 -19q-136 0 -199 76t-63 207v432h111v-415q0 -204 153 -204q152 0 152 204v415h110v-445q0 -123 -66 -196.5t-198 -73.5zM344 914q66 0 104 -40.5t38 -118.5h-76q-3 76 -66 76t-66 -76h-76q-3 77 37 118t105 41z" />
    <glyph glyph-name="uni0217" unicode="&#x217;" horiz-adv-x="575" 
d="M504 525v-505q-77 -34 -215 -34q-117 0 -168.5 61t-51.5 176v302h107v-269q0 -98 26.5 -139.5t95.5 -41.5q66 0 99 11v439h107zM284 757q66 0 104 -40.5t38 -118.5h-76q-2 75 -66 75t-66 -75h-76q-3 77 37 118t105 41z" />
    <glyph glyph-name="Scommaaccent" unicode="&#x218;" horiz-adv-x="535" 
d="M234 75q142 0 142 101q0 28 -9 48t-33.5 37t-41.5 25t-59 25q-11 5 -17 7q-74 31 -114.5 67.5t-51.5 89.5q-6 24 -4 56q5 86 66.5 133t166.5 47q56 0 107.5 -14t81.5 -34l-33 -86q-65 43 -152 43q-126 0 -126 -94q0 -21 8 -38t17.5 -28t33.5 -24t39 -19.5l50 -21.5
q48 -21 77.5 -37.5t57 -41t40 -57.5t12.5 -77q0 -96 -66.5 -148t-185.5 -52q-133 0 -213 49l32 91q78 -47 175 -47zM223 -67v21h94q3 -15 3 -26q0 -16 -1 -21q-4 -51 -33.5 -78t-75.5 -31q-16 -2 -23 -1q-20 0 -38 6v69q40 0 57 14t17 47z" />
    <glyph glyph-name="scommaaccent" unicode="&#x219;" horiz-adv-x="444" 
d="M191 72q104 0 104 63q0 32 -22.5 49t-94.5 47q-68 29 -102 62t-34 91q0 69 51 111t138 42q91 0 151 -29l-24 -83q-54 27 -120 27q-39 0 -64 -15.5t-25 -46.5q0 -7 1.5 -13t3 -11t6 -10.5l7.5 -9t10.5 -8l11.5 -7t15 -8t16.5 -8l19 -8.5l20.5 -9q74 -32 109.5 -65
t35.5 -95q0 -74 -55 -114t-154 -40q-101 0 -164 33l25 87q54 -32 134 -32zM176 -67v21h94q3 -15 3 -26q0 -5 -0.5 -12t-0.5 -9q-4 -51 -34 -78t-76 -31q-14 -2 -22 -1q-20 0 -38 6v69q40 0 57 14t17 47z" />
    <glyph glyph-name="uni021A" unicode="&#x21a;" horiz-adv-x="566" 
d="M16 696h519v-91h-204v-609h-111v609h-204v91zM233 -67v21h94q1 -6 2 -15t1 -11q0 -5 -0.5 -12t-0.5 -9q-4 -51 -34 -78t-76 -31q-15 -2 -22 -1q-20 0 -38 6v69q40 0 57 14t17 47z" />
    <glyph glyph-name="uni021B" unicode="&#x21b;" horiz-adv-x="403" 
d="M183 689v-164h183v-85h-183v-243q0 -72 21.5 -97.5t67.5 -25.5q51 0 97 25q2 -14 8 -41.5t8 -41.5q-52 -30 -122 -31q-58 -1 -96.5 14.5t-58 50t-26.5 75t-7 99.5h-8v66l8 178v199zM190 -67v21h95q1 -6 2 -15t1 -11q0 -5 -0.5 -12t-0.5 -9q-4 -51 -34 -78t-76 -31
q-14 -2 -23 -1q-19 0 -37 6v69q40 0 56.5 14t16.5 47z" />
    <glyph glyph-name="uni021C" unicode="&#x21c;" horiz-adv-x="536" 
d="M211 620q-91 0 -166 -47l-38 91q90 53 204 53q108 0 175 -51t74 -151q2 -33 -2 -56q-9 -50 -42 -90.5t-84 -61.5q75 -25 117 -81.5t42 -131.5q0 -62 -22 -112t-58.5 -82.5t-87.5 -54t-106.5 -30.5t-116.5 -9q-59 0 -83 5l7 97q25 -4 70 -4q66 0 119.5 12.5t96.5 50
t49 97.5q17 35 10 73q-18 61 -76.5 87t-124.5 26h-52v95h43q80 0 135 37t55 110q0 61 -36 94.5t-102 33.5z" />
    <glyph glyph-name="uni021D" unicode="&#x21d;" horiz-adv-x="434" 
d="M160 448q-67 -1 -131 -28l-25 89q66 31 159 31q96 0 154.5 -45t58.5 -141q0 -47 -29 -86t-73 -58q126 -37 126 -162q0 -67 -35 -116t-94 -75t-124 -38.5t-137 -12.5l-6 92q39 2 69 4.5t74 12t72.5 24.5t49.5 43.5t21 66.5q0 106 -160 106h-28v90q166 0 166 109
q0 94 -108 94z" />
    <glyph glyph-name="uni021E" unicode="&#x21e;" horiz-adv-x="704" 
d="M503 405v291h111v-700h-111v319h-312v-319h-112v700h112v-291h312zM248 941l104 -92l104 92l47 -54l-151 -154l-150 154z" />
    <glyph glyph-name="uni021F" unicode="&#x21f;" horiz-adv-x="575" 
d="M182 -4h-108v773l53 6.5t55 6.5v-267q58 20 108 20q125 3 172.5 -60.5t47.5 -185.5v-293h-108v268q0 103 -25.5 143.5t-98.5 40.5q-24 0 -55 -6t-41 -11v-435zM320 914l-138 -109l-139 109l37 56l102 -67l101 67z" />
    <glyph glyph-name="uni0220" unicode="&#x220;" horiz-adv-x="675" 
d="M600 431v-624h-109v608q0 106 -39 154.5t-127 48.5q-82 0 -137 -16v-610h-109v681q76 43 256 43q265 0 265 -285z" />
    <glyph glyph-name="uni0221" unicode="&#x221;" horiz-adv-x="727" 
d="M582 31q-34 0 -66 -37v-20q0 -38 18 -58.5t49 -20.5t47 19t16 49q0 29 -16.5 48.5t-47.5 19.5zM516 786v-696q32 29 81 29q64 0 104.5 -43t40.5 -112q0 -74 -44 -115.5t-115 -41.5q-113 0 -149 93l-72 -84l-58 53l81 97q1 7 4 16.5t4 13.5q-53 -13 -112 -10
q-109 8 -173 80t-64 193q0 127 64 203.5t178 76.5q72 0 124 -33v262zM410 91v318q-52 35 -113 35q-75 0 -109.5 -49.5t-34.5 -133.5q0 -87 43 -136t117 -49q49 0 97 15z" />
    <glyph glyph-name="uni0222" unicode="&#x222;" horiz-adv-x="670" 
d="M335 79q82 0 130.5 31t48.5 94q0 64 -48 94.5t-131 30.5t-131 -31t-48 -94t48.5 -94t130.5 -31zM335 -15q-148 0 -220.5 57t-72.5 160q0 67 39 113t95 67q-87 41 -87 161q0 80 21 158h105q-18 -92 -18 -151q0 -64 33 -96t105 -32t105 32t33 96q0 59 -18 151h106
q20 -83 20 -158q0 -120 -87 -161q57 -21 95.5 -67t38.5 -113q0 -103 -72.5 -160t-220.5 -57z" />
    <glyph glyph-name="uni0223" unicode="&#x223;" horiz-adv-x="591" 
d="M295 73q66 0 104 43t38 119q0 75 -38 118.5t-104 43.5t-103.5 -43.5t-37.5 -118.5q0 -76 37.5 -119t103.5 -43zM295 489q56 0 84 34t28 108q0 73 -15 153h102q18 -86 18 -165q0 -127 -82 -173q52 -28 84 -83t32 -130q0 -115 -67.5 -184.5t-183.5 -69.5
q-115 0 -182.5 69.5t-67.5 184.5q0 75 32 130t84 83q-82 46 -82 173q0 79 18 165h102q-16 -85 -16 -153q0 -142 112 -142z" />
    <glyph glyph-name="uni0224" unicode="&#x224;" horiz-adv-x="574" 
d="M333 -101q17 -7 43 -7q35 0 47.5 22t14.5 78h-409v73q61 117 174 281.5t195 258.5h-351v96h488v-83q-18 -22 -25 -33q-77 -92 -180 -236.5t-171 -260.5h386v-85q0 -98 -26.5 -144.5t-102.5 -51.5q-24 -3 -47 0q-24 2 -50 11z" />
    <glyph glyph-name="uni0225" unicode="&#x225;" horiz-adv-x="468" 
d="M344 -8h-315v69q44 81 122.5 190t142.5 186h-251v91h389v-78q-45 -48 -131 -160.5t-143 -206.5h282v-91q0 -91 -25.5 -135.5t-99.5 -48.5q-48 -6 -92 10l16 80q17 -7 47 -7q34 0 45.5 23t12.5 78z" />
    <glyph glyph-name="uni0226" unicode="&#x226;" horiz-adv-x="663" 
d="M627 -4h-116l-61 186h-268q-40 -111 -63 -186h-105q168 478 258 698h96q69 -171 259 -698zM427 260l-83 239q-6 16 -11.5 35t-9 30t-6.5 17q-2 -4 -15 -42q-16 -50 -50 -145t-47 -134h222zM308 762q-28 0 -46.5 18.5t-18.5 47.5q0 30 18.5 48.5t46.5 18.5t46.5 -18.5
t18.5 -48.5q0 -29 -18.5 -47.5t-46.5 -18.5z" />
    <glyph glyph-name="uni0227" unicode="&#x227;" horiz-adv-x="521" 
d="M446 17q-74 -31 -197 -31q-101 0 -156 41.5t-55 124.5q0 164 236 182q18 1 72 -2q-1 67 -24.5 100t-87.5 33q-69 0 -134 -29l-19 76q73 33 166 33q91 0 142 -44t55 -130q2 -19 2 -61v-293zM347 71v192q-35 4 -76 1q-62 -8 -96.5 -32t-34.5 -78q0 -94 118 -94q53 0 89 11z
M259 604q-28 0 -46.5 18.5t-18.5 47.5q0 30 18.5 48.5t46.5 18.5t46.5 -18.5t18.5 -48.5q0 -29 -18.5 -47.5t-46.5 -18.5z" />
    <glyph glyph-name="uni0228" unicode="&#x228;" horiz-adv-x="569" 
d="M355 -60q44 -29 41 -70q-14 -75 -114 -75q-49 0 -86 15l15 72q26 -12 65 -12q14 0 20.5 5.5t5.5 16.5q-3 12 -14 19t-40 18q16 42 27 63h-196v709h436v-96h-327v-194h291v-95h-291v-228h352v-96h-185q6 -19 0 -52z" />
    <glyph glyph-name="uni0229" unicode="&#x229;" horiz-adv-x="558" 
d="M337 -19q6 -19 1 -41q43 -28 42 -68q-12 -77 -116 -77q-48 0 -85 15l14 72q26 -12 66 -12q13 0 20 5.5t6 16.5q-3 12 -14 19t-40 18q8 28 23 56q-107 17 -158.5 89t-51.5 185q0 133 71 207t170 74q107 0 166.5 -67.5t59.5 -198.5q0 -8 -1 -23.5t-1 -22.5h-353
q12 -129 122 -149q24 -5 53 -3q68 1 129 29l17 -90q-53 -30 -140 -34zM157 313h247q-3 64 -33 99t-84 35t-89.5 -38.5t-40.5 -95.5z" />
    <glyph glyph-name="uni022A" unicode="&#x22a;" horiz-adv-x="778" 
d="M643 345q0 -166 -79.5 -263.5t-216.5 -97.5t-216.5 97.5t-79.5 263.5q0 165 80 263.5t216 98.5q137 0 216.5 -98.5t79.5 -263.5zM532 347q0 121 -47 198t-138 77t-138 -77t-47 -198t46 -198t139 -77t139 77t46 198zM199 919v76h293v-76h-293zM304 809q0 -27 -17 -43.5
t-42 -16.5q-26 0 -43 17t-17 44q0 29 17 45t43 16t42.5 -16.5t16.5 -45.5zM506 810q0 -27 -17 -44t-43 -17q-25 0 -41.5 16.5t-17.5 45.5q1 29 17 44.5t41 15.5t43 -17.5t18 -43.5z" />
    <glyph glyph-name="uni022B" unicode="&#x22b;" 
d="M513 264q0 -125 -62 -202t-171 -77q-110 0 -172 76.5t-62 202.5t62.5 203.5t170.5 77.5q109 0 171.5 -77.5t62.5 -203.5zM407 265q0 88 -31 144t-96 56q-66 0 -98 -56t-32 -144q0 -89 32 -143.5t98 -54.5q65 0 96 54.5t31 143.5zM131 755v76h293v-76h-293zM236 645
q0 -26 -17 -42.5t-42 -16.5q-27 0 -43.5 16.5t-16.5 43.5q0 29 17 45t42 16q27 0 43.5 -16.5t16.5 -45.5zM438 646q0 -27 -17 -43.5t-43 -16.5q-25 0 -42 16.5t-17 44.5q1 29 16.5 44.5t41.5 16.5q25 0 43 -17.5t18 -44.5z" />
    <glyph glyph-name="uni022C" unicode="&#x22c;" horiz-adv-x="778" 
d="M643 345q0 -166 -79.5 -263.5t-216.5 -97.5t-216.5 97.5t-79.5 263.5q0 165 80 263.5t216 98.5q137 0 216.5 -98.5t79.5 -263.5zM532 347q0 121 -47 198t-138 77t-138 -77t-47 -198t46 -198t139 -77t139 77t46 198zM253 868q38 0 84 -18t91 -17q57 4 109 41l15 -34
q-36 -92 -120 -92q-24 0 -69.5 19t-64.5 19q-13 0 -42 -9.5t-44 -28.5l-51 55q19 22 27.5 31t26.5 20t38 14zM520 912h-320v90h320v-90z" />
    <glyph glyph-name="uni022D" unicode="&#x22d;" 
d="M513 264q0 -125 -62 -202t-171 -77q-110 0 -172 76.5t-62 202.5t62.5 203.5t170.5 77.5q109 0 171.5 -77.5t62.5 -203.5zM407 265q0 88 -31 144t-96 56q-66 0 -98 -56t-32 -144q0 -89 32 -143.5t98 -54.5q65 0 96 54.5t31 143.5zM338 598q-28 0 -72 19t-55 19
q-26 0 -51 -48l-62 35q15 39 43.5 68.5t69.5 29.5q31 0 73.5 -19t53.5 -19q26 0 51 49l61 -36q-19 -36 -48 -67t-64 -31zM114 771v76h293v-76h-293z" />
    <glyph glyph-name="uni022E" unicode="&#x22e;" horiz-adv-x="778" 
d="M644 345q0 -166 -79.5 -263.5t-216.5 -97.5t-216.5 97.5t-79.5 263.5q0 165 79.5 263.5t216.5 98.5t216.5 -98.5t79.5 -263.5zM533 347q0 121 -47 198t-138 77q-92 0 -138.5 -77t-46.5 -198t46 -198t139 -77t139 77t46 198zM347 786q-28 0 -46.5 18.5t-18.5 47.5
q0 30 18.5 48.5t46.5 18.5t46.5 -18.5t18.5 -48.5q0 -29 -18.5 -47.5t-46.5 -18.5z" />
    <glyph glyph-name="uni022F" unicode="&#x22f;" 
d="M513 264q0 -125 -62 -202t-171 -77q-110 0 -172 76.5t-62 202.5t62.5 203.5t170.5 77.5q109 0 171.5 -77.5t62.5 -203.5zM407 265q0 88 -31 144t-96 56q-66 0 -98 -56t-32 -144q0 -89 32 -143.5t98 -54.5q65 0 96 54.5t31 143.5zM294 620q-28 0 -46.5 18.5t-18.5 48.5
t18.5 48t46.5 18t47 -18t19 -48t-19 -48.5t-47 -18.5z" />
    <glyph glyph-name="uni0230" unicode="&#x230;" horiz-adv-x="778" 
d="M643 345q0 -166 -79.5 -263.5t-216.5 -97.5t-216.5 97.5t-79.5 263.5q0 165 80 263.5t216 98.5q137 0 216.5 -98.5t79.5 -263.5zM532 347q0 121 -47 198t-138 77t-138 -77t-47 -198t46 -198t139 -77t139 77t46 198zM211 916v78h271v-78h-271zM406 810q0 -27 -16.5 -44
t-42.5 -17t-43 17t-17 44t17 44.5t43 17.5t42.5 -17t16.5 -45z" />
    <glyph glyph-name="uni0231" unicode="&#x231;" 
d="M513 264q0 -125 -62 -202t-171 -77q-110 0 -172 76.5t-62 202.5t62.5 203.5t170.5 77.5q109 0 171.5 -77.5t62.5 -203.5zM407 265q0 88 -31 144t-96 56q-66 0 -98 -56t-32 -144q0 -89 32 -143.5t98 -54.5q65 0 96 54.5t31 143.5zM143 762v78h270v-78h-270zM338 655
q0 -27 -17 -43.5t-43 -16.5q-25 0 -42 16.5t-17 43.5q0 28 17 45.5t43 17.5t42.5 -17.5t16.5 -45.5z" />
    <glyph glyph-name="uni0232" unicode="&#x232;" horiz-adv-x="595" 
d="M546 694q-125 -242 -217 -404v-294h-107v293q-115 202 -218 405h120q76 -169 155 -312q74 136 157 312h110zM427 788h-298v85h298v-85z" />
    <glyph glyph-name="uni0233" unicode="&#x233;" horiz-adv-x="507" 
d="M483 533q-92 -326 -188 -582q-26 -63 -52.5 -92.5t-69.5 -29.5q-44 0 -103 28l20 68q46 -23 60 -23q17 0 30 15.5t19 32.5t13 41q1 5 2 8q-115 271 -192 534h109q41 -162 107 -350l9.5 -30.5l9 -29.5t6.5 -18q2 2 5.5 14.5t8 32.5t8.5 31q46 147 98 350h100zM401 633
h-297v85h297v-85z" />
    <glyph glyph-name="uni0234" unicode="&#x234;" horiz-adv-x="400" 
d="M255 31q-34 0 -67 -37v-20q0 -38 18 -58.5t49 -20.5t47 19t16 49q0 29 -16.5 48.5t-46.5 19.5zM105 -99l-73 -85l-58 53l109 128v52v719l105 18v-696q33 29 81 29q64 0 104.5 -43t40.5 -112q0 -74 -44 -115.5t-115 -41.5q-114 0 -150 94z" />
    <glyph glyph-name="uni0235" unicode="&#x235;" horiz-adv-x="719" 
d="M574 31q-34 0 -67 -37v-20q0 -38 18 -58.5t50 -20.5q30 0 46 19t16 49q0 29 -16.5 48.5t-46.5 19.5zM507 291v-201q33 29 81 29q54 0 92 -31t47 -84q6 -30 3 -60q-6 -65 -48 -101t-107 -36q-115 0 -151 94l-73 -85l-58 53l110 128q-1 15 -1 39v235q0 96 -27.5 134.5
t-97.5 38.5q-58 0 -99 -11v-441h-105v516q106 30 214 30q120 0 170 -64t50 -183z" />
    <glyph glyph-name="uni0236" unicode="&#x236;" horiz-adv-x="422" 
d="M188 437v-347q32 29 81 29q64 0 104.5 -43t40.5 -112q0 -74 -44 -115.5t-115 -41.5q-114 0 -150 94l-73 -85l-58 53l109 128v43v633l105 18v-163h198v-91h-198zM255 31q-34 0 -67 -37v-21q0 -38 18 -58.5t49 -20.5t47 19t16 49q0 29 -16.5 49t-46.5 20z" />
    <glyph glyph-name="uni0237" unicode="&#x237;" horiz-adv-x="252" 
d="M-2 -195q-37 0 -73 14l15 89q30 -10 53 -10q46 0 63 26t17 84v520h105v-519q0 -105 -43.5 -154.5t-136.5 -49.5z" />
    <glyph glyph-name="uni0238" unicode="&#x238;" horiz-adv-x="926" 
d="M516 409v-324q31 -11 97 -11q74 0 117 49.5t43 137.5q0 183 -144 183q-61 0 -113 -35zM516 786v-280q57 33 125 33q113 0 177 -77t64 -203q0 -129 -72.5 -204.5t-195.5 -75.5q-77 0 -151 24q-74 -24 -151 -24q-122 0 -195 75.5t-73 204.5q0 127 64 203.5t178 76.5
q72 0 124 -33v262zM410 85v324q-52 35 -113 35q-75 0 -109.5 -49.5t-34.5 -133.5q0 -88 43 -137.5t117 -49.5q68 0 97 11z" />
    <glyph glyph-name="uni0239" unicode="&#x239;" horiz-adv-x="926" 
d="M516 433v-323q52 -35 113 -35q144 0 144 183q0 88 -43 137t-117 49q-66 0 -97 -11zM516 13v-206h-106v206q-57 -33 -125 -33q-113 0 -177 76.5t-64 202.5q0 128 73 203.5t195 75.5q77 0 151 -24q72 24 151 24q123 0 195.5 -75t72.5 -204q0 -126 -64 -202.5t-177 -76.5
q-68 0 -125 33zM410 110v323q-29 11 -97 11q-74 0 -117 -49t-43 -137q0 -84 34.5 -133.5t109.5 -49.5q61 0 113 35z" />
    <glyph glyph-name="uni023A" unicode="&#x23a;" horiz-adv-x="693" 
d="M489 777l82 -25l-88 -242q28 -65 57.5 -141.5l74.5 -196.5l66 -176h-112l-62 171h-149l-98 -274l-83 28l88 246h-87q-15 -38 -62 -171h-105q171 471 284 706h93l40 -89zM205 250h91l88 239l-42 99q-68 -150 -137 -338zM390 250h88l-46 120z" />
    <glyph glyph-name="uni023B" unicode="&#x23b;" horiz-adv-x="637" 
d="M503 789l82 -27l-30 -77l34 -15q20 -5 30 -10l-36 -97q-37 21 -62 30l-201 -501q46 -15 97 -12q94 4 156 38l31 -93q-27 -18 -86.5 -33t-134.5 -15q-53 0 -99 18l-41 -105l-82 28l42 106q-153 94 -153 323q0 171 97.5 270.5t240.5 99.5q47 0 82 -8zM164 347
q0 -146 77 -218l195 484q-29 3 -53 2q-104 -4 -161.5 -75.5t-57.5 -192.5z" />
    <glyph glyph-name="uni023C" unicode="&#x23c;" horiz-adv-x="484" 
d="M305 -20q-40 0 -73 9l-27 -85l-76 23l29 90q-114 69 -114 242q0 125 69 203t186 78q5 0 13.5 -0.5t12.5 -0.5l28 84l76 -22l-25 -76q38 -12 57 -21l-25 -89q-40 18 -60 22l-114 -354q33 -8 66 -7q57 1 109 26l19 -91q-64 -31 -151 -31zM134 278q-5 -55 9.5 -103t46.5 -73
l114 355q-76 2 -120.5 -44.5t-49.5 -134.5z" />
    <glyph glyph-name="uni023D" unicode="&#x23d;" horiz-adv-x="532" 
d="M201 88h321v-96h-430v329h-80v86h80v294h109v-294h156v-86h-156v-233z" />
    <glyph glyph-name="uni023E" unicode="&#x23e;" horiz-adv-x="560" 
d="M307 447l58 163h-58v-163zM114 -53l85 304v359h-176v84h374l21 62l70 -9l19 -40l24 -13l-5 -47l-52 -27l-96 -267l-15 -246l-101 -151l-58 89l-42 -109z" />
    <glyph glyph-name="uni023F" unicode="&#x23f;" horiz-adv-x="444" 
d="M334 -103q20 0 49 5l11 -85q-28 -8 -64 -10q-27 0 -37 2q-42 4 -74 24.5t-72 63.5l-34 40.5l-29 35.5t-26 25.5t-33 23.5l32 82q65 -32 143 -32q106 0 106 60q0 30 -21.5 46t-90.5 44h1q-38 15 -60.5 26.5t-47 30.5t-35.5 45t-11 61q0 71 52 112.5t142 41.5t153 -28
l-21 -90q-59 24 -121 26q-27 0 -40 -2q-60 -12 -60 -55q0 -16 5.5 -27.5t23 -22.5t30 -16.5l46.5 -19.5q86 -33 123.5 -67t37.5 -103q0 -65 -45 -101t-128 -41q-27 -2 -52 1q8 -6 50 -52q22 -23 42.5 -33.5t54.5 -10.5z" />
    <glyph glyph-name="uni0240" unicode="&#x240;" horiz-adv-x="467" 
d="M469 -96l11 -86q-26 -7 -58 -9q-32 -1 -58 6q-32 7 -61 28t-52 45.5t-48 48t-60.5 39.5t-78.5 16h-35v69q44 81 122.5 190t142.5 186h-251v91h389v-75q-53 -61 -140 -175t-144 -209q42 -8 74.5 -29.5t70.5 -58.5q4 -4 16 -17t17 -17.5l15.5 -14.5t17.5 -14t17.5 -9.5
t21 -7.5t21.5 -2q26 0 50 5z" />
    <glyph glyph-name="uni0241" unicode="&#x241;" horiz-adv-x="483" 
d="M230 193v-201h-109v210q0 36 7 65t16.5 47.5t31 38.5t37.5 31t50 32q44 27 62.5 50t18.5 60q0 46 -37 69.5t-95 23.5q-87 0 -169 -49l-36 91q31 20 90.5 38t116.5 18q118 0 180.5 -49t62.5 -139q0 -47 -19 -83.5t-41 -55t-65 -46.5q-61 -40 -81.5 -67.5t-20.5 -83.5z" />
    <glyph glyph-name="uni0242" unicode="&#x242;" horiz-adv-x="418" 
d="M208 111v-119h-106v127q0 56 22 89.5t65 62.5l33.5 22t29.5 20t19.5 17t15.5 22.5t4 26.5q0 67 -104 67q-85 0 -152 -45l-35 88q26 18 79 34.5t106 16.5q104 0 158 -41.5t54 -117.5q0 -55 -27.5 -88.5t-77.5 -65.5v1q-32 -21 -46.5 -33.5t-26 -33.5t-11.5 -50z" />
    <glyph glyph-name="uni0243" unicode="&#x243;" horiz-adv-x="652" 
d="M281 -15q-105 0 -192 21v154h-77v79h77v449q89 20 192 20q86 0 148.5 -17t103.5 -61.5t41 -114.5q0 -50 -24 -87.5t-66 -55.5q124 -39 124 -173q0 -214 -327 -214zM327 315l-103 -3v-90l93 -4v-41h-93v-93q38 -4 85 -3q186 4 186 120q0 63 -42 88t-126 26zM197 609v-202
h108q76 0 117.5 23.5t41.5 81.5q0 102 -176 102q-62 0 -91 -5z" />
    <glyph glyph-name="uni0244" unicode="&#x244;" horiz-adv-x="712" 
d="M355 -23q-138 0 -203.5 76.5t-65.5 204.5v78h-74v86h74v279h110v-279h321v279h109v-279h75v-86h-75v-78q0 -128 -66 -204.5t-205 -76.5zM356 75q73 0 115.5 45.5t44.5 136.5q0 7 0.5 20.5t0.5 21.5v37h-321v-37v-42q3 -92 45.5 -137t114.5 -45z" />
    <glyph glyph-name="uni0245" unicode="&#x245;" horiz-adv-x="651" 
d="M653 -8h-120q-126 372 -210 570q-83 -198 -209 -570h-115q149 428 277 709h93l36 -70q107 -239 248 -639z" />
    <glyph glyph-name="uni0246" unicode="&#x246;" horiz-adv-x="579" 
d="M548 -8h-287l-46 -114l-77 29l34 85h-93v709h382l31 75l78 -27l-140 -339h57v-94h-94l-94 -228h249v-96zM188 605v-195h154l81 195h-235zM188 316v-210l32 6l85 204h-117z" />
    <glyph glyph-name="uni0247" unicode="&#x247;" horiz-adv-x="562" 
d="M47 260q0 135 84.5 216t203.5 59l26 84l79 -21l-27 -82q69 -29 97.5 -86t28.5 -154q0 -23 -2 -41l-212 -6l-49 -150q50 -15 105.5 -7.5t106.5 30.5l16 -84q-45 -27 -117 -33.5t-137 8.5l-27 -78l-77 17l27 85q-126 61 -126 243zM156 304l106 1l49 154q-62 8 -104 -39
t-51 -116zM239 229l-90 -1q0 -89 50 -124zM347 306l93 1q3 98 -49 137z" />
    <glyph glyph-name="uni0248" unicode="&#x248;" horiz-adv-x="517" 
d="M425 701v-295h80v-87h-80v-97q0 -245 -231 -245q-118 0 -196 63l44 89q69 -54 144 -54q68 0 98.5 35.5t30.5 118.5v90h-141v87h141v295h110z" />
    <glyph glyph-name="uni0249" unicode="&#x249;" horiz-adv-x="276" 
d="M10 -195q-37 0 -73 14l15 89q23 -8 44 -9q28 0 39 3q32 8 41 38t9 97v199h-93v81h93v211h106v-211h78v-81h-78v-198q0 -123 -40 -178t-141 -55zM205 674q0 -31 -19.5 -50t-48.5 -19t-48.5 19t-19.5 50t19.5 50t48.5 19t48.5 -19t19.5 -50z" />
    <glyph glyph-name="uni024A" unicode="&#x24a;" horiz-adv-x="795" 
d="M615 347q0 126 -61 198.5t-165 72.5t-164.5 -73t-60.5 -198t60.5 -198t164.5 -73q105 0 165.5 72.5t60.5 198.5zM682 -79q-63 52 -63 168q-36 -50 -98 -81t-135 -31q-143 0 -239.5 97.5t-96.5 272.5t97.5 272.5t241.5 97.5q146 0 242 -97.5t96 -272.5v-368
q0 -42 12.5 -61.5t43.5 -19.5q26 0 49 9l14 -89q-26 -11 -59 -12q-61 -1 -81.5 28t-23.5 87z" />
    <glyph glyph-name="uni024B" unicode="&#x24b;" 
d="M410 -27l-22 37q-42 -30 -103 -30q-113 0 -177 76.5t-64 202.5q0 128 73 203.5t195 75.5q110 0 204 -30v-532q0 -41 12 -60t41 -19q18 0 48 8l15 -86q-37 -13 -77 -13q-81 0 -112 41.5t-33 125.5zM410 110v323q-29 11 -97 11q-74 0 -117 -49t-43 -137q0 -84 34.5 -133.5
t109.5 -49.5q61 0 113 35z" />
    <glyph glyph-name="uni024C" unicode="&#x24c;" horiz-adv-x="645" 
d="M337 268q-11 -2 -50 -2h-86v-274h-109v274h-80v91h80v331q86 20 190 20q306 0 306 -226q0 -140 -139 -192q125 -163 186 -298h-120q-70 132 -178 276zM291 611q-55 0 -90 -5v-249h38q49 0 76.5 1.5t62.5 8t53 19.5t31 37t13 60q0 128 -184 128z" />
    <glyph glyph-name="uni024D" unicode="&#x24d;" horiz-adv-x="395" 
d="M277 538q69 0 117 -19l-21 -92q-51 25 -133 15q-37 -4 -54 -13v-151h148v-81h-148v-205h-105v205h-74v81h74v222q89 38 196 38z" />
    <glyph glyph-name="uni024E" unicode="&#x24e;" horiz-adv-x="638" 
d="M374 -8h-110v284q-57 85 -117 187h-127v87h79q-56 98 -83 151h126q30 -69 76 -151h205q44 79 79 151h120l-85 -151h79v-87h-128q-37 -65 -114 -185v-286zM239 463l81 -121l80 121h-161z" />
    <glyph glyph-name="uni024F" unicode="&#x24f;" horiz-adv-x="546" 
d="M527 251h-90q-51 -163 -99 -271q-39 -87 -80.5 -127t-111.5 -46q-20 -3 -48 -1q-42 3 -78 19l20 88q40 -17 73 -17q48 0 76 23t51 79q-61 111 -117 253h-97v81h68q-34 89 -60 196h111q24 -99 58 -196h156q17 59 48 196h107q-23 -99 -51 -196h64v-81zM217 238
q58 -148 76 -182q16 46 57 181q-97 0 -133 1z" />
    <glyph glyph-name="uni0259" unicode="&#x259;" horiz-adv-x="558" 
d="M46 276l344 25q-14 160 -161 160q-77 0 -137 -30l-21 78q62 36 167 36q124 0 190 -73.5t66 -206.5t-65.5 -206.5t-166.5 -73.5q-94 0 -149.5 55.5t-63.5 163.5q-2 31 -3 72zM147 213q1 -74 31 -111.5t85 -37.5q58 0 93 44.5t36 123.5z" />
    <glyph glyph-name="uni0292" unicode="&#x292;" horiz-adv-x="471" 
d="M116 152v50l2 24q97 108 165 211h-268v91h403v-66q-72 -112 -177 -234q88 -12 144 -60t56 -141q0 -108 -69.5 -164t-193.5 -56q-117 0 -187 38l26 90q68 -33 159 -33q77 0 117 32.5t40 94.5q0 123 -175 123h-42z" />
    <glyph glyph-name="uni02BB" unicode="&#x2bb;" horiz-adv-x="242" 
d="M125 807l51 -25q-38 -62 -40 -100q56 -7 56 -57q0 -23 -15.5 -38.5t-43.5 -19.5q-15 -3 -33.5 1.5t-28.5 15.5q-20 23 -20 55q0 76 74 168z" />
    <glyph glyph-name="apostrophe" unicode="&#x2bc;" horiz-adv-x="347" 
d="M133 784h100q2 -8 7 -32q-3 -58 -19.5 -103t-50.5 -98l-75 27q43 89 43 160q0 29 -5 46z" />
    <glyph glyph-name="circumflex" unicode="&#x2c6;" horiz-adv-x="382" 
d="M191 663l-104 -92l-47 53l151 155l150 -155l-46 -53z" />
    <glyph glyph-name="caron" unicode="&#x2c7;" horiz-adv-x="379" 
d="M87 783l104 -92l105 92l46 -53l-151 -154l-150 154z" />
    <glyph glyph-name="uni02C8" unicode="&#x2c8;" horiz-adv-x="192" 
d="M50 597v205h92v-205h-92z" />
    <glyph glyph-name="uni02C9" unicode="&#x2c9;" horiz-adv-x="376" 
d="M337 633h-298v85h298v-85z" />
    <glyph glyph-name="breve" unicode="&#x2d8;" horiz-adv-x="386" 
d="M193 600q-65 0 -105 41.5t-37 117.5h76q3 -75 66 -75t66 75h75q0 -78 -38 -118.5t-103 -40.5z" />
    <glyph glyph-name="dotaccent" unicode="&#x2d9;" horiz-adv-x="340" 
d="M170 608q-28 0 -46.5 18.5t-18.5 47.5q0 30 18.5 48.5t46.5 18.5t46.5 -18.5t18.5 -48.5q0 -29 -18.5 -47.5t-46.5 -18.5z" />
    <glyph glyph-name="ring" unicode="&#x2da;" horiz-adv-x="361" 
d="M291 682q0 -49 -32 -79t-79 -30q-46 0 -78 29.5t-32 79.5q0 49 32 79t78 30t78.5 -30t32.5 -79zM226 682q0 22 -13 35t-33 13q-19 0 -32 -13t-13 -35t12.5 -34.5t32.5 -12.5t33 12.5t13 34.5z" />
    <glyph glyph-name="ogonek" unicode="&#x2db;" horiz-adv-x="358" 
d="M177 -204q-114 0 -114 84q0 73 97 138h89q-21 -25 -35 -47q-4 -2 -5 -3q1 1 2 1q-45 -48 -46 -65q1 -24 33 -24q19 0 46 9l9 -79q-37 -14 -76 -14z" />
    <glyph glyph-name="tilde" unicode="&#x2dc;" horiz-adv-x="375" 
d="M252 586q-28 0 -72 18.5t-55 18.5q-26 0 -51 -48l-62 35q15 38 44 68t69 30q31 0 73.5 -19t53.5 -19q26 0 51 49l61 -36q-18 -36 -47.5 -66.5t-64.5 -30.5z" />
    <glyph glyph-name="hungarumlaut" unicode="&#x2dd;" horiz-adv-x="395" 
d="M196 614l129 179l71 -61l-142 -163zM219 733l-140 -164l-57 45l127 180z" />
    <glyph glyph-name="gravecomb" unicode="&#x300;" horiz-adv-x="0" 
d="M-266 576h-66l-150 189h132z" />
    <glyph glyph-name="acutecomb" unicode="&#x301;" horiz-adv-x="0" 
d="M-274 576h-66l85 189h131z" />
    <glyph glyph-name="uni0302" unicode="&#x302;" horiz-adv-x="0" 
d="M-308 674l-104 -92l-47 53l151 155l150 -155l-45 -53z" />
    <glyph glyph-name="tildecomb" unicode="&#x303;" horiz-adv-x="0" 
d="M-250 614q-29 0 -72.5 19t-54.5 19q-16 0 -27.5 -12t-24.5 -36l-61 35q14 38 43 68t69 30q31 0 74 -19t54 -19q26 0 51 49l61 -36q-19 -36 -48 -67t-64 -31z" />
    <glyph glyph-name="uni0304" unicode="&#x304;" horiz-adv-x="0" 
d="M-165 633h-297v85h297v-85z" />
    <glyph glyph-name="uni0306" unicode="&#x306;" horiz-adv-x="0" 
d="M-311 613q-65 0 -105 41t-37 118h76q3 -75 66 -75t66 75h76q0 -78 -38 -118.5t-104 -40.5z" />
    <glyph glyph-name="uni0307" unicode="&#x307;" horiz-adv-x="0" 
d="M-316 620q-28 0 -46.5 18.5t-18.5 48.5t18.5 48t46.5 18t47 -18t19 -48t-19 -48.5t-47 -18.5z" />
    <glyph glyph-name="uni0308" unicode="&#x308;" horiz-adv-x="0" 
d="M-342 652q0 -29 -18 -47t-45 -18q-28 0 -46 18t-18 47t18 46.5t46 17.5q27 0 45 -17.5t18 -46.5zM-139 652q0 -29 -18 -47t-45 -18q-28 0 -45.5 17.5t-17.5 47.5q0 29 18 46.5t45 17.5t45 -17.5t18 -46.5z" />
    <glyph glyph-name="uni030A" unicode="&#x30a;" horiz-adv-x="0" 
d="M-198 694q0 -50 -32 -80t-78 -30t-78.5 30t-32.5 80q0 49 32.5 79t78.5 30t78 -30t32 -79zM-256 694q0 25 -15 39.5t-37 14.5q-23 0 -38 -14.5t-15 -39.5q0 -26 15 -40.5t38 -14.5q22 0 37 14.5t15 40.5z" />
    <glyph glyph-name="uni030B" unicode="&#x30b;" horiz-adv-x="0" 
d="M-294 625l129 179l71 -61l-142 -163zM-271 744l-140 -164l-57 45l127 180z" />
    <glyph glyph-name="uni030C" unicode="&#x30c;" horiz-adv-x="0" 
d="M-408 797l104 -92l105 92l46 -53l-151 -154l-150 154z" />
    <glyph glyph-name="uni030D" unicode="&#x30d;" horiz-adv-x="0" 
d="M-351 597v205h92v-205h-92z" />
    <glyph glyph-name="uni030E" unicode="&#x30e;" horiz-adv-x="0" 
d="M-354 597v205h92v-205h-92zM-374 597v205h92v-205h-92z" />
    <glyph glyph-name="uni030F" unicode="&#x30f;" horiz-adv-x="0" 
d="M-468 805l128 -180l-57 -45l-142 163zM-223 580l-139 164l69 61l128 -180z" />
    <glyph glyph-name="uni0310" unicode="&#x310;" horiz-adv-x="0" 
d="M-308 654q65 0 105 41.5t37 117.5h-49q-1 -30 -22.5 -57.5t-70.5 -27.5q-48 0 -69.5 27.5t-22.5 57.5h-49q-4 -76 36 -117.5t105 -41.5zM-308 764q-28 0 -46.5 18.5t-18.5 47.5q0 30 18.5 48.5t46.5 18.5t46.5 -18.5t18.5 -48.5q0 -29 -18.5 -47.5t-46.5 -18.5z" />
    <glyph glyph-name="uni0311" unicode="&#x311;" horiz-adv-x="0" 
d="M-322 744q65 0 105 -41.5t36 -117.5h-48q-1 30 -23 57.5t-70 27.5q-49 0 -70 -27t-22 -58h-50q-3 77 37 118t105 41z" />
    <glyph glyph-name="uni0312" unicode="&#x312;" horiz-adv-x="0" 
d="M-318 815l51 -25q-37 -61 -40 -100q57 -8 56 -56q0 -23 -15.5 -39t-43.5 -19q-14 -3 -32.5 1.5t-28.5 14.5q-21 26 -21 55q2 78 74 168z" />
    <glyph glyph-name="uni0313" unicode="&#x313;" horiz-adv-x="0" 
d="M-340 493l-35 30q50 42 61 88q-19 4 -30.5 17.5t-11.5 30.5q0 26 16 42t41 16q33 0 47.5 -24.5t11.5 -60.5q-8 -72 -100 -139z" />
    <glyph glyph-name="uni0314" unicode="&#x314;" horiz-adv-x="0" 
d="M-237 523l-35 -30q-91 68 -100 139q-3 36 11.5 60.5t47.5 24.5q26 0 41.5 -16t15.5 -42q0 -17 -11 -30.5t-30 -17.5q9 -43 60 -88z" />
    <glyph glyph-name="uni0320" unicode="&#x320;" horiz-adv-x="0" 
d="M-540 -135v88h473v-88h-473z" />
    <glyph glyph-name="dotbelowcomb" unicode="&#x323;" horiz-adv-x="0" 
d="M-304 -185q-28 0 -46.5 18.5t-18.5 47.5q0 30 18.5 48.5t46.5 18.5t46.5 -18.5t18.5 -48.5q0 -29 -18.5 -47.5t-46.5 -18.5z" />
    <glyph glyph-name="uni0324" unicode="&#x324;" horiz-adv-x="0" 
d="M-342 -108q0 -29 -18 -46.5t-45 -17.5q-28 0 -46 17.5t-18 46.5t18 46.5t46 17.5q27 0 45 -17.5t18 -46.5zM-139 -108q0 -29 -18 -46.5t-45 -17.5q-28 0 -45.5 17.5t-17.5 46.5t18 46.5t45 17.5t45 -17.5t18 -46.5z" />
    <glyph glyph-name="uni0325" unicode="&#x325;" horiz-adv-x="0" 
d="M-198 -168q0 -50 -32 -80t-78 -30t-78.5 30t-32.5 80q0 49 32.5 79t78.5 30t78 -30t32 -79zM-256 -168q0 25 -15 39.5t-37 14.5q-23 0 -38 -14.5t-15 -39.5q0 -26 15 -40.5t38 -14.5q22 0 37 14.5t15 40.5z" />
    <glyph glyph-name="uni0331" unicode="&#x331;" horiz-adv-x="0" 
d="M-150 -137h-298v84h298v-84z" />
    <glyph glyph-name="uni0342" unicode="&#x342;" horiz-adv-x="375" 
d="M252 586q-28 0 -72 18.5t-55 18.5q-26 0 -51 -48l-62 35q15 38 44 68t69 30q31 0 73.5 -19t53.5 -19q26 0 51 49l61 -36q-18 -36 -47.5 -66.5t-64.5 -30.5z" />
    <glyph glyph-name="uni0352" unicode="&#x352;" horiz-adv-x="0" 
d="M-308 897q65 0 105 -41.5t37 -117.5h-49q-1 30 -22.5 57.5t-70.5 27.5q-48 0 -69.5 -27.5t-22.5 -57.5h-49q-4 76 36 117.5t105 41.5zM-308 787q-28 0 -46.5 -18.5t-18.5 -47.5q0 -30 18.5 -48.5t46.5 -18.5t46.5 18.5t18.5 48.5q0 29 -18.5 47.5t-46.5 18.5z" />
    <glyph glyph-name="tonos" unicode="&#x384;" horiz-adv-x="298" 
d="M112 597h-66l85 189h131z" />
    <glyph glyph-name="dieresistonos" unicode="&#x385;" horiz-adv-x="538" 
d="M195 617l126 190l81 -60l-144 -176zM176 633q0 -29 -18 -46.5t-45 -17.5t-45 17.5t-18 46.5t18 46.5t45 17.5t45 -17.5t18 -46.5zM491 633q0 -29 -18 -46.5t-45 -17.5t-45 17.5t-18 46.5t18 46.5t45 17.5q28 0 45.5 -17.5t17.5 -46.5z" />
    <glyph glyph-name="Alphatonos" unicode="&#x386;" horiz-adv-x="650" 
d="M637 -4h-116l-61 186h-268q-40 -111 -63 -186h-105q168 478 258 698h96q69 -171 259 -698zM437 260l-83 239q-6 16 -11.5 35t-9 30t-6.5 17q-2 -4 -15 -42q-16 -50 -50 -145t-47 -134h222zM105 547h-66l85 189h131z" />
    <glyph glyph-name="anoteleia" unicode="&#x387;" horiz-adv-x="256" 
d="M211 320q0 -30 -20 -49.5t-50 -19.5q-29 0 -49 19.5t-20 49.5t20 50t49 20q30 0 50 -20t20 -50z" />
    <glyph glyph-name="Epsilontonos" unicode="&#x388;" horiz-adv-x="694" 
d="M667 -4h-438v700h416v-91h-304v-199h270v-89h-270v-230h326v-91zM74 550h-66l85 189h131z" />
    <glyph glyph-name="Etatonos" unicode="&#x389;" horiz-adv-x="812" 
d="M659 405v291h111v-700h-111v319h-312v-319h-112v700h112v-291h312zM87 547h-66l85 189h131z" />
    <glyph glyph-name="Iotatonos" unicode="&#x38a;" horiz-adv-x="406" 
d="M244 -4v700h112v-700h-112zM82 547h-66l85 189h131z" />
    <glyph glyph-name="Omicrontonos" unicode="&#x38c;" horiz-adv-x="837" 
d="M787 346q0 -171 -92 -267.5t-235 -96.5t-235 97t-92 267t92.5 267.5t234.5 97.5q143 0 235 -97t92 -268zM671 348q0 124 -56.5 197t-154.5 73t-154.5 -73t-56.5 -197t56.5 -197.5t154.5 -73.5t154.5 73.5t56.5 197.5zM81 547h-66l85 189h131z" />
    <glyph glyph-name="Upsilontonos" unicode="&#x38e;" horiz-adv-x="808" 
d="M547 -4h-111v283q-116 186 -236 417h126q77 -170 169 -317q87 142 170 317h118q-139 -261 -236 -415v-285zM84 555h-66l85 189h131z" />
    <glyph glyph-name="Omegatonos" unicode="&#x38f;" horiz-adv-x="823" 
d="M433 717q144 0 238 -91.5t94 -254.5t-120 -285h135v-94h-284v76q155 120 155 303q0 115 -59.5 181t-158.5 66t-158.5 -66t-59.5 -181q0 -184 155 -303v-76h-284v94h135q-119 119 -119 285q0 163 94 254.5t237 91.5zM23 719l103 -27l-76 -214l-79 20z" />
    <glyph glyph-name="iotadieresistonos" unicode="&#x390;" horiz-adv-x="269" 
d="M252 69l-14 -87q-92 2 -130 36t-38 116v47v347h106v-388q0 -39 16 -52t60 -19zM72 648l126 190l81 -60l-144 -176zM53 664q0 -29 -18 -46.5t-45 -17.5t-45 17.5t-18 46.5t18 46.5t45 17.5t45 -17.5t18 -46.5zM368 664q0 -29 -18 -46.5t-45 -17.5t-45 17.5t-18 46.5
t18 46.5t45 17.5q28 0 45.5 -17.5t17.5 -46.5z" />
    <glyph glyph-name="Alpha" unicode="&#x391;" horiz-adv-x="663" 
d="M627 -4h-116l-61 186h-268q-40 -111 -63 -186h-105q168 478 258 698h96q69 -171 259 -698zM427 260l-83 239q-6 16 -11.5 35t-9 30t-6.5 17q-2 -4 -15 -42q-16 -50 -50 -145t-47 -134h222z" />
    <glyph glyph-name="Beta" unicode="&#x392;" horiz-adv-x="642" 
d="M270 -11q-107 0 -191 23v668q78 23 193 23q132 0 210 -45t78 -143q0 -52 -27 -90.5t-71 -55.5q129 -38 129 -172q0 -208 -321 -208zM301 319h-112v-238q42 -5 87 -5q201 0 201 124q0 66 -44 92.5t-132 26.5zM189 612v-211h56q41 0 65 1t54 7t45.5 17.5t27 32.5t11.5 52
q0 106 -172 106q-52 0 -87 -5z" />
    <glyph glyph-name="Gamma" unicode="&#x393;" horiz-adv-x="513" 
d="M79 701h418v-96h-309v-613h-109v709z" />
    <glyph glyph-name="uni0394" unicode="&#x394;" horiz-adv-x="648" 
d="M141 87h360q-97 290 -179 477q-94 -219 -181 -477zM649 -8h-639l33 128q108 315 236 581h90q144 -302 280 -709z" />
    <glyph glyph-name="Epsilon" unicode="&#x395;" horiz-adv-x="569" 
d="M517 -4h-438v700h416v-91h-304v-199h270v-89h-270v-230h326v-91z" />
    <glyph glyph-name="Zeta" unicode="&#x396;" horiz-adv-x="574" 
d="M517 696l-4 -78q-232 -314 -350 -531h363v-91h-497l5 70q57 116 163 278t185 261h-333v91h468z" />
    <glyph glyph-name="Eta" unicode="&#x397;" horiz-adv-x="704" 
d="M503 405v291h111v-700h-111v319h-312v-319h-112v700h112v-291h312z" />
    <glyph glyph-name="Theta" unicode="&#x398;" horiz-adv-x="757" 
d="M525 315h-295v96h295v-96zM706 346q0 -171 -92 -267.5t-235 -96.5t-235 97t-92 267t92.5 267.5t234.5 97.5q143 0 235 -97t92 -268zM590 348q0 124 -56.5 197t-154.5 73t-154.5 -73t-56.5 -197t56.5 -197.5t154.5 -73.5t154.5 73.5t56.5 197.5z" />
    <glyph glyph-name="Iota" unicode="&#x399;" horiz-adv-x="267" 
d="M79 -4v700h112v-700h-112z" />
    <glyph glyph-name="Kappa" unicode="&#x39a;" horiz-adv-x="623" 
d="M619 -4h-85q-7 0 -21.5 0.5t-21.5 1.5q-58 94 -139.5 182.5t-160.5 144.5v-329h-112v700h112v-305q69 66 151.5 155.5t127.5 149.5h129q-129 -151 -303 -327q82 -63 177.5 -173t145.5 -200z" />
    <glyph glyph-name="Lambda" unicode="&#x39b;" horiz-adv-x="651" 
d="M653 -8h-120q-126 372 -210 570q-83 -198 -209 -570h-115q149 428 277 709h93l36 -70q107 -239 248 -639z" />
    <glyph glyph-name="Mu" unicode="&#x39c;" horiz-adv-x="874" 
d="M468 80h-79q-40 100 -108.5 250t-87.5 184q-14 -137 -28 -518h-105q23 432 53 700h66q12 0 36 -2q63 -117 217 -468q10 21 44.5 99l59.5 133.5l58.5 125.5t57.5 112h97q30 -268 53 -700h-110q-13 354 -29 518q-21 -37 -88 -185.5t-107 -248.5z" />
    <glyph glyph-name="Nu" unicode="&#x39d;" horiz-adv-x="722" 
d="M629 -4h-59l-32 2q-57 102 -174 275.5t-180 245.5v-231v-292h-105v700h89q151 -170 301 -403l55 -90v231v262h105v-700z" />
    <glyph glyph-name="Xi" unicode="&#x39e;" horiz-adv-x="553" 
d="M468 315h-384v96h384v-96zM523 -8h-494v96h494v-96zM40 701h473v-96h-473v96z" />
    <glyph glyph-name="Omicron" unicode="&#x39f;" horiz-adv-x="778" 
d="M706 346q0 -171 -92 -267.5t-235 -96.5t-235 97t-92 267t92.5 267.5t234.5 97.5q143 0 235 -97t92 -268zM590 348q0 124 -56.5 197t-154.5 73t-154.5 -73t-56.5 -197t56.5 -197.5t154.5 -73.5t154.5 73.5t56.5 197.5z" />
    <glyph glyph-name="Pi" unicode="&#x3a0;" horiz-adv-x="698" 
d="M79 701h540v-709h-110v613h-321v-613h-109v709z" />
    <glyph glyph-name="Rho" unicode="&#x3a1;" horiz-adv-x="607" 
d="M273 703q150 0 225 -58t75 -166q0 -225 -311 -225h-72v-258h-111v684q80 23 194 23zM277 616q-27 0 -87 -6v-268h67q103 0 153 29.5t50 108.5q0 136 -183 136z" />
    <glyph glyph-name="Sigma" unicode="&#x3a3;" horiz-adv-x="564" 
d="M386 360q-15 -19 -102.5 -120t-122.5 -152h371v-96h-504v83q38 56 139 176l39 47l51 62l-110.5 134.5t-105.5 132.5v74h489v-96h-340q20 -29 94 -119z" />
    <glyph glyph-name="Tau" unicode="&#x3a4;" horiz-adv-x="566" 
d="M16 696h519v-91h-204v-609h-111v609h-204v91z" />
    <glyph glyph-name="Upsilon" unicode="&#x3a5;" horiz-adv-x="595" 
d="M346 -4h-111v283q-116 186 -236 417h126q77 -170 169 -317q87 142 170 317h118q-139 -261 -236 -415v-285z" />
    <glyph glyph-name="Phi" unicode="&#x3a6;" horiz-adv-x="863" 
d="M485 570v-399q97 4 157 55t60 144q0 94 -60 145t-157 55zM378 -8v85q-65 2 -123 22t-104.5 55t-74 91t-27.5 125q0 68 27.5 124t74 91.5t104.5 56t123 23.5v81h107v-81q65 -3 123 -23.5t104.5 -56t74 -91.5t27.5 -124q0 -69 -27.5 -125t-74 -91t-104.5 -55t-123 -22v-85
h-107zM378 171v399q-97 -4 -157 -55t-60 -145q0 -93 60 -144t157 -55z" />
    <glyph glyph-name="Chi" unicode="&#x3a7;" horiz-adv-x="627" 
d="M309 448l159 248h122l-218 -328q159 -232 229 -372h-87q-6 0 -19.5 0.5t-19.5 1.5q-48 98 -171 280q-121 -177 -173 -282h-119q67 130 229 366l-218 334h127l158 -248h1z" />
    <glyph glyph-name="Psi" unicode="&#x3a8;" horiz-adv-x="814" 
d="M460 -8h-106v178q-155 5 -225 82.5t-70 208.5v240h107v-230q0 -104 46.5 -152t140.5 -51v433h108v-433q93 4 140 52t47 151v230h107v-240q0 -131 -70 -208.5t-225 -82.5v-178z" />
    <glyph glyph-name="uni03A9" unicode="&#x3a9;" horiz-adv-x="781" 
d="M391 717q143 0 237 -91.5t94 -254.5q0 -162 -119 -285h135v-94h-285v76q155 119 155 303q0 115 -59 181t-158 66t-158.5 -66t-59.5 -181q0 -184 155 -303v-76h-285v94h136q-120 118 -120 285q0 163 94 254.5t238 91.5z" />
    <glyph glyph-name="Iotadieresis" unicode="&#x3aa;" horiz-adv-x="267" 
d="M79 -4v700h112v-700h-112zM95 821q0 -29 -18 -47t-45 -18q-28 0 -46 18t-18 47t18 46.5t46 17.5q27 0 45 -17.5t18 -46.5zM298 821q0 -29 -18 -47t-45 -18t-45 18t-18 47t18 46.5t45 17.5t45 -17.5t18 -46.5z" />
    <glyph glyph-name="Upsilondieresis" unicode="&#x3ab;" horiz-adv-x="595" 
d="M346 -4h-111v283q-116 186 -236 417h126q77 -170 169 -317q87 142 170 317h118q-139 -261 -236 -415v-285zM259 821q0 -29 -18 -47t-45 -18q-28 0 -46 18t-18 47t18 46.5t46 17.5q27 0 45 -17.5t18 -46.5zM462 821q0 -29 -18 -47t-45 -18t-45 18t-18 47t18 46.5t45 17.5
t45 -17.5t18 -46.5z" />
    <glyph glyph-name="alphatonos" unicode="&#x3ac;" horiz-adv-x="604" 
d="M452 33q-64 -52 -160 -52q-120 0 -184 76.5t-64 201.5q0 130 73.5 204.5t198.5 74.5q101 0 195 -32v-359q0 -42 17 -55.5t63 -19.5l-14 -87q-42 -1 -76 13t-49 35zM406 161v270q-39 13 -86 13q-80 0 -123.5 -48.5t-43.5 -137.5q0 -83 34.5 -133t110.5 -50q62 0 112 36
q-4 21 -4 50zM333 612h-66l85 189h131z" />
    <glyph glyph-name="epsilontonos" unicode="&#x3ad;" horiz-adv-x="503" 
d="M278 72q53 0 101.5 12t70.5 25l28 -88q-25 -15 -81.5 -28.5t-124.5 -13.5q-104 0 -167 40t-63 122q0 96 94 135q-54 25 -70 78q-4 21 -3 43q5 70 62.5 106.5t158.5 36.5q102 0 165 -30l-21 -90q-61 27 -134 29q-24 0 -45 -3q-80 -11 -80 -66q0 -66 120 -66h72v-87h-76
q-133 0 -133 -80q0 -75 126 -75zM287 612h-66l85 189h131z" />
    <glyph glyph-name="etatonos" unicode="&#x3ae;" horiz-adv-x="574" 
d="M73 -8v510q67 36 214 36q120 0 170 -64t50 -183v-484h-105v464q0 95 -27.5 134t-97.5 39q-58 0 -99 -11v-441h-105zM307 612h-66l85 189h131z" />
    <glyph glyph-name="iotatonos" unicode="&#x3af;" horiz-adv-x="269" 
d="M252 69l-14 -87q-92 2 -130 36t-38 116v47v347h106v-388q0 -39 16 -52t60 -19zM154 612h-66l85 189h131z" />
    <glyph glyph-name="upsilondieresistonos" unicode="&#x3b0;" horiz-adv-x="575" 
d="M288 -20q-221 0 -221 242v306h106v-297q0 -83 28.5 -119t86.5 -36q57 0 85.5 36.5t28.5 118.5v297h106v-306q0 -242 -220 -242zM207 617l126 190l81 -60l-144 -176zM188 633q0 -29 -18 -46.5t-45 -17.5t-45 17.5t-18 46.5t18 46.5t45 17.5t45 -17.5t18 -46.5zM503 633
q0 -29 -18 -46.5t-45 -17.5t-45 17.5t-18 46.5t18 46.5t45 17.5q28 0 45.5 -17.5t17.5 -46.5z" />
    <glyph glyph-name="alpha" unicode="&#x3b1;" horiz-adv-x="604" 
d="M452 33q-64 -52 -160 -52q-120 0 -184 76.5t-64 201.5q0 130 73.5 204.5t198.5 74.5q101 0 195 -32v-359q0 -42 17 -55.5t63 -19.5l-14 -87q-42 -1 -76 13t-49 35zM406 161v270q-39 13 -86 13q-80 0 -123.5 -48.5t-43.5 -137.5q0 -83 34.5 -133t110.5 -50q62 0 112 36
q-4 21 -4 50z" />
    <glyph glyph-name="beta" unicode="&#x3b2;" horiz-adv-x="610" 
d="M178 12v-206h-105v737q0 111 55.5 176t172.5 65q97 0 156.5 -51.5t59.5 -144.5q0 -51 -26.5 -93t-73.5 -63q149 -51 149 -209q0 -115 -67 -177.5t-192 -62.5q-68 0 -129 29zM178 541v-430q16 -11 51.5 -22t75.5 -11q70 0 111 38t41 107q0 150 -179 150h-13v90h13
q60 0 96.5 32t36.5 87q0 49 -28.5 78.5t-82.5 29.5q-122 0 -122 -149z" />
    <glyph glyph-name="gamma" unicode="&#x3b3;" horiz-adv-x="496" 
d="M236 119q46 79 87.5 198t57.5 211h105q-61 -295 -218 -537q13 -77 16 -105q6 -52 8 -79h-96q-6 33 -15 72q-41 293 -177 649h114q68 -179 118 -409z" />
    <glyph glyph-name="delta" unicode="&#x3b4;" 
d="M302 445q-68 -22 -108.5 -73.5t-40.5 -122.5q0 -75 35.5 -125.5t106.5 -50.5q66 0 103.5 48.5t37.5 122.5q0 35 -10.5 65.5t-20.5 48t-34.5 38.5t-33 26.5zM219 499q-65 48 -78 98q-7 23 -5 55q5 62 58.5 97t133.5 35q78 0 167 -38l-27 -88q-70 33 -119 35q-34 1 -61 -5
q-48 -14 -48 -51q0 -26 21 -46.5t84 -59.5q35 -21 48.5 -30t43.5 -31.5t44 -41.5t32 -48t25 -64t7 -77q0 -66 -25 -123.5t-84 -97.5t-142 -40q-120 0 -185 76.5t-65 193.5q0 86 48.5 153t126.5 98z" />
    <glyph glyph-name="epsilon" unicode="&#x3b5;" horiz-adv-x="503" 
d="M278 72q53 0 101.5 12t70.5 25l28 -88q-25 -15 -81.5 -28.5t-124.5 -13.5q-104 0 -167 40t-63 122q0 96 94 135q-54 25 -70 78q-4 21 -3 43q5 70 62.5 106.5t158.5 36.5q102 0 165 -30l-21 -90q-61 27 -134 29q-24 0 -45 -3q-80 -11 -80 -66q0 -66 120 -66h72v-87h-76
q-133 0 -133 -80q0 -75 126 -75z" />
    <glyph glyph-name="zeta" unicode="&#x3b6;" horiz-adv-x="445" 
d="M468 -52q0 -72 -56 -147l-90 33q2 3 9.5 15.5t11.5 20l10 19.5t8.5 23t2.5 21q0 32 -24.5 46.5t-93.5 29.5q-108 25 -152.5 74.5t-44.5 150.5q0 206 262 452h-232v91h370v-81q-2 -2 -15.5 -14.5l-21.5 -19.5q-254 -243 -254 -425q0 -65 30 -93.5t110 -46.5
q96 -23 133 -54t37 -95z" />
    <glyph glyph-name="eta" unicode="&#x3b7;" horiz-adv-x="574" 
d="M73 -8v510q67 36 214 36q120 0 170 -64t50 -183v-484h-105v464q0 95 -27.5 134t-97.5 39q-58 0 -99 -11v-441h-105z" />
    <glyph glyph-name="theta" unicode="&#x3b8;" horiz-adv-x="600" 
d="M300 784q124 0 188 -107t64 -296t-64 -296t-188 -107t-188 107t-64 296t64 296t188 107zM300 73q138 0 144 267h-289q6 -267 145 -267zM300 689q-135 0 -145 -257h289q-10 257 -144 257z" />
    <glyph glyph-name="iota" unicode="&#x3b9;" horiz-adv-x="269" 
d="M252 69l-14 -87q-92 2 -130 36t-38 116v47v347h106v-388q0 -39 16 -52t60 -19z" />
    <glyph glyph-name="kappa" unicode="&#x3ba;" horiz-adv-x="527" 
d="M178 -8h-105v536h105v-214q140 140 206 214h127q-110 -128 -240 -248q66 -50 139 -132.5t116 -155.5h-122q-43 65 -107 131t-119 104v-235z" />
    <glyph glyph-name="lambda" unicode="&#x3bb;" horiz-adv-x="507" 
d="M265 405q-99 -200 -151 -413h-108q31 119 89.5 266.5t122.5 267.5q-26 64 -43 79q-26 55 -42.5 70.5t-53.5 15.5q-16 -1 -41 -10l-18 90q39 13 83 13q67 0 107 -35.5t70 -102.5q127 -307 222 -654h-104q-21 57 -65 202t-68 211z" />
    <glyph glyph-name="uni03BC" unicode="&#x3bc;" horiz-adv-x="580" 
d="M307 -14q-90 0 -131 43q4 -39 4 -118v-102h-106v716h108v-265q0 -99 25.5 -143t95.5 -44q73 0 99 11v441h108v-508q-93 -31 -203 -31z" />
    <glyph glyph-name="nu" unicode="&#x3bd;" horiz-adv-x="500" 
d="M253 117q29 61 67.5 182.5t63.5 225.5h107q-68 -250 -191 -529h-64q-6 0 -18 1t-18 1q-116 253 -190 527h114q22 -101 59 -218t70 -190z" />
    <glyph glyph-name="xi" unicode="&#x3be;" horiz-adv-x="486" 
d="M304 97q96 -23 133.5 -54.5t37.5 -94.5q0 -70 -57 -147l-90 33q42 67 42 99q0 33 -24 47t-94 29q-107 23 -156.5 70t-49.5 136q0 43 14.5 79t39 59.5t46.5 38t45 24.5q-52 19 -81 66t-29 104q0 96 63.5 147t163.5 51q81 0 146 -26l-23 -90q-50 23 -116 23
q-65 0 -96 -30.5t-31 -82.5q0 -58 41 -88.5t114 -30.5h75v-91h-65q-30 0 -61 -6.5t-64 -22t-53.5 -46.5t-20.5 -74q0 -55 34.5 -79.5t115.5 -42.5z" />
    <glyph glyph-name="omicron" unicode="&#x3bf;" 
d="M541 261q0 -125 -68.5 -201t-179.5 -76q-110 0 -178.5 76t-68.5 201q0 123 69 199.5t178 76.5q110 0 179 -76t69 -200zM430 261q0 87 -36.5 137.5t-100.5 50.5t-100.5 -50.5t-36.5 -137.5t36.5 -137t100.5 -50t100.5 50t36.5 137z" />
    <glyph glyph-name="pi" unicode="&#x3c0;" horiz-adv-x="577" 
d="M504 528v-536h-105v445h-221v-445h-105v536h431z" />
    <glyph glyph-name="rho" unicode="&#x3c1;" horiz-adv-x="595" 
d="M302 -20q-74 0 -128 33v-206h-105v484q0 114 59.5 180.5t171.5 66.5q123 0 187 -70.5t64 -208.5q0 -124 -65.5 -201.5t-183.5 -77.5zM174 278v-168q47 -35 116 -35q80 0 116 50.5t36 133.5q0 90 -33 137t-108 47q-127 0 -127 -165z" />
    <glyph glyph-name="sigma1" unicode="&#x3c2;" horiz-adv-x="463" 
d="M153 260q0 -36 7 -61.5t17.5 -42.5t35.5 -30.5t48.5 -22t67.5 -21.5q66 -19 93 -49t27 -85q0 -70 -57 -147l-90 33q42 67 42 99q0 27 -17.5 42t-62.5 27q-122 31 -171 88t-49 168q0 128 69.5 205t187.5 77q89 0 149 -29l-26 -90q-53 24 -115 24q-75 0 -115.5 -48
t-40.5 -137z" />
    <glyph glyph-name="sigma" unicode="&#x3c3;" horiz-adv-x="614" 
d="M540 237q0 -118 -67.5 -188t-179.5 -70q-109 0 -179 72t-70 194q0 143 82 213t204 70h275v-91h-137q72 -91 72 -200zM433 238q0 59 -22 112.5t-59 86.5h-25q-28 0 -54.5 -7.5t-55.5 -26.5t-46.5 -59.5t-17.5 -98.5q0 -79 38.5 -125t101.5 -46q66 0 103 43.5t37 120.5z
" />
    <glyph glyph-name="tau" unicode="&#x3c4;" horiz-adv-x="443" 
d="M409 46l-2 -50q-37 -13 -90 -13q-97 0 -133.5 52t-36.5 159v243h-138v91h419v-91h-176v-245q0 -75 27 -95q25 -19 80 -16q7 -4 50 -35z" />
    <glyph glyph-name="upsilon" unicode="&#x3c5;" horiz-adv-x="575" 
d="M288 -20q-221 0 -221 242v306h106v-297q0 -83 28.5 -119t86.5 -36q57 0 85.5 36.5t28.5 118.5v297h106v-306q0 -242 -220 -242z" />
    <glyph glyph-name="phi" unicode="&#x3c6;" horiz-adv-x="767" 
d="M383 540q155 0 248 -75.5t93 -203.5q0 -120 -78 -193.5t-211 -83.5v-177h-103v177q-132 9 -210.5 83t-78.5 194q0 128 92.5 203.5t247.5 75.5zM617 261q0 76 -47.5 126.5t-134.5 57.5v-368q91 10 136.5 58t45.5 126zM150 261q0 -78 45 -126.5t137 -57.5v368
q-88 -8 -135 -58t-47 -126z" />
    <glyph glyph-name="chi" unicode="&#x3c7;" horiz-adv-x="514" 
d="M256 204q-58 -69 -132 -208h-111q66 123 180 278l-101 148l-70 103h121l116 -177l118 177h112l-169 -246q118 -159 183 -283h-117q-43 83 -130 208z" />
    <glyph glyph-name="psi" unicode="&#x3c8;" horiz-adv-x="775" 
d="M439 -193h-103v176q-137 7 -203 79t-66 197v269h105v-255q0 -99 42 -144.5t122 -48.5v448h103v-448q164 6 164 193v255h105v-269q0 -125 -66 -197t-203 -79v-176z" />
    <glyph glyph-name="omega" unicode="&#x3c9;" horiz-adv-x="837" 
d="M366 428h105v-145q0 -33 1 -54.5t6 -53t15 -50.5t30 -33t48 -14q109 0 109 175q0 119 -90 252l92 35q38 -42 71.5 -121t33.5 -170q0 -139 -57 -203t-156 -64q-109 0 -156 93q-46 -93 -155 -93q-99 0 -156 64t-57 203q0 91 33.5 170t71.5 121l92 -35q-90 -133 -90 -252
q0 -175 109 -175q34 0 56 18.5t30.5 54t11 63t2.5 69.5v145z" />
    <glyph glyph-name="iotadieresis" unicode="&#x3ca;" horiz-adv-x="269" 
d="M252 69l-14 -87q-92 2 -130 36t-38 116v47v347h106v-388q0 -39 16 -52t60 -19zM86 683q0 -29 -18 -46.5t-46 -17.5q-27 0 -45 17.5t-18 46.5t18 46.5t45 17.5q28 0 46 -17.5t18 -46.5zM283 683q0 -29 -18 -46.5t-45 -17.5q-28 0 -45.5 17.5t-17.5 46.5t18 46.5t45 17.5
t45 -17.5t18 -46.5z" />
    <glyph glyph-name="upsilondieresis" unicode="&#x3cb;" horiz-adv-x="575" 
d="M288 -20q-221 0 -221 242v306h106v-297q0 -83 28.5 -119t86.5 -36q57 0 85.5 36.5t28.5 118.5v297h106v-306q0 -242 -220 -242zM248 683q0 -29 -18 -46.5t-46 -17.5q-27 0 -45 17.5t-18 46.5t18 46.5t45 17.5q28 0 46 -17.5t18 -46.5zM445 683q0 -29 -18 -46.5t-45 -17.5
q-28 0 -45.5 17.5t-17.5 46.5t18 46.5t45 17.5t45 -17.5t18 -46.5z" />
    <glyph glyph-name="omicrontonos" unicode="&#x3cc;" 
d="M541 261q0 -125 -68.5 -201t-179.5 -76q-110 0 -178.5 76t-68.5 201q0 123 69 199.5t178 76.5q110 0 179 -76t69 -200zM430 261q0 87 -36.5 137.5t-100.5 50.5t-100.5 -50.5t-36.5 -137.5t36.5 -137t100.5 -50t100.5 50t36.5 137zM324 612h-66l85 189h131z" />
    <glyph glyph-name="upsilontonos" unicode="&#x3cd;" horiz-adv-x="575" 
d="M288 -20q-221 0 -221 242v306h106v-297q0 -83 28.5 -119t86.5 -36q57 0 85.5 36.5t28.5 118.5v297h106v-306q0 -242 -220 -242zM315 612h-66l85 189h131z" />
    <glyph glyph-name="omegatonos" unicode="&#x3ce;" horiz-adv-x="837" 
d="M366 428h105v-145q0 -33 1 -54.5t6 -53t15 -50.5t30 -33t48 -14q109 0 109 175q0 119 -90 252l92 35q38 -42 71.5 -121t33.5 -170q0 -139 -57 -203t-156 -64q-109 0 -156 93q-46 -93 -155 -93q-99 0 -156 64t-57 203q0 91 33.5 170t71.5 121l92 -35q-90 -133 -90 -252
q0 -175 109 -175q34 0 56 18.5t30.5 54t11 63t2.5 69.5v145zM451 612h-66l85 189h131z" />
    <glyph glyph-name="uni0400" unicode="&#x400;" horiz-adv-x="569" 
d="M470 -4h-394v698h381v-84h-272v-210h243v-83h-243v-237h285v-84zM392 745h-66l-150 189h132z" />
    <glyph glyph-name="uni0401" unicode="&#x401;" horiz-adv-x="569" 
d="M470 -4h-394v698h381v-84h-272v-210h243v-83h-243v-237h285v-84zM246 821q0 -29 -18 -47t-45 -18q-28 0 -46 18t-18 47t18 46.5t46 17.5q27 0 45 -17.5t18 -46.5zM449 821q0 -29 -18 -47t-45 -18q-28 0 -45.5 18t-17.5 47t18 46.5t45 17.5t45 -17.5t18 -46.5z" />
    <glyph glyph-name="uni0403" unicode="&#x403;" horiz-adv-x="513" 
d="M313 979l72 -73l-182 -150l-55 55zM182 610v-618h-106v707h393v-89h-287z" />
    <glyph glyph-name="uni0404" unicode="&#x404;" horiz-adv-x="576" 
d="M413 315h-248q5 -88 39.5 -149.5t98.5 -81.5q32 -10 82 -6q59 1 111 29l30 -79q-68 -44 -176 -44q-137 0 -218.5 98t-81.5 263q0 162 81.5 262t214.5 100q110 0 178 -44l-28 -78q-53 32 -126 33q-90 3 -142 -57t-62 -161h247v-85z" />
    <glyph glyph-name="uni0405" unicode="&#x405;" horiz-adv-x="535" 
d="M234 75q142 0 142 101q0 28 -9 48t-33.5 37t-41.5 25t-59 25q-11 5 -17 7q-74 31 -114.5 67.5t-51.5 89.5q-6 24 -4 56q5 86 66.5 133t166.5 47q56 0 107.5 -14t81.5 -34l-33 -86q-65 43 -152 43q-126 0 -126 -94q0 -21 8 -38t17.5 -28t33.5 -24t39 -19.5l50 -21.5
q48 -21 77.5 -37.5t57 -41t40 -57.5t12.5 -77q0 -96 -66.5 -148t-185.5 -52q-133 0 -213 49l32 91q78 -47 175 -47z" />
    <glyph glyph-name="uni0406" unicode="&#x406;" horiz-adv-x="267" 
d="M186 -4h-108v698h108v-698z" />
    <glyph glyph-name="uni0407" unicode="&#x407;" horiz-adv-x="267" 
d="M186 -4h-108v698h108v-698zM95 821q0 -29 -18 -47t-45 -18q-28 0 -46 18t-18 47t18 46.5t46 17.5q27 0 45 -17.5t18 -46.5zM298 821q0 -29 -18 -47t-45 -18t-45 18t-18 47t18 46.5t45 17.5t45 -17.5t18 -46.5z" />
    <glyph glyph-name="uni0408" unicode="&#x408;" horiz-adv-x="499" 
d="M304 127q0 -211 -188 -237q-64 -6 -138 20q14 54 22 81q59 -17 107 1q89 35 89 165v35v502h108v-567z" />
    <glyph glyph-name="uni040A" unicode="&#x40a;" horiz-adv-x="970" 
d="M443 19v297h-285v-320h-108v698h108v-294h285v294h105v-258q35 7 82 7q140 -1 215 -58.5t75 -172.5q0 -112 -73.5 -168t-210.5 -56q-112 0 -193 31zM811 212q0 74 -46 112t-130 38q-49 0 -87 -6v-275q44 -12 88 -12q175 0 175 143z" />
    <glyph glyph-name="uni040C" unicode="&#x40c;" horiz-adv-x="623" 
d="M378 964l72 -73l-182 -150l-55 55zM573 -4h-84q-7 0 -20.5 1t-20.5 1q-118 188 -263 334v-336h-107v698h107v-305q122 132 251 305h121q-91 -114 -274 -325q75 -78 154.5 -179.5t135.5 -193.5z" />
    <glyph glyph-name="uni040D" unicode="&#x40d;" horiz-adv-x="722" 
d="M170 -8h-91v709h108v-501q66 111 174.5 258.5t195.5 242.5h86v-709h-108v532q-82 -96 -194 -260t-171 -272zM218 880q20 25 80 55l148 -159l-56 -41z" />
    <glyph glyph-name="uni040E" unicode="&#x40e;" horiz-adv-x="579" 
d="M296 770q-61 0 -103 39t-43 112l75 11q11 -77 71 -77q62 0 70 77l75 -12q-1 -72 -43 -111t-102 -39zM49 -3q0 4 12 88q46 -12 80 -10q78 6 107 85l-36 63q-103 201 -213 476h115q58 -160 138 -333l47 -108q84 231 146 441h113q-72 -218 -185 -497q-46 -109 -92.5 -160
t-125.5 -56q-49 -4 -106 11z" />
    <glyph glyph-name="uni0410" unicode="&#x410;" horiz-adv-x="646" 
d="M628 0h-113l-64 186h-268l-63 -186h-105q168 478 258 698h96q76 -187 259 -698zM428 264l-83 239q-7 20 -15 48t-11 34q-5 -9 -12 -31q-17 -54 -53.5 -157l-46.5 -133h221z" />
    <glyph glyph-name="uni0411" unicode="&#x411;" horiz-adv-x="548" 
d="M36 705h431v-89h-329v-173q58 4 78 4q302 0 302 -231q0 -114 -76.5 -170t-214.5 -56q-104 0 -191 29v686zM410 214q0 73 -52 109t-145 36q-43 0 -75 -5v-264q38 -11 90 -11q182 0 182 135z" />
    <glyph glyph-name="uni0412" unicode="&#x412;" horiz-adv-x="550" 
d="M520 195q0 -103 -75 -154t-215 -51q-115 0 -194 29v656q82 30 190 30q123 0 194 -46.5t71 -137.5q0 -58 -31.5 -96t-79.5 -55q59 -16 99.5 -60.5t40.5 -114.5zM385 516q0 112 -156 112q-2 0 -4 -0.5t-3 -0.5h-9q-42 -1 -72 -9v-219h59q95 0 140 25.5t45 91.5zM411 196
q0 74 -50 102.5t-158 28.5h-62v-248q44 -10 90 -10q180 0 180 127z" />
    <glyph glyph-name="uni0413" unicode="&#x413;" horiz-adv-x="439" 
d="M145 615v-615h-109v698h372v-83h-263z" />
    <glyph glyph-name="uni0414" unicode="&#x414;" horiz-adv-x="744" 
d="M624 -4h-505v-155h-99v235h88l195 618h142q36 -111 99.5 -330.5l83.5 -287.5h94v-236h-98v156zM356 563l-144 -487h307l-135 487q-10 31 -10 40h-7q-2 -10 -11 -40z" />
    <glyph glyph-name="uni0415" unicode="&#x415;" horiz-adv-x="569" 
d="M470 -4h-394v698h381v-84h-272v-210h243v-83h-243v-237h285v-84z" />
    <glyph glyph-name="uni0416" unicode="&#x416;" horiz-adv-x="885" 
d="M130 -4h-122q50 89 131.5 194.5t154.5 176.5q-176 205 -272 327h121q67 -93 248 -306v306h107v-306q188 223 248 306h121q-87 -111 -271 -327q74 -72 152.5 -174.5t131.5 -196.5h-120q-125 194 -262 336v-336h-107v335q-147 -153 -261 -335z" />
    <glyph glyph-name="uni0417" unicode="&#x417;" horiz-adv-x="570" 
d="M488 194q0 -103 -72 -157t-193 -54q-123 0 -205 45q6 16 32 80q71 -39 164 -39q77 0 120.5 34t39.5 99q-2 126 -192 126h-53v77h53q74 0 121 30.5t47 88.5q0 48 -33.5 73.5t-91.5 25.5q-91 0 -152 -37l-32 76q78 45 192 45q101 0 163 -44.5t62 -126.5q0 -60 -37 -102
t-90 -57q69 -17 113 -61t44 -122z" />
    <glyph glyph-name="uni0418" unicode="&#x418;" horiz-adv-x="634" 
d="M572 -4h-107v479l3 68q-199 -323 -309 -547h-107v698h107v-468l-3 -73q121 238 313 541h103v-698z" />
    <glyph glyph-name="uni0419" unicode="&#x419;" horiz-adv-x="722" 
d="M426 890l72 -29q-32 -114 -158 -114q-60 0 -100 31t-52 87l73 25q22 -64 81 -64q62 0 84 64zM595 -4h-107v479l3 68q-199 -323 -309 -547h-107v698h107v-468l-3 -73q121 238 313 541h103v-698z" />
    <glyph glyph-name="uni041A" unicode="&#x41a;" horiz-adv-x="623" 
d="M573 -4h-84q-7 0 -20.5 1t-20.5 1q-118 188 -263 334v-336h-107v698h107v-305q122 132 251 305h121q-91 -114 -274 -325q75 -78 154.5 -179.5t135.5 -193.5z" />
    <glyph glyph-name="uni041B" unicode="&#x41b;" horiz-adv-x="674" 
d="M494 0q-75 241 -164 499q-6 16 -11.5 35t-9 30t-6.5 17q-3 -4 -7 -15.5t-10 -31.5t-11 -35q-76 -210 -167 -499h-106q146 423 255 698h97q115 -292 254 -698h-114z" />
    <glyph glyph-name="uni041C" unicode="&#x41c;" horiz-adv-x="874" 
d="M765 -4h-105q-30 434 -41 545l-19 -51l-46.5 -127.5l-64.5 -177t-49 -141.5h-76q-25 77 -91.5 258.5t-68.5 187.5l-17 51q-25 -279 -43 -545h-99q39 458 67 698h67q13 0 37 -2q115 -294 166 -439q5 -14 9.5 -30.5t7.5 -26.5t5 -14q1 0 24 69q71 201 169 443h101
q28 -240 67 -698z" />
    <glyph glyph-name="uni041D" unicode="&#x41d;" horiz-adv-x="704" 
d="M577 -4h-108v320h-284v-320h-109v698h109v-294h284v294h108v-698z" />
    <glyph glyph-name="uni041E" unicode="&#x41e;" horiz-adv-x="692" 
d="M642 345q0 -166 -79.5 -263.5t-216.5 -97.5t-216.5 97.5t-79.5 263.5q0 165 80 263.5t216 98.5q137 0 216.5 -98.5t79.5 -263.5zM531 347q0 121 -47 198t-138 77t-138 -77t-47 -198t46 -198t139 -77t139 77t46 198z" />
    <glyph glyph-name="uni041F" unicode="&#x41f;" horiz-adv-x="608" 
d="M558 -8h-106v618h-296v-618h-106v707h508v-707z" />
    <glyph glyph-name="uni0420" unicode="&#x420;" horiz-adv-x="607" 
d="M537 484q0 -111 -76.5 -168t-226.5 -52q-8 0 -25 0.5t-26 0.5v-269h-107v677q82 29 186 29q137 0 206 -57t69 -161zM429 485q0 139 -166 139q-29 0 -80 -9v-271h48q101 -5 149.5 29.5t48.5 111.5z" />
    <glyph glyph-name="uni0421" unicode="&#x421;" horiz-adv-x="579" 
d="M529 28q-62 -44 -182 -44q-136 0 -216.5 99t-80.5 262q0 160 84 261t215 101q108 0 174 -45l-29 -79q-57 36 -130 36q-65 0 -110 -35.5t-66 -98.5q-27 -63 -25 -150q2 -96 37 -163.5t102 -87.5q33 -10 70 -9q72 1 128 33z" />
    <glyph glyph-name="uni0422" unicode="&#x422;" horiz-adv-x="499" 
d="M479 610h-175v-614h-109v614h-175v84h459v-84z" />
    <glyph glyph-name="uni0423" unicode="&#x423;" horiz-adv-x="579" 
d="M69 -3q0 25 2 77q52 -10 80 2q67 5 92 81q-12 20 -34 62q-91 187 -206 475h114q56 -159 136 -342q2 -4 20 -49t24 -63l51 150q38 113 93 304h111q-76 -237 -181 -505q-38 -96 -84 -144.5t-125 -54.5q-41 -4 -93 7z" />
    <glyph glyph-name="uni0424" unicode="&#x424;" horiz-adv-x="863" 
d="M457 -38h-104v82q-138 -2 -226 84.5t-88 231.5q0 144 88 231.5t226 86.5v73h104v-73q137 1 225 -86t88 -231q0 -146 -88 -232.5t-225 -84.5v-82zM457 595v-467q96 -5 151 59.5t55 174.5q0 102 -54 168t-152 65zM353 128v467q-99 4 -152.5 -61t-53.5 -173
q0 -103 54.5 -168.5t151.5 -64.5z" />
    <glyph glyph-name="uni0425" unicode="&#x425;" horiz-adv-x="627" 
d="M561 -4h-85q-6 0 -19 0.5t-19 1.5q-49 102 -153 279q-107 -178 -157 -281h-114q54 105 212 363l-197 335h121l139 -250h1l145 250h113l-199 -328q137 -222 212 -370z" />
    <glyph glyph-name="uni0426" unicode="&#x426;" horiz-adv-x="720" 
d="M573 79h84v-238h-103v155h-478v698h109v-615h281v615h107v-615z" />
    <glyph glyph-name="uni0427" unicode="&#x427;" horiz-adv-x="629" 
d="M523 -4h-108v270q-53 -22 -133 -22q-232 0 -232 234v216h107v-216q0 -146 137 -146q80 0 121 24v338h108v-698z" />
    <glyph glyph-name="uni0428" unicode="&#x428;" horiz-adv-x="981" 
d="M844 -4h-768v698h109v-615h221v615h108v-615h223v615h107v-698z" />
    <glyph glyph-name="uni0429" unicode="&#x429;" horiz-adv-x="1004" 
d="M820 -4h-744v698h109v-615h221v615h108v-615h222v615h108v-615h79v-238h-103v155z" />
    <glyph glyph-name="uni042A" unicode="&#x42a;" horiz-adv-x="725" 
d="M-16 694h253v-258q36 7 83 7q140 -1 215 -58.5t75 -172.5q0 -111 -73.5 -167.5t-210.5 -56.5q-112 0 -194 31v594h-148v81zM500 212q0 74 -46 112t-129 38q-52 0 -88 -6v-275q46 -12 89 -12q174 0 174 143z" />
    <glyph glyph-name="uni042B" unicode="&#x42b;" horiz-adv-x="851" 
d="M76 694h105v-258q35 7 80 7q138 -1 213 -58.5t75 -172.5q0 -111 -73 -167.5t-208 -56.5q-110 0 -192 31v675zM440 212q0 73 -44.5 110.5t-123.5 39.5q-37 0 -53 -1q-6 -1 -19 -2.5t-19 -2.5v-275q46 -12 87 -12q172 0 172 143zM736 -4h-107v698h107v-698z" />
    <glyph glyph-name="uni042C" unicode="&#x42c;" horiz-adv-x="614" 
d="M76 694h105v-258q36 7 82 7q140 -1 215.5 -58.5t75.5 -172.5q0 -111 -73.5 -167.5t-210.5 -56.5q-112 0 -194 31v675zM444 212q0 74 -46 112t-129 38q-51 0 -88 -6v-275q46 -12 89 -12q174 0 174 143z" />
    <glyph glyph-name="uni042D" unicode="&#x42d;" horiz-adv-x="626" 
d="M398 315h-248v85h246q-9 101 -61.5 161t-142.5 57q-71 -1 -126 -33l-28 78q68 44 179 44q133 0 214.5 -100t81.5 -262q0 -165 -81.5 -263t-218.5 -98q-110 0 -176 44l30 79q50 -28 111 -29q48 -4 82 6q64 20 98.5 81.5t39.5 149.5z" />
    <glyph glyph-name="uni042E" unicode="&#x42e;" horiz-adv-x="1031" 
d="M868 345q0 -166 -78 -263.5t-212 -97.5q-127 0 -204 89.5t-85 242.5h-104v-320h-109v698h109v-295h106q13 142 89.5 225t197.5 83q134 0 212 -98.5t78 -263.5zM757 347q0 122 -45 199t-134 77t-134 -77t-45 -199t44.5 -198.5t134.5 -76.5t134.5 76.5t44.5 198.5z" />
    <glyph glyph-name="uni042F" unicode="&#x42f;" horiz-adv-x="635" 
d="M132 -4h-118q89 151 207 314q-19 5 -36 15q-52 13 -87 49.5t-43 92.5q-5 34 1 74q16 77 85 119t182 42q99 0 182 -27v-679h-107v298h-51q-12 -11 -34.5 -30l-31.5 -27q-76 -108 -149 -241zM158 493q0 -69 44 -97t133 -28q36 0 63 3v245q-22 4 -36 6q-15 1 -49 1
q-155 -3 -155 -130z" />
    <glyph glyph-name="uni0430" unicode="&#x430;" horiz-adv-x="498" 
d="M448 351v-331q-76 -32 -198 -32q-101 0 -155.5 42t-54.5 125q0 86 62.5 130t161.5 51q5 0 17 0.5t18 0.5q17 0 49 -4q0 68 -24.5 101t-87.5 33q-78 0 -134 -29l-19 76q55 33 165 33q94 0 147 -48t53 -148zM348 74v192q-50 2 -76 0q-61 -8 -96 -32t-35 -77q0 -95 118 -95
q56 0 89 12z" />
    <glyph glyph-name="uni0431" unicode="&#x431;" horiz-adv-x="541" 
d="M396 245q0 172 -139 172q-68 0 -110 -42v-287q34 -23 106 -23q73 0 108 48t35 132zM50 34v433q0 50 12 89.5t43 78.5t95.5 66t159.5 38q76 7 104 13l5 -83l-116 -16q-112 -17 -155.5 -62.5t-48.5 -137.5q52 41 130 41q104 0 163 -67t59 -181t-64 -186t-185 -72
q-147 0 -202 46z" />
    <glyph glyph-name="uni0432" unicode="&#x432;" horiz-adv-x="526" 
d="M457 566q2 -113 -90 -161q60 -25 89.5 -77.5t29.5 -119.5q0 -98 -70 -160t-186 -62q-104 0 -180 31v518q0 60 17.5 103.5t47.5 66t61.5 32t66.5 9.5q107 0 159.5 -48.5t54.5 -131.5zM381 207q0 59 -32 103t-101 45q-60 0 -95 -10v-273q19 -6 50 -9h34q66 1 105 41.5
t39 102.5zM153 422q6 0 49 4.5t71 4.5h2q44 6 65 41.5t20 81.5q0 119 -114 119q-42 -1 -67 -31t-26 -82v-92v-46z" />
    <glyph glyph-name="uni0433" unicode="&#x433;" horiz-adv-x="437" 
d="M40 140q0 58 33 95t106 67q56 23 79.5 42t23.5 52q0 32 -24 50.5t-63 18.5q-56 0 -109 -28l-25 75q60 33 145 33q82 0 129.5 -42t47.5 -107q0 -56 -35 -94t-105 -66q-55 -22 -76.5 -41t-21.5 -53q0 -35 27 -55t73 -20q75 0 127 33l12 -40t13 -41q-59 -34 -160 -34
q-89 0 -143 42.5t-54 112.5z" />
    <glyph glyph-name="uni0434" unicode="&#x434;" horiz-adv-x="529" 
d="M479 14q0 -225 -234 -225q-102 0 -175 34q4 16 13 45.5t11 34.5q56 -27 127 -30q68 -1 105 29q52 28 52 100v30q-43 -28 -113 -28q-101 0 -163 68.5t-62 192.5q0 126 67 202.5t188 76.5q106 0 184 -34v-496zM378 107v348q-33 12 -84 12q-73 0 -111.5 -53.5t-38.5 -145.5
q0 -93 36.5 -140t101.5 -47q55 0 96 26z" />
    <glyph glyph-name="uni0435" unicode="&#x435;" horiz-adv-x="528" 
d="M488 254l-343 -25q12 -160 160 -160q77 0 137 30l21 -78q-62 -36 -166 -36q-125 0 -191 73.5t-66 206.5t65.5 206.5t166.5 73.5q94 0 149.5 -55.5t64.5 -163.5q0 -5 1 -27.5t1 -44.5zM388 317q-1 74 -31.5 111.5t-85.5 37.5q-57 0 -92.5 -45t-36.5 -123z" />
    </font>
</defs>
</svg>
