<?xml version="1.0" standalone="no"?>
<!DOCTYPE svg PUBLIC "-//W3C//DTD SVG 1.1//EN" "http://www.w3.org/Graphics/SVG/1.1/DTD/svg11.dtd" >
<svg>
<metadata>
Created by FontForge 20090622 at Mon Sep  4 15:03:49 2017
 By deploy user
Copyright (c) 2015 by Context Ltd. All rights reserved.
</metadata>
<defs>
<font id="Repo-Light" horiz-adv-x="569" >
  <font-face 
    font-family="Repo"
    font-weight="300"
    font-stretch="normal"
    units-per-em="1000"
    panose-1="2 0 5 3 4 0 0 2 0 4"
    ascent="800"
    descent="-200"
    x-height="528"
    cap-height="690"
    bbox="-535 -261 1387 1179"
    underline-thickness="120"
    underline-position="-183"
    unicode-range="U+0009-U+FB04"
  />
<missing-glyph horiz-adv-x="586" 
d="M50 0v530h486v-530h-486zM69 74v-2q65 144 202 283q-40 18 -77 25q-72 -123 -125 -306zM348 313q-144 -73 -272 -241q178 125 340 183q-36 38 -68 58zM97 72h420q-9 58 -40 101q-216 -29 -380 -101z" />
    <glyph glyph-name="f_f" unicode="ff" horiz-adv-x="752" 
d="M309 485h-154v-485h-59v485h-90v43h90v28q0 97 31 152t107 66q48 5 85 -3l-6 -45q-24 4 -44 4.5t-35.5 -2.5t-27 -11t-20 -17t-14 -24t-9 -29t-5.5 -35.5t-2.5 -39.5t-0.5 -44h154v-43zM676 485h-154v-485h-59v485h-90v43h90v28q0 97 31 152t107 66q48 5 85 -3l-6 -45
q-24 4 -44 4.5t-35.5 -2.5t-27 -11t-20 -17t-14 -24t-9 -29t-5.5 -35.5t-2.5 -39.5t-0.5 -44h154v-43z" />
    <glyph glyph-name="f_i" unicode="fi" horiz-adv-x="613" 
d="M276 776q75 0 103 -18l-13 -56q-34 16 -87 16q-81 0 -104.5 -43t-23.5 -158h208v-55h-208v-462h-65v573q0 203 190 203zM527 517v-517h-65v517h65zM542 673q0 -23 -13.5 -36.5t-34.5 -13.5t-34.5 13.5t-13.5 36.5t13.5 36.5t34.5 13.5t34.5 -13.5t13.5 -36.5z" />
    <glyph glyph-name="f_l" unicode="fl" horiz-adv-x="631" 
d="M276 776q75 0 103 -18l-13 -56q-34 16 -87 16q-81 0 -104.5 -43t-23.5 -158h208v-55h-208v-462h-65v573q0 203 190 203zM602 32l-14 -46q-67 12 -97.5 45.5t-30.5 127.5v621h59v-546q0 -87 7.5 -125t22 -51.5t53.5 -25.5z" />
    <glyph glyph-name="f_f_i" unicode="ffi" horiz-adv-x="989" 
d="M276 776q75 0 103 -18l-13 -56q-34 16 -87 16q-81 0 -104.5 -43t-23.5 -158h208v-55h-208v-462h-65v573q0 203 190 203zM652 776q75 0 103 -18l-13 -56q-34 16 -87 16q-81 0 -104.5 -43t-23.5 -158h208v-55h-208v-462h-65v573q0 203 190 203zM903 517v-345v-172h-33h-32
v345v172h65zM918 673q0 -23 -13.5 -36.5t-34.5 -13.5t-34.5 13.5t-13.5 36.5t13.5 36.5t34.5 13.5t34.5 -13.5t13.5 -36.5z" />
    <glyph glyph-name="f_f_l" unicode="ffl" horiz-adv-x="1007" 
d="M276 776q75 0 103 -18l-13 -56q-34 16 -87 16q-81 0 -104.5 -43t-23.5 -158h208v-55h-208v-462h-65v573q0 203 190 203zM652 776q75 0 103 -18l-13 -56q-34 16 -87 16q-81 0 -104.5 -43t-23.5 -158h208v-55h-208v-462h-65v573q0 203 190 203zM977 32l-14 -46
q-67 12 -97.5 45.5t-30.5 127.5v621h59v-546q0 -87 7.5 -125t22 -51.5t53.5 -25.5z" />
    <glyph glyph-name=".notdef" horiz-adv-x="586" 
d="M50 0v530h486v-530h-486zM69 74v-2q65 144 202 283q-40 18 -77 25q-72 -123 -125 -306zM348 313q-144 -73 -272 -241q178 125 340 183q-36 38 -68 58zM97 72h420q-9 58 -40 101q-216 -29 -380 -101z" />
    <glyph glyph-name=".null" horiz-adv-x="0" 
 />
    <glyph glyph-name=".null" horiz-adv-x="0" 
 />
    <glyph glyph-name="nonmarkingreturn" horiz-adv-x="333" 
 />
    <glyph glyph-name="CR" unicode="&#x9;" horiz-adv-x="228" 
 />
    <glyph glyph-name="space" unicode=" " horiz-adv-x="240" 
 />
    <glyph glyph-name="exclam" unicode="!" horiz-adv-x="197" 
d="M132 722l-3 -247q-1 -111 -13 -275h-35q-12 139 -13 275l-3 247q16 8 32 8q19 0 35 -8zM147 41q0 -21 -13.5 -34.5t-34.5 -13.5t-35 13.5t-14 34.5t14 35t35 14t34.5 -14t13.5 -35z" />
    <glyph glyph-name="quotedbl" unicode="&#x22;" horiz-adv-x="290" 
d="M120 722q-11 -151 -20 -242h-30q-9 91 -20 242q16 8 35 8t35 -8zM240 722q-11 -151 -20 -242h-30q-9 91 -20 242q16 8 35 8t35 -8z" />
    <glyph glyph-name="numbersign" unicode="#" horiz-adv-x="653" 
d="M546 444h-113l-35 -189h129v-42h-137l-39 -213h-48l39 213h-155l-41 -213h-47l40 212h-104v43h111l36 189h-128v42h136q13 68 37 204h48l-37 -204h156q24 136 37 204h48l-38 -204h105v-42zM386 444h-156l-36 -189h156z" />
    <glyph glyph-name="dollar" unicode="$" horiz-adv-x="564" 
d="M455 186q0 -75 -47 -123t-126 -56q2 -84 4 -124h-51q2 40 4 122q-100 1 -162 39l18 47q51 -30 119 -35q18 -2 57 2q61 6 91.5 40t30.5 84q0 56 -36 87.5t-117 61.5q-126 47 -148 132q-5 20 -5 39q0 73 43 119t122 56q-2 78 -4 115h50q-2 -38 -4 -114q78 -1 132 -31
q-10 -30 -16 -45q-58 29 -125 29q-66 0 -101 -31.5t-35 -91.5q0 -29 9.5 -50.5t31 -36.5t40.5 -24t54 -22q88 -32 129.5 -77.5t41.5 -111.5z" />
    <glyph glyph-name="percent" unicode="%" horiz-adv-x="829" 
d="M767 194q0 -89 -36 -148t-102 -59q-67 0 -103 59t-35 148q0 88 35.5 147t102.5 59q66 0 101.5 -58.5t36.5 -147.5zM597 688l-313 -691l-49 5l314 691zM343 497q0 -89 -36 -148t-102 -59q-67 0 -102.5 59t-35.5 148t35.5 147.5t102.5 58.5q66 0 102 -58.5t36 -147.5z
M717 194q1 68 -19.5 117t-68.5 49t-68.5 -49t-19.5 -117q0 -43 7 -78t27.5 -61.5t53.5 -26.5t53.5 26.5t27.5 61.5t7 78zM293 497q0 69 -20.5 118t-67.5 49q-48 0 -68.5 -49t-20.5 -118q0 -43 7 -77.5t28 -61t54 -26.5q47 0 67.5 48t20.5 117z" />
    <glyph glyph-name="ampersand" unicode="&#x26;" horiz-adv-x="648" 
d="M50 179q0 130 157 204q-62 58 -75 120q-4 17 -4 39q0 78 45 122t119 44q73 0 116 -41.5t43 -105.5q0 -36 -13.5 -66t-40 -53.5t-49.5 -39t-58 -34.5l191 -199q42 69 57 169l55 -7q-28 -119 -74 -189q73 -76 110 -142h-64q-38 61 -75 98q-100 -107 -223 -107
q-58 0 -102 17t-68 45.5t-35.5 60t-11.5 65.5zM108 179q0 -57 40 -99t119 -42q102 0 188 86l-218 231q-29 -15 -46.5 -26.5t-39.5 -32.5t-32.5 -50t-10.5 -67zM395 560q0 44 -27.5 71t-73.5 27q-110 0 -110 -109q0 -84 81 -150q130 63 130 161z" />
    <glyph glyph-name="quotesingle" unicode="'" horiz-adv-x="240" 
d="M146 720l-2 -53q-3 -83 -16 -186h-31q-15 125 -17 204q0 24 -1 35q16 8 34 8q19 0 33 -8z" />
    <glyph glyph-name="parenleft" unicode="(" horiz-adv-x="310" 
d="M303 -179l-38 -25q-186 242 -186 496q0 253 186 497l38 -25q-161 -214 -161 -472q0 -259 161 -471z" />
    <glyph glyph-name="parenright" unicode=")" horiz-adv-x="310" 
d="M248 292q0 -254 -186 -496l-38 25q161 212 161 471q0 258 -161 472q7 4 19 12.5t19 12.5q186 -244 186 -497z" />
    <glyph glyph-name="asterisk" unicode="*" horiz-adv-x="472" 
d="M202 693h68q0 -64 -19 -175l49 23.5t60 28t52 19.5l21 -65q-65 -21 -173 -36l23.5 -23.5l27 -27l22 -23t25.5 -29t21 -27.5l-56 -41q-12 16 -24.5 37l-20.5 35.5t-22 42l-20 39.5l-19.5 -37.5l-21.5 -41.5t-21 -36.5t-25 -38.5l-56 41q33 44 119 130q-105 14 -173 36
l21 65q19 -6 41 -15t37.5 -16t42 -20l40.5 -20q-18 98 -19 175z" />
    <glyph glyph-name="plus" unicode="+" horiz-adv-x="564" 
d="M475 287h-182v-200h-50v200h-181v50h181v199h50v-199h182v-50z" />
    <glyph glyph-name="comma" unicode="," horiz-adv-x="246" 
d="M164 62q-23 -105 -91 -226l-40 11q40 92 56 193q1 6 2.5 18t2.5 18q51 7 58 7q17 0 12 -21z" />
    <glyph glyph-name="hyphen" unicode="-" horiz-adv-x="297" 
d="M257 280h-217v50h217v-50z" />
    <glyph glyph-name="period" unicode="." horiz-adv-x="246" 
d="M168 41q0 -21 -13.5 -34.5t-34.5 -13.5q-22 0 -35.5 13.5t-13.5 34.5t14 35t35 14t34.5 -14t13.5 -35z" />
    <glyph glyph-name="slash" unicode="/" horiz-adv-x="359" 
d="M406 789l52 -9l-408 -985l-51 10z" />
    <glyph glyph-name="zero" unicode="0" horiz-adv-x="564" 
d="M477 345q0 -101 -20 -179t-68.5 -128t-120.5 -50t-120.5 50t-68.5 128t-20 179q0 75 11.5 138t36 113.5t65.5 78.5t96 28q72 0 120.5 -50.5t68.5 -128t20 -179.5zM415 345q0 58 -6.5 108.5t-21.5 99t-45.5 76.5t-73.5 28t-73.5 -28t-45.5 -76.5t-21.5 -99t-6.5 -108.5
t6.5 -108t21.5 -97.5t45.5 -75.5t73.5 -28t73.5 28t45.5 75.5t21.5 97.5t6.5 108z" />
    <glyph glyph-name="one" unicode="1" horiz-adv-x="564" 
d="M343 0h-59v599q-27 -22 -78 -44t-95 -31l-7 21l-6 21q134 30 205 124h40v-690z" />
    <glyph glyph-name="two" unicode="2" horiz-adv-x="564" 
d="M455 0h-392q13 22 24 47q6 24 17.5 49t21 41.5t31 44.5t29 37l35.5 41t31 36l49 59q71 86 72 163q0 32 -10 60q-19 49 -74 66q-29 8 -61 8q-72 0 -136 -47l-26 40q79 58 173 58q91 0 145 -48.5t54 -133.5q0 -84 -95 -198l-56 -65l-52 -59.5t-39.5 -54t-28.5 -57.5
q-18 -24 -26 -36h314v-51z" />
    <glyph glyph-name="three" unicode="3" horiz-adv-x="564" 
d="M454 191q0 -91 -62.5 -147t-168.5 -56q-105 0 -164 35q3 8 8.5 24t8.5 24q52 -33 142 -33q84 0 128 40.5t44 113.5q0 83 -54 119t-135 39h-25v44q15 1 41 5q62 9 102.5 42t40.5 93q0 61 -37.5 90t-93.5 29q-76 0 -131 -36l-23 43q71 43 158 43q86 0 138 -44t52 -119
q0 -62 -38.5 -102t-88.5 -57v-1q65 -15 111.5 -61t46.5 -128z" />
    <glyph glyph-name="four" unicode="4" horiz-adv-x="564" 
d="M482 177h-72v-177h-56v177h-300v40q124 249 297 473h59v-468h72v-45zM354 623q-22 -25 -62 -89q-102 -149 -183 -312h245v223v178z" />
    <glyph glyph-name="five" unicode="5" horiz-adv-x="564" 
d="M458 194q0 -88 -61 -147t-168 -59q-101 0 -162 35q10 32 16 48q58 -34 143 -34q78 0 123.5 41.5t45.5 113.5q0 92 -66 136.5t-220 33.5q17 169 24 328h307v-51h-259q-9 -142 -17 -230q144 8 219 -51t75 -164z" />
    <glyph glyph-name="six" unicode="6" horiz-adv-x="564" 
d="M478 201q0 -86 -51.5 -149.5t-147.5 -63.5q-101 0 -155.5 71t-54.5 201q0 105 31 188t83.5 133t112 78t124.5 35l9 -45q-236 -42 -288 -267q59 28 127 28q101 0 155.5 -57t54.5 -152zM416 200q0 165 -153 165q-66 0 -127 -28q-6 -31 -6 -77q0 -225 149 -225
q69 0 103 47.5t34 117.5z" />
    <glyph glyph-name="seven" unicode="7" horiz-adv-x="564" 
d="M478 690l-48 -137q-29 -38 -42 -64q-59 -118 -107.5 -255t-62.5 -234h-35h-34q39 158 112.5 333t150.5 305h-343v52h409z" />
    <glyph glyph-name="eight" unicode="8" horiz-adv-x="564" 
d="M474 169q0 -80 -57.5 -130.5t-148.5 -50.5q-95 0 -155 57t-46 148q11 97 135 166q-67 35 -94 75.5t-27 94.5q0 77 53.5 125.5t133.5 48.5q85 0 136 -49t51 -120q0 -14 -4 -25q-9 -88 -119 -153q77 -40 109.5 -85t32.5 -102zM397 533q0 53 -34 88.5t-95 35.5
q-59 0 -94 -35.5t-35 -89.5q0 -55 30.5 -89t115.5 -68q60 34 86 70t26 88zM413 166q0 65 -36.5 97.5t-128.5 74.5q-69 -36 -97.5 -75.5t-28.5 -96.5q0 -59 40.5 -95t105.5 -36q67 0 106 36.5t39 94.5z" />
    <glyph glyph-name="nine" unicode="9" horiz-adv-x="564" 
d="M469 427q0 -106 -31.5 -190t-84 -134t-113.5 -77t-127 -32q-6 21 -9 45q239 29 293 268q-62 -29 -128 -29q-100 0 -154.5 57.5t-54.5 151.5q0 85 51.5 149t147.5 64q101 0 155.5 -71t54.5 -202zM408 428q0 225 -149 225q-69 0 -103 -47.5t-34 -117.5q0 -164 153 -164
q66 0 127 28q6 39 6 76z" />
    <glyph glyph-name="colon" unicode=":" horiz-adv-x="246" 
d="M168 403q0 -21 -13.5 -35t-34.5 -14t-35 14t-14 35t13.5 34.5t35.5 13.5q21 0 34.5 -13.5t13.5 -34.5zM168 41q0 -21 -13.5 -34.5t-34.5 -13.5q-22 0 -35.5 13.5t-13.5 34.5t14 35t35 14t34.5 -14t13.5 -35z" />
    <glyph glyph-name="semicolon" unicode=";" horiz-adv-x="229" 
d="M172 403q-1 -21 -14.5 -35t-34.5 -14t-35 14t-14 35t14 34.5t35 13.5t35 -13.5t14 -34.5zM164 62q-23 -105 -91 -226l-40 11q40 92 56 193q1 6 2.5 18t2.5 18q51 7 58 7q17 0 12 -21z" />
    <glyph glyph-name="less" unicode="&#x3c;" horiz-adv-x="564" 
d="M465 113l-404 176v49l404 176q7 -37 10 -50l-352 -151l352 -151q-3 -13 -10 -49z" />
    <glyph glyph-name="equal" unicode="=" horiz-adv-x="564" 
d="M475 430v-50l-413 -1v51h413zM475 194h-413v50h413v-50z" />
    <glyph glyph-name="greater" unicode="&#x3e;" horiz-adv-x="564" 
d="M475 289l-404 -176q-7 36 -10 49l352 151l-352 151q3 13 10 50l404 -176v-49z" />
    <glyph glyph-name="question" unicode="?" horiz-adv-x="380" 
d="M351 548q0 -40 -17 -74.5t-41.5 -60l-49 -51t-42.5 -60t-20 -74.5q0 -8 -0.5 -44t-0.5 -40h-47q-10 56 -10 113q0 36 26 76.5t57 70t57 68.5t26 74q0 50 -35 78t-89 28q-65 0 -114 -29l-19 43q56 35 139 35q88 0 134 -43t46 -110zM215 41q0 -21 -13.5 -34.5t-34.5 -13.5
t-35 13.5t-14 34.5t14 35t35 14t34.5 -14t13.5 -35z" />
    <glyph glyph-name="at" unicode="@" horiz-adv-x="940" 
d="M832 367q0 -104 -44 -188t-115 -106q-82 -20 -117 49q-36 -30 -83 -45.5t-92 -8.5q-56 10 -87.5 58.5t-31.5 122.5q0 59 23.5 115t71.5 95t110 39q33 0 63 -14.5t43 -34.5l9 40l45 -13l-33 -300q-8 -38 8.5 -55.5t43.5 -17.5q36 0 65 34t44.5 83.5t22 100.5t2.5 89
q-12 112 -88.5 181.5t-195.5 69.5q-151 0 -253 -100.5t-117 -261.5q-7 -82 11 -153.5t59 -127t111 -88t160 -32.5q81 0 134.5 19.5t96.5 61.5q4 -16 11 -37q-86 -86 -242 -86q-195 0 -301 122.5t-89 318.5q14 184 146 302t318 99q129 -14 210 -102.5t81 -228.5zM534 146
l25 241q-1 35 -41.5 53t-77.5 10q-51 -12 -82.5 -60t-37.5 -111q-3 -35 2 -69t26 -65.5t58 -36.5q67 -11 128 38z" />
    <glyph glyph-name="A" unicode="A" horiz-adv-x="609" 
d="M588 0h-67l-73 212h-294q-42 -112 -74 -212h-62q172 478 259 690h52q56 -136 259 -690zM432 260l-98 273q-8 22 -18 52.5t-14 38.5q-4 -6 -14 -35q-20 -59 -61.5 -172t-56.5 -157h262z" />
    <glyph glyph-name="B" unicode="B" horiz-adv-x="630" 
d="M532 189q0 -99 -72 -148t-205 -49q-103 0 -169 28v650q68 28 168 28q112 0 179.5 -44t67.5 -129q0 -63 -34.5 -103t-88.5 -55q63 -12 108.5 -57.5t45.5 -120.5zM438 521q0 131 -185 131q-2 0 -5.5 -0.5t-4.5 -0.5h-10q-46 0 -86 -11v-256h70q111 0 166 30t55 107z
M467 187q0 88 -59.5 120.5t-186.5 32.5h-74v-287q48 -13 110 -13q210 0 210 147z" />
    <glyph glyph-name="C" unicode="C" horiz-adv-x="609" 
d="M509 26q-20 -15 -64.5 -26.5t-100.5 -11.5q-126 0 -205 98t-79 259q0 158 81.5 258t203.5 100q104 0 161 -41l-19 -47q-55 37 -131 37q-135 0 -195 -126q-35 -74 -35 -181t36.5 -185t106.5 -106q36 -15 81 -15q83 0 141 33z" />
    <glyph glyph-name="D" unicode="D" horiz-adv-x="702" 
d="M582 350q0 -170 -86.5 -264t-239.5 -94q-104 0 -170 27v651q68 28 169 28q151 0 239 -90.5t88 -257.5zM516 350q0 144 -66.5 222.5t-194.5 78.5q-70 0 -106 -12v-585q30 -12 107 -12q131 0 195.5 80.5t64.5 227.5z" />
    <glyph glyph-name="E" unicode="E" horiz-adv-x="555" 
d="M451 0h-365v690h352v-49h-289v-256h259v-49h-259v-287h302v-49z" />
    <glyph glyph-name="F" unicode="F" horiz-adv-x="520" 
d="M434 641h-285v-258h256v-49h-256v-334h-63v690h348v-49z" />
    <glyph glyph-name="G" unicode="G" horiz-adv-x="658" 
d="M545 23q-64 -35 -188 -35q-126 0 -211.5 93.5t-85.5 266.5q0 169 87.5 262t213.5 93q110 0 175 -41l-20 -47q-56 37 -154 37q-108 0 -172 -79.5t-64 -229.5q0 -143 64.5 -224.5t173.5 -81.5q82 0 118 18v244h-67v53h130v-329z" />
    <glyph glyph-name="H" unicode="H" horiz-adv-x="692" 
d="M550 0h-63v335h-338v-335h-63v690h63v-306h338v306h63v-690z" />
    <glyph glyph-name="I" unicode="I" horiz-adv-x="248" 
d="M151 0h-63v690h63v-690z" />
    <glyph glyph-name="J" unicode="J" horiz-adv-x="487" 
d="M272 118q0 -92 -41 -150t-125 -72q-59 -6 -125 16q10 32 16 48q58 -17 103 -7q67 14 88 62.5t21 154.5v65v455h63v-572z" />
    <glyph glyph-name="K" unicode="K" horiz-adv-x="599" 
d="M525 0h-36h-35q-137 202 -304 353v-353h-62v690h62v-323q213 231 287 323h71l-293 -324q80 -75 167.5 -177.5t142.5 -188.5z" />
    <glyph glyph-name="L" unicode="L" horiz-adv-x="502" 
d="M425 0h-337v690h63v-641h274v-49z" />
    <glyph glyph-name="M" unicode="M" horiz-adv-x="865" 
d="M753 0h-62q-30 406 -51 616q-1 0 -21 -59q-7 -18 -81.5 -221t-101.5 -286h-56q-25 82 -98 278.5t-84 228.5q-4 11 -8.5 26t-7.5 23t-4 10q-36 -388 -53 -616h-59q39 441 68 690h63q131 -332 190 -504q5 -14 10 -30t7.5 -25.5t4.5 -13.5q2 0 5 9.5t8.5 28.5t9.5 31
q103 290 191 504h62q29 -249 68 -690z" />
    <glyph glyph-name="N" unicode="N" horiz-adv-x="709" 
d="M590 0h-29h-29q-107 188 -344 545q-9 13 -20 32l-17 29t-9 10q0 -16 1 -114t1 -149v-353h-58v690h64q192 -270 347 -529l16 -29l13.5 -24.5t7.5 -11.5q0 33 -1 155.5t-1 181.5v257h58v-690z" />
    <glyph glyph-name="O" unicode="O" horiz-adv-x="684" 
d="M624 345q0 -164 -76 -260.5t-206 -96.5t-206 96.5t-76 260.5q0 163 76 260.5t206 97.5t206 -97.5t76 -260.5zM559 346q0 135 -55 221t-162 86t-162 -86t-55 -221t54.5 -221t162.5 -86q109 0 163 86t54 221z" />
    <glyph glyph-name="P" unicode="P" horiz-adv-x="592" 
d="M506 490q0 -106 -74.5 -160.5t-218.5 -47.5q-11 0 -32.5 0.5t-32.5 0.5v-283h-62v670q68 28 164 28q127 0 191.5 -54.5t64.5 -153.5zM442 491q0 82 -51.5 121t-141.5 39q-51 0 -101 -12v-308q10 0 30 -0.5t30 -0.5q234 -12 234 161z" />
    <glyph glyph-name="Q" unicode="Q" horiz-adv-x="774" 
d="M624 346q0 -132 -54 -221.5t-149 -122.5q18 -42 62 -74.5t109 -63.5l-29 -49q-2 1 -21 12t-23.5 14t-21.5 13.5t-23 15.5t-21 16t-21.5 18l-18 19t-17.5 22t-13 23t-11 27q-38 -5 -77 1q-112 13 -173.5 107t-61.5 243q0 163 76 260t206 97t206 -97t76 -260zM560 347
q0 135 -54.5 220.5t-163.5 85.5q-108 0 -162.5 -85.5t-54.5 -220.5q0 -87 21.5 -154t71.5 -110t124 -43t124 43t72 110t22 154z" />
    <glyph glyph-name="R" unicode="R" horiz-adv-x="618" 
d="M531 0h-70q-135 221 -210 298h-102v-298h-61v671q68 27 163 27q124 0 188.5 -53t64.5 -153q0 -83 -48 -133.5t-135 -58.5v-1q102 -128 210 -299zM440 492q0 51 -16 85t-46 50t-59.5 22t-67.5 6q-62 0 -102 -14v-297h102q91 0 140 32t49 116z" />
    <glyph glyph-name="S" unicode="S" horiz-adv-x="517" 
d="M438 180q0 -90 -60 -141t-160 -51q-112 0 -177 41l20 50q66 -40 154 -40q75 0 117 35.5t42 102.5q0 60 -36.5 92t-116.5 63q-136 53 -161 141q-6 23 -6 48q0 82 54.5 132t148.5 50q98 0 156 -41l-20 -47q-58 38 -136 38q-65 0 -102.5 -33.5t-37.5 -95.5q0 -56 35.5 -86
t106.5 -58q93 -36 136 -83.5t43 -116.5z" />
    <glyph glyph-name="T" unicode="T" horiz-adv-x="548" 
d="M453 641h-183v-641h-63v641h-183v49h429v-49z" />
    <glyph glyph-name="U" unicode="U" horiz-adv-x="680" 
d="M540 225q0 -105 -58 -171.5t-170 -66.5q-99 0 -156.5 54t-66.5 140q-4 40 -4 93v416h62v-411q0 -118 39 -178.5t128 -60.5q62 0 106.5 37t53.5 103q6 44 6 99v411h60v-465z" />
    <glyph glyph-name="V" unicode="V" horiz-adv-x="624" 
d="M547 690q-133 -408 -234 -690h-28h-28l-236 690h68q81 -268 168 -528q4 -13 11 -34t11 -34.5t7 -19.5q8 15 30 87q50 142 168 529h63z" />
    <glyph glyph-name="W" unicode="W" horiz-adv-x="921" 
d="M824 690q-78 -393 -164 -690h-62q-115 371 -145 477q-5 17 -11.5 45.5t-9.5 35.5q-3 -6 -6 -18t-7 -30.5t-8 -32.5q-34 -118 -147 -477h-60q-80 269 -164 690h65q52 -276 107 -515q22 -96 25 -105q4 0 32 97q64 209 138 481h53q69 -261 138 -481l31 -97q2 4 4.5 14.5
t6 28.5t6.5 28q53 225 118 549h60z" />
    <glyph glyph-name="X" unicode="X" horiz-adv-x="554" 
d="M524 0h-35h-35q-53 108 -178 316q-119 -193 -182 -316h-64q55 106 212 361l-195 329h70l160 -282h1l167 282h64l-197 -325q150 -244 212 -365z" />
    <glyph glyph-name="Y" unicode="Y" 
d="M510 690q-133 -251 -215 -390v-300h-62v299q-107 182 -216 391h71q91 -192 178 -344q82 144 180 344h64z" />
    <glyph glyph-name="Z" unicode="Z" horiz-adv-x="560" 
d="M450 0h-417v50q88 189 335 590h-320v50h391v-50l-72 -122.5l-95.5 -164l-84 -149.5t-80.5 -154h343v-50z" />
    <glyph glyph-name="bracketleft" unicode="[" horiz-adv-x="310" 
d="M289 -200h-197v984h197v-42h-141v-899h141v-43z" />
    <glyph glyph-name="backslash" unicode="\" horiz-adv-x="359" 
d="M461 -195q-36 -6 -54 -10l-408 984l52 10z" />
    <glyph glyph-name="bracketright" unicode="]" horiz-adv-x="310" 
d="M228 -200h-197v43h141v899h-141v42h197v-984z" />
    <glyph glyph-name="asciicircum" unicode="^" horiz-adv-x="564" 
d="M480 423q-22 -14 -33 -22l-166 247l-166 -247q-11 8 -33 22l145 227q18 27 38 44q28 0 50 -11z" />
    <glyph glyph-name="underscore" unicode="_" horiz-adv-x="514" 
d="M514 -185h-514v50h514v-50z" />
    <glyph glyph-name="grave" unicode="`" horiz-adv-x="219" 
d="M189 576h-31l-141 176h85z" />
    <glyph glyph-name="a" unicode="a" horiz-adv-x="509" 
d="M415 20q-62 -30 -177 -30q-91 0 -140.5 40t-49.5 117q0 158 219 177q18 2 90 -2q0 87 -26 127.5t-102 40.5q-74 0 -125 -28l-12 46q55 31 142 31q86 0 133.5 -45.5t47.5 -132.5v-57v-284zM357 50v227q-50 4 -94 1q-73 -10 -114 -38.5t-41 -92.5q0 -112 139 -112
q65 0 110 15z" />
    <glyph glyph-name="b" unicode="b" horiz-adv-x="583" 
d="M489 267q0 -126 -65 -202t-177 -76q-98 0 -166 32v759h59v-278q53 34 129 34q101 0 160.5 -73.5t59.5 -195.5zM427 267q0 98 -41 160.5t-125 62.5q-65 0 -121 -35v-403q37 -15 106 -15q88 0 134.5 61.5t46.5 168.5z" />
    <glyph glyph-name="c" unicode="c" horiz-adv-x="460" 
d="M402 21q-45 -31 -127 -31q-102 0 -161 74t-59 199q0 127 59 201.5t160 74.5q77 0 123 -30q-10 -30 -16 -45q-42 25 -100 25q-83 0 -123.5 -59.5t-40.5 -164.5q0 -104 42 -164.5t126 -60.5q57 0 102 27z" />
    <glyph glyph-name="d" unicode="d" horiz-adv-x="583" 
d="M462 21q-68 -32 -169 -32q-111 0 -174.5 73.5t-63.5 195.5q0 127 62.5 202t170.5 75q59 0 115 -27v272h59v-759zM403 53v408q-56 28 -108 28q-94 0 -136.5 -64.5t-42.5 -163.5q0 -103 46.5 -163.5t133.5 -60.5q75 0 107 16z" />
    <glyph glyph-name="e" unicode="e" horiz-adv-x="548" 
d="M469 271l-354 -26q9 -205 184 -205q73 0 129 29l14 -47q-51 -32 -145 -32q-117 0 -179.5 70.5t-62.5 204.5q0 132 62 203t153 71q85 0 136 -51t60 -154q2 -20 3 -63zM410 312q-1 89 -37 133.5t-103 44.5q-68 0 -110.5 -53.5t-44.5 -147.5z" />
    <glyph glyph-name="f" unicode="f" horiz-adv-x="376" 
d="M309 485h-154v-485h-59v485h-90v43h90v28q0 97 31 152t107 66q48 5 85 -3l-6 -45q-24 4 -44 4.5t-35.5 -2.5t-27 -11t-20 -17t-14 -24t-9 -29t-5.5 -35.5t-2.5 -39.5t-0.5 -44h154v-43z" />
    <glyph glyph-name="g" unicode="g" horiz-adv-x="573" 
d="M457 6q0 -212 -216 -212q-91 0 -155 30q5 16 17 48q56 -29 135 -29q84 0 123 41q38 39 38 117v38q-49 -34 -126 -34q-97 0 -157.5 67.5t-60.5 192.5q0 122 63 197.5t174 75.5q97 0 165 -32v-500zM399 87v388q-37 16 -106 16q-85 0 -131 -61.5t-46 -164.5
q0 -104 44 -158.5t120 -54.5q71 0 119 35z" />
    <glyph glyph-name="h" unicode="h" 
d="M461 0h-59v288q0 51 -4 81.5t-17 60.5t-42 43.5t-75 13.5q-74 0 -123 -28v-459h-60v780h60v-276q68 31 129 31q53 0 90 -15t56.5 -36t30 -56.5t12.5 -62t2 -66.5v-299z" />
    <glyph glyph-name="i" unicode="i" horiz-adv-x="237" 
d="M156 681q0 -19 -12 -31t-30 -12t-30 12t-12 31t12 31t30 12t30 -12t12 -31zM144 0h-59v528h59v-528z" />
    <glyph glyph-name="j" unicode="j" horiz-adv-x="237" 
d="M158 681q0 -19 -12 -31t-30 -12t-30 12t-12 31t12 31t30 12t30 -12t12 -31zM146 11q0 -177 -132 -203q-19 -7 -54 -7l5 45q65 9 92 49t29 114v519h60v-517z" />
    <glyph glyph-name="k" unicode="k" horiz-adv-x="495" 
d="M453 0h-70q-102 146 -240 270v-270h-59v780h59v-497q117 123 220 245h69l-227 -247q136 -124 248 -281z" />
    <glyph glyph-name="l" unicode="l" horiz-adv-x="255" 
d="M227 32l-14 -46q-67 12 -97.5 45.5t-30.5 127.5v621h59v-546q0 -87 7.5 -125t22 -51.5t53.5 -25.5z" />
    <glyph glyph-name="m" unicode="m" horiz-adv-x="863" 
d="M760 0h-59v291q0 41 -1 63.5t-7.5 52.5t-19 45t-36 26t-58.5 11q-86 0 -137 -53q9 -70 9 -154v-282h-60v293q0 42 -1.5 67t-9 53t-21.5 43t-39 24.5t-62 9.5q-76 0 -117 -18v-472h-60v505q82 33 184 33q104 0 152 -64q64 64 167 64q32 0 58 -5.5t44 -17.5t31 -24.5
t21 -33.5t12.5 -36t6.5 -40.5t2.5 -39t0.5 -39.5v-302z" />
    <glyph glyph-name="n" unicode="n" 
d="M461 0h-59v291q0 40 -1.5 63t-9 52.5t-22 45.5t-41.5 27t-66 11q-75 0 -121 -18v-472h-60v505q77 33 190 33q52 0 89 -15.5t56 -37t30 -56.5t13 -61.5t2 -65.5v-302z" />
    <glyph glyph-name="o" unicode="o" horiz-adv-x="582" 
d="M488 263q0 -123 -57 -198.5t-159 -75.5q-103 0 -160 75.5t-57 198.5q0 124 57 200t159 76q103 0 160 -76t57 -200zM426 263q0 99 -38 164t-116 65q-79 0 -117.5 -65t-38.5 -164t38.5 -162t117.5 -63t116.5 63t37.5 162z" />
    <glyph glyph-name="p" unicode="p" horiz-adv-x="583" 
d="M489 269q0 -128 -62.5 -203.5t-171.5 -75.5q-65 0 -115 28v-218h-59v705q68 33 169 33q111 0 175 -73t64 -196zM427 266q0 107 -45.5 166t-134.5 59q-72 0 -107 -16v-409q53 -29 107 -29q91 0 135.5 61.5t44.5 167.5z" />
    <glyph glyph-name="q" unicode="q" horiz-adv-x="583" 
d="M462 -200h-58v224q-51 -34 -129 -34q-103 0 -161.5 73.5t-58.5 195.5q0 127 64.5 203t176.5 76q96 0 166 -32v-706zM404 73v402q-35 16 -107 16q-87 0 -134 -61.5t-47 -170.5q0 -104 41 -163t128 -59q68 0 119 36z" />
    <glyph glyph-name="r" unicode="r" horiz-adv-x="374" 
d="M321 530l-15 -51q-31 9 -85 9q-53 -1 -80 -18v-470h-60v502q63 30 143 34q47 1 97 -6z" />
    <glyph glyph-name="s" unicode="s" horiz-adv-x="428" 
d="M364 137q0 -64 -50.5 -105.5t-131.5 -41.5q-91 0 -141 32l17 49q37 -31 122 -31q55 0 89 25t34 70q0 43 -24.5 65.5t-89.5 48.5q-71 28 -103.5 63t-32.5 87q0 61 45 100.5t119 39.5q79 0 125 -30q-2 -8 -7.5 -23.5l-8.5 -23.5q-46 29 -109 29q-48 0 -77 -24t-29 -65
q0 -40 27 -63t83 -44q73 -28 108 -64t35 -94z" />
    <glyph glyph-name="t" unicode="t" horiz-adv-x="387" 
d="M317 11q-32 -16 -78 -16q-38 0 -65.5 13.5t-42.5 33t-23.5 51t-11 58.5t-2.5 64v267h-62v42h62v156h59v-152h153v-43h-153v-293q0 -75 15 -108t60 -39q46 -8 81 11q6 -30 8 -45z" />
    <glyph glyph-name="u" unicode="u" 
d="M453 25q-84 -35 -185 -35q-59 0 -98 17.5t-58.5 52t-26.5 74t-7 96.5v298h60v-286q0 -106 27.5 -154.5t110.5 -48.5q81 0 117 20v469h60v-503z" />
    <glyph glyph-name="v" unicode="v" horiz-adv-x="480" 
d="M449 528q-67 -230 -183 -528h-27h-26q-112 279 -185 528h64q48 -180 130 -409q3 -10 7.5 -23.5l7 -21t4.5 -11.5q2 3 20 56q93 269 131 409h57z" />
    <glyph glyph-name="w" unicode="w" horiz-adv-x="775" 
d="M734 528q-71 -271 -164 -528h-52q-76 223 -119 377q-4 14 -8.5 35t-6.5 26q-51 -185 -135 -438h-53q-93 257 -164 528h63q36 -160 115 -413q3 -10 6 -22.5t5 -18.5t4 -9l16 55q71 224 119 408h53q43 -190 116 -409q3 -9 6 -21.5t5.5 -21t4.5 -11.5q2 2 4 9l5.5 19.5
t6.5 21.5q61 183 115 413h58z" />
    <glyph glyph-name="x" unicode="x" horiz-adv-x="499" 
d="M443 0h-64q-50 92 -143 238q-74 -108 -144 -238h-62q61 108 172 276l-95 151l-63 101h67l125 -208h1l128 208h62l-157 -247q125 -193 173 -281z" />
    <glyph glyph-name="y" unicode="y" horiz-adv-x="474" 
d="M444 528q-92 -333 -175 -549q-18 -47 -29 -70.5t-30.5 -43t-44.5 -19.5q-11 0 -22 1.5t-18 3t-16 5.5t-12 6l-11 7t-9 5l11 37q47 -27 63 -27q14 0 26 10t21 31.5t13 33t11 36.5q-117 269 -194 533h64q47 -179 131 -403q5 -13 13.5 -38t11.5 -32q2 0 5.5 12l8.5 30t8 27
q49 148 117 404h57z" />
    <glyph glyph-name="z" unicode="z" horiz-adv-x="455" 
d="M389 0h-354v35q24 47 63.5 114.5l69 115.5l77 123.5l59.5 95.5h-253v44h329v-41l-56 -85q-135 -203 -214 -359h279v-43z" />
    <glyph glyph-name="braceleft" unicode="{" horiz-adv-x="319" 
d="M302 -163q-48 0 -79.5 10.5t-49 25.5t-26 47.5t-10.5 60.5t-2 80v107q0 115 -84 119v41q84 3 84 119v142q0 50 6 82t23.5 58.5t51 38t86.5 11.5v-42q-58 0 -83.5 -24t-27.5 -80v-183q0 -62 -18 -95t-55 -47q37 -16 55 -48t18 -95v-183q0 -55 27 -79t84 -24v-42z" />
    <glyph glyph-name="bar" unicode="|" horiz-adv-x="262" 
d="M147 -200h-55v984h55v-984z" />
    <glyph glyph-name="braceright" unicode="}" horiz-adv-x="319" 
d="M284 287q-84 -3 -84 -119v-142q0 -101 -32.5 -145t-133.5 -44v42q65 0 88 29t23 101v156q0 63 18 96t54 46v1q-36 14 -54 46.5t-18 95.5v126q0 94 -20 127.5t-91 33.5v42q54 0 87.5 -12t50.5 -38.5t22.5 -58t5.5 -81.5v-142q0 -116 84 -119v-41z" />
    <glyph glyph-name="asciitilde" unicode="~" horiz-adv-x="564" 
d="M492 348q-25 -95 -112 -101q-34 -3 -69 17.5l-68 41t-63 18.5q-19 0 -36 -15.5t-24.5 -29.5t-12.5 -28q-20 12 -38 20q13 43 37.5 70.5t73.5 30.5q29 1 57.5 -11.5t48 -28t45 -27.5t49.5 -10q49 3 73 74z" />
    <glyph glyph-name="uni00A0" unicode="&#xa0;" horiz-adv-x="228" 
 />
    <glyph glyph-name="exclamdown" unicode="&#xa1;" horiz-adv-x="274" 
d="M172 5v-190h-70v190q0 139 20 287h15h15q20 -160 20 -287zM191 433q0 -24 -15 -39.5t-40 -15.5t-40 15.5t-15 39.5t14.5 39.5t40.5 15.5t40.5 -15.5t14.5 -39.5z" />
    <glyph glyph-name="cent" unicode="&#xa2;" horiz-adv-x="564" 
d="M304 -109v143q-94 14 -145.5 83t-51.5 173q0 103 53 174.5t144 85.5v143h59v-141q57 0 116 -24l-17 -55q-54 23 -109 23q-29 0 -53 -6q-124 -29 -124 -200q0 -76 31 -128t96 -67q32 -7 60 -7q64 0 113 23l12 -54q-13 -8 -50 -16t-75 -10v-140h-59z" />
    <glyph glyph-name="sterling" unicode="&#xa3;" horiz-adv-x="564" 
d="M242 469v-105h201v-55h-201v-9q0 -137 -17 -243h303v-57h-379q26 159 26 297v12h-96v55h96v96q0 139 53 192.5t152 53.5q70 0 128 -28l-18 -59q-50 26 -118 26q-67 0 -98.5 -38.5t-31.5 -137.5z" />
    <glyph glyph-name="currency" unicode="&#xa4;" horiz-adv-x="564" 
d="M486 156l-33 -34l-75 76q-46 -37 -110 -37q-62 0 -110 37l-74 -76l-10.5 11t-12.5 12.5l-11 10.5l74 75q-37 46 -37 112q0 65 37 113l-74 74l10.5 11t12.5 12.5l11 10.5l74 -75q49 36 110 36q64 0 110 -37l75 76l33 -34l-73 -75q36 -47 36 -112t-36 -112zM402 343
q0 58 -39 97.5t-95 39.5t-94.5 -39.5t-38.5 -97.5t38.5 -97.5t94.5 -39.5t95 39.5t39 97.5z" />
    <glyph glyph-name="yen" unicode="&#xa5;" horiz-adv-x="564" 
d="M315 0h-65v115h-163v53h163v119h-163v53h149q-132 205 -205 353h69q70 -153 184 -322q115 172 183 322h66q-56 -120 -206 -353h151v-53h-163v-119h163v-53h-163v-115z" />
    <glyph glyph-name="brokenbar" unicode="&#xa6;" horiz-adv-x="262" 
d="M100 -185v376h62v-376h-62zM100 407v376h62v-376h-62z" />
    <glyph glyph-name="section" unicode="&#xa7;" horiz-adv-x="482" 
d="M433 257q0 -49 -31 -89.5t-78 -67.5q66 -48 71 -111q5 -70 -42.5 -112.5t-130.5 -42.5t-138 32q3 9 17 44q50 -31 121 -31q60 0 94 32q23 21 23 56q0 36 -23.5 65.5t-88.5 60.5q-93 52 -128 91.5t-35 104.5q0 94 109 160q-54 45 -60 103q-10 63 35 106t120 43
q80 0 128 -29l-16 -42q-47 27 -111 27q-47 0 -74 -21q-29 -23 -29 -62q0 -35 21 -60.5t75 -54.5q4 -4 12 -10q88 -48 123.5 -87t35.5 -105zM377 250q0 37 -19 66t-41 43.5t-57.5 34.5t-51.5 32q-72 -42 -86 -99q-3 -13 -3 -30q0 -29 9.5 -52t29.5 -40.5t37.5 -29t47.5 -27.5
t45 -25q89 49 89 127z" />
    <glyph glyph-name="dieresis" unicode="&#xa8;" horiz-adv-x="364" 
d="M142 673q0 -22 -13 -35t-33 -13t-33 13t-13 35t13 35t33 13t33 -13t13 -35zM314 673q0 -22 -13 -35t-33 -13t-33 13t-13 35t13 35t33 13t33 -13t13 -35z" />
    <glyph glyph-name="copyright" unicode="&#xa9;" horiz-adv-x="826" 
d="M761 345q0 -156 -101 -256.5t-245 -100.5t-245 100.5t-101 256.5q0 155 101.5 256t244.5 101t244.5 -101t101.5 -256zM715 345q0 135 -86 224t-214 89t-213.5 -89.5t-85.5 -223.5q0 -129 81.5 -217.5t217.5 -96.5q128 0 214 89.5t86 224.5zM539 215l25 -24
q-51 -53 -145 -53q-84 0 -140.5 58.5t-56.5 149.5t58 149.5t141 58.5q89 0 141 -56l-23 -35q-47 47 -118 47q-65 0 -108.5 -46t-43.5 -118q0 -73 43.5 -118.5t110.5 -45.5q55 0 116 33z" />
    <glyph glyph-name="ordfeminine" unicode="&#xaa;" horiz-adv-x="386" 
d="M195 379q50 0 75 5v120q-34 6 -65 6q-104 0 -104 -63q0 -34 21 -51t73 -17zM189 704q44 0 72 -12t41.5 -37t17.5 -52t4 -69v-188q-56 -14 -128 -14q-70 0 -110 27.5t-40 83.5q0 57 44 85t113 28q24 0 67 -8v9q0 22 -2 36t-9.5 30.5t-25 24.5t-44.5 8q-59 0 -95 -12l-7 46
q46 14 102 14z" />
    <glyph glyph-name="guillemotleft" unicode="&#xab;" horiz-adv-x="452" 
d="M412 123l-35 -24l-152 210l152 209l35 -24l-125 -185zM239 123l-34 -24l-152 210l152 209l34 -24l-124 -185z" />
    <glyph glyph-name="logicalnot" unicode="&#xac;" horiz-adv-x="564" 
d="M475 100h-51v221h-362v48h413v-269z" />
    <glyph glyph-name="uni00AD" unicode="&#xad;" horiz-adv-x="282" 
d="M35 270v50h226v-50h-226z" />
    <glyph glyph-name="registered" unicode="&#xae;" horiz-adv-x="826" 
d="M761 345q0 -156 -101 -256.5t-245 -100.5t-245 100.5t-101 256.5q0 155 101.5 256t244.5 101t244.5 -101t101.5 -256zM715 345q0 135 -86 224t-214 89t-213.5 -89.5t-85.5 -223.5q0 -129 81.5 -217.5t217.5 -96.5q128 0 214 89.5t86 224.5zM584 125h-46q-90 145 -138 195
h-66v-195h-40v438q43 18 106 18q81 0 123.5 -34.5t42.5 -100.5q0 -54 -31.5 -87t-88.5 -38v-1q64 -79 138 -195zM524 446q0 63 -34.5 85t-89.5 22q-37 0 -66 -9v-194h66q60 0 92 20.5t32 75.5z" />
    <glyph glyph-name="macron" unicode="&#xaf;" horiz-adv-x="376" 
d="M321 649h-265v55h265v-55z" />
    <glyph glyph-name="degree" unicode="&#xb0;" horiz-adv-x="318" 
d="M323 597q0 -60 -40.5 -99.5t-97.5 -39.5t-97.5 39.5t-40.5 99.5t40.5 99t97.5 39t97.5 -39t40.5 -99zM282 597q0 42 -28 70.5t-69 28.5t-69 -28.5t-28 -70.5q0 -43 28 -71t69 -28t69 28t28 71z" />
    <glyph glyph-name="plusminus" unicode="&#xb1;" horiz-adv-x="564" 
d="M475 287h-182v-200h-50v200h-181v50h181v199h50v-199h182v-50zM56 0v50h452v-50h-452z" />
    <glyph glyph-name="twosuperior" unicode="&#xb2;" horiz-adv-x="359" 
d="M284 600q0 -27 -14 -52t-29.5 -40t-43.5 -37q-85 -67 -85 -106h191v-48h-248q-1 7 -1 20q0 23 5 42.5t20.5 40t21.5 27.5t32.5 31t27.5 25q26 21 35.5 30.5t20.5 28.5t11 40q0 58 -67 58q-52 0 -91 -39l-27 38q47 49 123 49q118 0 118 -108z" />
    <glyph glyph-name="threesuperior" unicode="&#xb3;" horiz-adv-x="359" 
d="M146 357q97 0 97 68q0 39 -33 56.5t-84 17.5h-13v45h15q95 0 95 64q0 28 -19 41q-18 12 -49 12q-48 0 -89 -28l-20 42q41 33 111 33q120 0 120 -95q0 -17 -4 -29q-12 -39 -57 -58q65 -20 79 -72q4 -12 4 -31q0 -50 -37 -82t-113 -32q-64 0 -104 21l13 47q42 -20 88 -20z
" />
    <glyph glyph-name="acute" unicode="&#xb4;" horiz-adv-x="278" 
d="M91 597h-31l87 176h85z" />
    <glyph glyph-name="mu" unicode="&#xb5;" horiz-adv-x="575" 
d="M461 25q-75 -33 -185 -33q-86 0 -139 47q3 -49 3 -145v-94h-59v728h60v-371q14 -63 46.5 -90t92.5 -27q82 0 122 20v468h59v-503z" />
    <glyph glyph-name="paragraph" unicode="&#xb6;" horiz-adv-x="616" 
d="M236 686h120h120v-886h-53v848h-131v-848h-52v501q-94 8 -148 58t-54 136q0 85 54.5 133t143.5 58z" />
    <glyph glyph-name="periodcentered" unicode="&#xb7;" horiz-adv-x="246" 
d="M166 319q0 -21 -13.5 -35t-35.5 -14t-35.5 14t-13.5 35t14 35t35 14q22 0 35.5 -14t13.5 -35z" />
    <glyph glyph-name="cedilla" unicode="&#xb8;" horiz-adv-x="376" 
d="M206 -36q61 -26 61 -76q0 -31 -22 -53t-76 -22q-50 0 -71 12l8 43q19 -9 59 -9q41 0 41 29q0 16 -12.5 25t-45.5 22q10 34 41 85h46q-17 -28 -29 -56z" />
    <glyph glyph-name="onesuperior" unicode="&#xb9;" horiz-adv-x="359" 
d="M74 578l-10 33q79 32 127 88h37v-382h-54v304q-43 -27 -100 -43z" />
    <glyph glyph-name="ordmasculine" unicode="&#xba;" horiz-adv-x="457" 
d="M422 501q0 -92 -55 -150.5t-139 -58.5q-83 0 -138 58.5t-55 150.5t55 150.5t138 58.5q84 0 139 -58.5t55 -150.5zM359 501q0 75 -34.5 119t-96.5 44q-61 0 -95.5 -44t-34.5 -119t34.5 -119.5t95.5 -44.5q62 0 96.5 44.5t34.5 119.5z" />
    <glyph glyph-name="guillemotright" unicode="&#xbb;" horiz-adv-x="452" 
d="M422 309l-152 -210l-35 24l124 186l-124 185l35 24zM250 309l-152 -210l-35 24l125 186l-125 185l35 24z" />
    <glyph glyph-name="onequarter" unicode="&#xbc;" horiz-adv-x="874" 
d="M789 141h51v-44h-51v-96h-53v96h-188v33q25 51 83.5 131t110.5 122h47v-242zM185 0l395 693h66l-395 -693h-66zM605 141h131v179q-70 -70 -131 -179zM74 578l-10 33q79 32 127 88h37v-382h-54v304q-43 -27 -100 -43z" />
    <glyph glyph-name="onehalf" unicode="&#xbd;" horiz-adv-x="874" 
d="M74 578l-10 33q79 32 127 88h37v-382h-54v304q-43 -27 -100 -43zM185 0l395 693h66l-395 -693h-66zM799 284q0 -27 -14 -52t-29.5 -40t-43.5 -37q-85 -68 -85 -106h191v-48h-248q-1 7 -1 20q0 23 5 42.5t20.5 40t21.5 27.5t32.5 31t27.5 25q26 21 35.5 30.5t20.5 28.5
t11 40q0 58 -67 58q-52 0 -91 -39l-27 38q47 49 123 49q118 0 118 -108z" />
    <glyph glyph-name="threequarters" unicode="&#xbe;" horiz-adv-x="874" 
d="M221 0l395 693h66l-395 -693h-66zM223 608q0 53 -68 53q-49 0 -89 -28l-20 42q41 33 111 33q120 0 120 -95q0 -17 -4 -29q-12 -39 -57 -58q65 -20 79 -72q4 -12 4 -31q0 -50 -37 -82t-113 -32q-64 0 -104 21l13 47q42 -20 88 -20q97 0 97 68q0 39 -33.5 56.5t-83.5 17.5
h-13v45q33 0 53.5 3t38.5 18t18 43zM789 141h51v-44h-51v-96h-53v96h-188v33q25 51 83.5 131t110.5 122h47v-242zM605 141h131v179q-70 -70 -131 -179z" />
    <glyph glyph-name="questiondown" unicode="&#xbf;" horiz-adv-x="380" 
d="M99 -39q0 -89 123 -89q66 0 122 30l19 -54q-59 -34 -148 -34q-98 0 -141.5 42.5t-43.5 98.5q0 38 17.5 72.5t43 61.5l50.5 54t42.5 61.5t17.5 71.5q0 9 -1 16h25h26q4 -15 4 -37q0 -43 -24.5 -84t-53.5 -69t-53.5 -66t-24.5 -75zM274 462q0 -24 -15 -39.5t-40 -15.5
t-40 15.5t-15 39.5t14.5 39.5t40.5 15.5t40.5 -15.5t14.5 -39.5z" />
    <glyph glyph-name="Agrave" unicode="&#xc0;" horiz-adv-x="641" 
d="M588 0h-67l-73 212h-294q-42 -112 -74 -212h-62q172 478 259 690h52q56 -136 259 -690zM432 260l-98 273q-8 22 -18 52.5t-14 38.5q-4 -6 -14 -35q-20 -59 -61.5 -172t-56.5 -157h262zM313 744h-31l-141 176h85z" />
    <glyph glyph-name="Aacute" unicode="&#xc1;" horiz-adv-x="641" 
d="M588 0h-67l-73 212h-294q-42 -112 -74 -212h-62q172 478 259 690h52q56 -136 259 -690zM432 260l-98 273q-8 22 -18 52.5t-14 38.5q-4 -6 -14 -35q-20 -59 -61.5 -172t-56.5 -157h262zM317 767h-31l87 176h85z" />
    <glyph glyph-name="Acircumflex" unicode="&#xc2;" horiz-adv-x="641" 
d="M588 0h-67l-73 212h-294q-42 -112 -74 -212h-62q172 478 259 690h52q56 -136 259 -690zM432 260l-98 273q-8 22 -18 52.5t-14 38.5q-4 -6 -14 -35q-20 -59 -61.5 -172t-56.5 -157h262zM301 831l-104 -96l-28 31l132 147l132 -147l-28 -31z" />
    <glyph glyph-name="Atilde" unicode="&#xc3;" horiz-adv-x="641" 
d="M588 0h-67l-73 212h-294q-42 -112 -74 -212h-62q172 478 259 690h52q56 -136 259 -690zM432 260l-98 273q-8 22 -18 52.5t-14 38.5q-4 -6 -14 -35q-20 -59 -61.5 -172t-56.5 -157h262zM360 753q-29 0 -74.5 19.5t-53.5 19.5q-30 0 -55 -45l-38 18q33 80 96 80
q33 0 76.5 -19.5t51.5 -19.5q30 0 55 45l35 -18q-14 -30 -39 -55t-54 -25z" />
    <glyph glyph-name="Adieresis" unicode="&#xc4;" horiz-adv-x="641" 
d="M588 0h-67l-73 212h-294q-42 -112 -74 -212h-62q172 478 259 690h52q56 -136 259 -690zM432 260l-98 273q-8 22 -18 52.5t-14 38.5q-4 -6 -14 -35q-20 -59 -61.5 -172t-56.5 -157h262zM258 813q0 -22 -13 -35t-33 -13t-33 13t-13 35t13 35t33 13t33 -13t13 -35zM430 813
q0 -22 -13 -35t-33 -13t-33 13t-13 35t13 35t33 13t33 -13t13 -35z" />
    <glyph glyph-name="Aring" unicode="&#xc5;" horiz-adv-x="641" 
d="M588 0h-67l-73 212h-294q-42 -112 -74 -212h-62q172 478 259 690h52q56 -136 259 -690zM432 260l-98 273q-8 22 -18 52.5t-14 38.5q-4 -6 -14 -35q-20 -59 -61.5 -172t-56.5 -157h262zM395 849q0 -43 -27.5 -69.5t-67.5 -26.5t-68 26.5t-28 69.5q0 42 28 68.5t68 26.5
t67.5 -27t27.5 -68zM357 849q0 27 -16 43t-41 16t-41 -16t-16 -43q0 -28 16 -43.5t41 -15.5t41 15.5t16 43.5z" />
    <glyph glyph-name="AE" unicode="&#xc6;" horiz-adv-x="915" 
d="M876 0h-412v190h-287q-59 -103 -101 -190h-70q176 350 427 693h417v-59h-318v-241h282v-58h-282v-276h344v-59zM464 248v389q-128 -177 -194 -288l-60 -101h254z" />
    <glyph glyph-name="Ccedilla" unicode="&#xc7;" horiz-adv-x="609" 
d="M364 -36q61 -26 61 -76q0 -31 -22 -53t-76 -22q-50 0 -71 12l8 43q19 -9 59 -9q41 0 41 29q0 16 -12 24.5t-46 22.5q6 18 23 54q-120 16 -193.5 109.5t-73.5 248.5q0 167 93.5 264t226.5 97q69 0 119.5 -14.5t74.5 -31.5l-22 -59q-73 44 -159 44q-125 0 -193 -82
t-68 -219q0 -140 65.5 -220t184.5 -80q109 0 178 38l19 -58q-19 -14 -75.5 -27.5t-132.5 -13.5z" />
    <glyph glyph-name="Egrave" unicode="&#xc8;" horiz-adv-x="555" 
d="M451 0h-365v690h352v-49h-289v-256h259v-49h-259v-287h302v-49zM288 744h-31l-141 176h85z" />
    <glyph glyph-name="Eacute" unicode="&#xc9;" horiz-adv-x="555" 
d="M451 0h-365v690h352v-49h-289v-256h259v-49h-259v-287h302v-49zM292 767h-31l87 176h85z" />
    <glyph glyph-name="Ecircumflex" unicode="&#xca;" horiz-adv-x="555" 
d="M451 0h-365v690h352v-49h-289v-256h259v-49h-259v-287h302v-49zM276 831l-104 -96l-28 31l132 147l132 -147l-28 -31z" />
    <glyph glyph-name="Edieresis" unicode="&#xcb;" horiz-adv-x="555" 
d="M451 0h-365v690h352v-49h-289v-256h259v-49h-259v-287h302v-49zM233 813q0 -22 -13 -35t-33 -13t-33 13t-13 35t13 35t33 13t33 -13t13 -35zM405 813q0 -22 -13 -35t-33 -13t-33 13t-13 35t13 35t33 13t33 -13t13 -35z" />
    <glyph glyph-name="Igrave" unicode="&#xcc;" horiz-adv-x="248" 
d="M151 0h-63v690h63v-690zM131 744h-31l-141 176h85z" />
    <glyph glyph-name="Iacute" unicode="&#xcd;" horiz-adv-x="248" 
d="M151 0h-63v690h63v-690zM135 767h-31l87 176h85z" />
    <glyph glyph-name="Icircumflex" unicode="&#xce;" horiz-adv-x="248" 
d="M151 0h-63v690h63v-690zM119 831l-104 -96l-28 31l132 147l132 -147l-28 -31z" />
    <glyph glyph-name="Idieresis" unicode="&#xcf;" horiz-adv-x="248" 
d="M151 0h-63v690h63v-690zM76 813q0 -22 -13 -35t-33 -13t-33 13t-13 35t13 35t33 13t33 -13t13 -35zM248 813q0 -22 -13 -35t-33 -13t-33 13t-13 35t13 35t33 13t33 -13t13 -35z" />
    <glyph glyph-name="Eth" unicode="&#xd0;" horiz-adv-x="716" 
d="M654 347q0 -172 -103.5 -262.5t-277.5 -90.5q-99 0 -169 18v323h-80v55h80v290q69 19 169 19q174 0 277.5 -90.5t103.5 -261.5zM172 335v-275q56 -7 109 -7q147 0 224 78t77 216t-77 215.5t-224 77.5q-53 0 -109 -7v-243h132v-55h-132z" />
    <glyph glyph-name="Ntilde" unicode="&#xd1;" horiz-adv-x="709" 
d="M590 0h-29h-29q-107 188 -344 545q-9 13 -20 32l-17 29t-9 10q0 -16 1 -114t1 -149v-353h-58v690h64q192 -270 347 -529l16 -29l13.5 -24.5t7.5 -11.5q0 33 -1 155.5t-1 181.5v257h58v-690zM418 799q-30 0 -75 19.5t-53 19.5q-30 0 -55 -45l-38 18q33 80 96 80
q33 0 76.5 -19.5t51.5 -19.5q30 0 55 45l35 -18q-14 -30 -39 -55t-54 -25z" />
    <glyph glyph-name="Ograve" unicode="&#xd2;" horiz-adv-x="684" 
d="M624 345q0 -164 -76 -260.5t-206 -96.5t-206 96.5t-76 260.5q0 163 76 260.5t206 97.5t206 -97.5t76 -260.5zM559 346q0 135 -55 221t-162 86t-162 -86t-55 -221t54.5 -221t162.5 -86q109 0 163 86t54 221zM357 774h-31l-141 176h85z" />
    <glyph glyph-name="Oacute" unicode="&#xd3;" horiz-adv-x="684" 
d="M624 345q0 -164 -76 -260.5t-206 -96.5t-206 96.5t-76 260.5q0 163 76 260.5t206 97.5t206 -97.5t76 -260.5zM559 346q0 135 -55 221t-162 86t-162 -86t-55 -221t54.5 -221t162.5 -86q109 0 163 86t54 221zM361 797h-31l87 176h85z" />
    <glyph glyph-name="Ocircumflex" unicode="&#xd4;" horiz-adv-x="684" 
d="M624 345q0 -164 -76 -260.5t-206 -96.5t-206 96.5t-76 260.5q0 163 76 260.5t206 97.5t206 -97.5t76 -260.5zM559 346q0 135 -55 221t-162 86t-162 -86t-55 -221t54.5 -221t162.5 -86q109 0 163 86t54 221zM345 861l-104 -96l-28 31l132 147l132 -147l-28 -31z" />
    <glyph glyph-name="Otilde" unicode="&#xd5;" horiz-adv-x="684" 
d="M624 345q0 -164 -76 -260.5t-206 -96.5t-206 96.5t-76 260.5q0 163 76 260.5t206 97.5t206 -97.5t76 -260.5zM559 346q0 135 -55 221t-162 86t-162 -86t-55 -221t54.5 -221t162.5 -86q109 0 163 86t54 221zM404 783q-30 0 -75 19.5t-53 19.5q-30 0 -55 -45l-38 18
q33 80 96 80q33 0 76.5 -19.5t51.5 -19.5q30 0 55 45l35 -18q-14 -30 -39 -55t-54 -25z" />
    <glyph glyph-name="Odieresis" unicode="&#xd6;" horiz-adv-x="684" 
d="M624 345q0 -164 -76 -260.5t-206 -96.5t-206 96.5t-76 260.5q0 163 76 260.5t206 97.5t206 -97.5t76 -260.5zM559 346q0 135 -55 221t-162 86t-162 -86t-55 -221t54.5 -221t162.5 -86q109 0 163 86t54 221zM302 843q0 -22 -13 -35t-33 -13t-33 13t-13 35t13 35t33 13
t33 -13t13 -35zM474 843q0 -22 -13 -35t-33 -13t-33 13t-13 35t13 35t33 13t33 -13t13 -35z" />
    <glyph glyph-name="multiply" unicode="&#xd7;" horiz-adv-x="564" 
d="M90 447l39 39l153 -154l153 154l39 -39l-154 -153l154 -153l-39 -39l-153 154l-153 -154l-39 39l154 153z" />
    <glyph glyph-name="Oslash" unicode="&#xd8;" horiz-adv-x="774" 
d="M712 347q0 -171 -93 -266.5t-232 -95.5q-110 0 -193 61l-61 -80l-48 36l65 84q-88 94 -88 261q0 171 93 266t232 95q113 0 195 -63l64 83l48 -36l-68 -88q86 -97 86 -257zM134 347q0 -127 58 -207l351 454q-65 53 -156 53q-116 0 -184.5 -80.5t-68.5 -219.5zM640 347
q0 124 -56 203l-351 -454q62 -50 154 -50q116 0 184.5 81t68.5 220z" />
    <glyph glyph-name="Ugrave" unicode="&#xd9;" horiz-adv-x="680" 
d="M540 225q0 -105 -58 -171.5t-170 -66.5q-99 0 -156.5 54t-66.5 140q-4 40 -4 93v416h62v-411q0 -118 39 -178.5t128 -60.5q62 0 106.5 37t53.5 103q6 44 6 99v411h60v-465zM331 744h-31l-141 176h85z" />
    <glyph glyph-name="Uacute" unicode="&#xda;" horiz-adv-x="680" 
d="M540 225q0 -105 -58 -171.5t-170 -66.5q-99 0 -156.5 54t-66.5 140q-4 40 -4 93v416h62v-411q0 -118 39 -178.5t128 -60.5q62 0 106.5 37t53.5 103q6 44 6 99v411h60v-465zM335 767h-31l87 176h85z" />
    <glyph glyph-name="Ucircumflex" unicode="&#xdb;" horiz-adv-x="680" 
d="M540 225q0 -105 -58 -171.5t-170 -66.5q-99 0 -156.5 54t-66.5 140q-4 40 -4 93v416h62v-411q0 -118 39 -178.5t128 -60.5q62 0 106.5 37t53.5 103q6 44 6 99v411h60v-465zM319 831l-104 -96l-28 31l132 147l132 -147l-28 -31z" />
    <glyph glyph-name="Udieresis" unicode="&#xdc;" horiz-adv-x="680" 
d="M540 225q0 -105 -58 -171.5t-170 -66.5q-99 0 -156.5 54t-66.5 140q-4 40 -4 93v416h62v-411q0 -118 39 -178.5t128 -60.5q62 0 106.5 37t53.5 103q6 44 6 99v411h60v-465zM276 813q0 -22 -13 -35t-33 -13t-33 13t-13 35t13 35t33 13t33 -13t13 -35zM448 813
q0 -22 -13 -35t-33 -13t-33 13t-13 35t13 35t33 13t33 -13t13 -35z" />
    <glyph glyph-name="Yacute" unicode="&#xdd;" 
d="M510 690q-133 -251 -215 -390v-300h-62v299q-107 182 -216 391h71q91 -192 178 -344q82 144 180 344h64zM283 767h-31l87 176h85z" />
    <glyph glyph-name="Thorn" unicode="&#xde;" horiz-adv-x="593" 
d="M158 693v-123q46 6 105 6q146 0 219.5 -55.5t73.5 -159.5q0 -114 -78 -165t-226 -51h-94v-145h-68v693h68zM266 517q-62 0 -108 -6v-307h86q121 0 181 33.5t60 124.5q0 155 -219 155z" />
    <glyph glyph-name="germandbls" unicode="&#xdf;" horiz-adv-x="596" 
d="M475 619q0 -13 -2.5 -25t-5.5 -21.5t-10 -21l-11 -18t-13.5 -17t-13 -14l-13.5 -13.5l-11 -11q-30 -30 -40 -45.5t-10 -36.5q0 -6 1.5 -11t2.5 -9.5t5 -9l6.5 -7.5t8 -7t8.5 -6t10 -6t9.5 -5t11 -5l10.5 -5q38 -18 58.5 -30.5t43.5 -33.5t32.5 -49t9.5 -67
q0 -75 -51 -116t-142 -41q-81 0 -129 26l7 30q4 20 7 30q46 -29 127 -29q37 0 62 12q52 24 52 88q0 42 -22.5 67t-82.5 56q-69 36 -90 57.5t-21 64.5q0 30 16 54.5t49 58.5l16 16.5t15 16.5t11.5 14t10.5 15t6.5 14t5.5 18t1 19q0 46 -31 74t-84 28q-144 0 -144 -158v-560
h-65v501v63q0 97 54.5 154.5t146.5 57.5q95 0 141.5 -42t46.5 -115z" />
    <glyph glyph-name="agrave" unicode="&#xe0;" horiz-adv-x="509" 
d="M415 20q-62 -30 -177 -30q-91 0 -140.5 40t-49.5 117q0 158 219 177q18 2 90 -2q0 87 -26 127.5t-102 40.5q-74 0 -125 -28l-12 46q55 31 142 31q86 0 133.5 -45.5t47.5 -132.5v-57v-284zM357 50v227q-50 4 -94 1q-73 -10 -114 -38.5t-41 -92.5q0 -112 139 -112
q65 0 110 15zM263 589h-31l-141 176h85z" />
    <glyph glyph-name="aacute" unicode="&#xe1;" horiz-adv-x="509" 
d="M415 20q-62 -30 -177 -30q-91 0 -140.5 40t-49.5 117q0 158 219 177q18 2 90 -2q0 87 -26 127.5t-102 40.5q-74 0 -125 -28l-12 46q55 31 142 31q86 0 133.5 -45.5t47.5 -132.5v-57v-284zM357 50v227q-50 4 -94 1q-73 -10 -114 -38.5t-41 -92.5q0 -112 139 -112
q65 0 110 15zM267 618h-31l87 176h85z" />
    <glyph glyph-name="acircumflex" unicode="&#xe2;" horiz-adv-x="509" 
d="M415 20q-62 -30 -177 -30q-91 0 -140.5 40t-49.5 117q0 158 219 177q18 2 90 -2q0 87 -26 127.5t-102 40.5q-74 0 -125 -28l-12 46q55 31 142 31q86 0 133.5 -45.5t47.5 -132.5v-57v-284zM357 50v227q-50 4 -94 1q-73 -10 -114 -38.5t-41 -92.5q0 -112 139 -112
q65 0 110 15zM251 676l-104 -96l-28 31l132 147l132 -147l-28 -31z" />
    <glyph glyph-name="atilde" unicode="&#xe3;" horiz-adv-x="509" 
d="M415 20q-62 -30 -177 -30q-91 0 -140.5 40t-49.5 117q0 158 219 177q18 2 90 -2q0 87 -26 127.5t-102 40.5q-74 0 -125 -28l-12 46q55 31 142 31q86 0 133.5 -45.5t47.5 -132.5v-57v-284zM357 50v227q-50 4 -94 1q-73 -10 -114 -38.5t-41 -92.5q0 -112 139 -112
q65 0 110 15zM310 598q-30 0 -75 19.5t-53 19.5q-30 0 -55 -45l-38 18q33 80 96 80q33 0 76.5 -19.5t51.5 -19.5q30 0 55 45l35 -18q-14 -30 -39 -55t-54 -25z" />
    <glyph glyph-name="adieresis" unicode="&#xe4;" horiz-adv-x="509" 
d="M415 20q-62 -30 -177 -30q-91 0 -140.5 40t-49.5 117q0 158 219 177q18 2 90 -2q0 87 -26 127.5t-102 40.5q-74 0 -125 -28l-12 46q55 31 142 31q86 0 133.5 -45.5t47.5 -132.5v-57v-284zM357 50v227q-50 4 -94 1q-73 -10 -114 -38.5t-41 -92.5q0 -112 139 -112
q65 0 110 15zM208 658q0 -22 -13 -35t-33 -13t-33 13t-13 35t13 35t33 13t33 -13t13 -35zM380 658q0 -22 -13 -35t-33 -13t-33 13t-13 35t13 35t33 13t33 -13t13 -35z" />
    <glyph glyph-name="aring" unicode="&#xe5;" horiz-adv-x="509" 
d="M415 20q-62 -30 -177 -30q-91 0 -140.5 40t-49.5 117q0 158 219 177q18 2 90 -2q0 87 -26 127.5t-102 40.5q-74 0 -125 -28l-12 46q55 31 142 31q86 0 133.5 -45.5t47.5 -132.5v-57v-284zM357 50v227q-50 4 -94 1q-73 -10 -114 -38.5t-41 -92.5q0 -112 139 -112
q65 0 110 15zM345 694q0 -43 -27.5 -69.5t-67.5 -26.5t-68 26.5t-28 69.5q0 42 28 68.5t68 26.5t67.5 -27t27.5 -68zM307 694q0 27 -16 43t-41 16t-41 -16t-16 -43q0 -28 16 -43.5t41 -15.5t41 15.5t16 43.5z" />
    <glyph glyph-name="ae" unicode="&#xe6;" horiz-adv-x="854" 
d="M432 300h296q-2 82 -38 126.5t-102 44.5q-67 0 -109.5 -50t-46.5 -121zM252 -11q-93 0 -148.5 39.5t-55.5 122.5q0 81 58.5 120t158.5 39q26 0 58 -5.5t41 -9.5v31t-1.5 29.5t-4.5 30.5t-8.5 26t-15 24.5t-22 17.5t-31 13t-41.5 4q-78 0 -127 -20l-8 56q46 22 138 22
q131 0 169 -98q49 73 126 92q24 6 49 6q98 0 153 -63.5t55 -189.5q0 -6 -1 -16.5t-1 -14.5h-363q6 -197 187 -197q72 0 129 27l12 -56q-52 -30 -143 -30q-29 0 -54 3q-76 11 -124 57q-73 -60 -185 -60zM365 238q-34 16 -102 16q-148 0 -148 -103q0 -104 137 -104
q97 0 148 46q-34 56 -35 145z" />
    <glyph glyph-name="ccedilla" unicode="&#xe7;" horiz-adv-x="460" 
d="M305 -11q-2 -4 -5.5 -12.5t-5.5 -12.5q61 -27 61 -76q0 -31 -22 -53t-76 -22q-50 0 -71 12l8 43q19 -9 59 -9q41 0 41 29q0 16 -12 24.5t-46 22.5q9 30 25 57q-100 12 -153 82t-53 183q0 123 64.5 197.5t173.5 74.5q90 0 135 -25l-17 -56q-46 22 -112 22
q-86 0 -130.5 -55t-44.5 -158q0 -209 187 -209q63 0 112 26l14 -56q-49 -27 -132 -29z" />
    <glyph glyph-name="egrave" unicode="&#xe8;" horiz-adv-x="548" 
d="M469 271l-354 -26q9 -205 184 -205q73 0 129 29l14 -47q-51 -32 -145 -32q-117 0 -179.5 70.5t-62.5 204.5q0 132 62 203t153 71q85 0 136 -51t60 -154q2 -20 3 -63zM410 312q-1 89 -37 133.5t-103 44.5q-68 0 -110.5 -53.5t-44.5 -147.5zM277 574h-31l-141 176h85z" />
    <glyph glyph-name="eacute" unicode="&#xe9;" horiz-adv-x="548" 
d="M469 271l-354 -26q9 -205 184 -205q73 0 129 29l14 -47q-51 -32 -145 -32q-117 0 -179.5 70.5t-62.5 204.5q0 132 62 203t153 71q85 0 136 -51t60 -154q2 -20 3 -63zM410 312q-1 89 -37 133.5t-103 44.5q-68 0 -110.5 -53.5t-44.5 -147.5zM281 597h-31l87 176h85z" />
    <glyph glyph-name="ecircumflex" unicode="&#xea;" horiz-adv-x="548" 
d="M469 271l-354 -26q9 -205 184 -205q73 0 129 29l14 -47q-51 -32 -145 -32q-117 0 -179.5 70.5t-62.5 204.5q0 132 62 203t153 71q85 0 136 -51t60 -154q2 -20 3 -63zM410 312q-1 89 -37 133.5t-103 44.5q-68 0 -110.5 -53.5t-44.5 -147.5zM265 661l-104 -96l-28 31
l132 147l132 -147l-28 -31z" />
    <glyph glyph-name="edieresis" unicode="&#xeb;" horiz-adv-x="548" 
d="M469 271l-354 -26q9 -205 184 -205q73 0 129 29l14 -47q-51 -32 -145 -32q-117 0 -179.5 70.5t-62.5 204.5q0 132 62 203t153 71q85 0 136 -51t60 -154q2 -20 3 -63zM410 312q-1 89 -37 133.5t-103 44.5q-68 0 -110.5 -53.5t-44.5 -147.5zM222 643q0 -22 -13 -35t-33 -13
t-33 13t-13 35t13 35t33 13t33 -13t13 -35zM394 643q0 -22 -13 -35t-33 -13t-33 13t-13 35t13 35t33 13t33 -13t13 -35z" />
    <glyph glyph-name="igrave" unicode="&#xec;" horiz-adv-x="237" 
d="M151 517v-517h-65v517h65zM131 574h-31l-141 176h85z" />
    <glyph glyph-name="iacute" unicode="&#xed;" horiz-adv-x="237" 
d="M151 517v-517h-65v517h65zM135 597h-31l87 176h85z" />
    <glyph glyph-name="icircumflex" unicode="&#xee;" horiz-adv-x="237" 
d="M151 517v-517h-65v517h65zM119 661l-104 -96l-28 31l132 147l132 -147l-28 -31z" />
    <glyph glyph-name="idieresis" unicode="&#xef;" horiz-adv-x="237" 
d="M151 517v-517h-65v517h65zM76 643q0 -22 -13 -35t-33 -13t-33 13t-13 35t13 35t33 13t33 -13t13 -35zM248 643q0 -22 -13 -35t-33 -13t-33 13t-13 35t13 35t33 13t33 -13t13 -35z" />
    <glyph glyph-name="eth" unicode="&#xf0;" horiz-adv-x="578" 
d="M55 245q0 114 63.5 178t167.5 64q95 0 155 -52q-12 93 -68 178l-131 -46l-17 45l118 41q-40 49 -98 84l43 39q66 -39 115 -101l120 42l17 -45l-107 -38q85 -130 85 -304q0 -342 -241 -342q-101 0 -161.5 74t-60.5 183zM449 366q-63 63 -155 63q-86 0 -128.5 -51
t-42.5 -133q0 -84 41 -141t113 -57q173 0 173 284q0 23 -1 35z" />
    <glyph glyph-name="ntilde" unicode="&#xf1;" 
d="M461 0h-59v291q0 40 -1.5 63t-9 52.5t-22 45.5t-41.5 27t-66 11q-75 0 -121 -18v-472h-60v505q77 33 190 33q52 0 89 -15.5t56 -37t30 -56.5t13 -61.5t2 -65.5v-302zM348 629q-30 0 -75 19.5t-53 19.5q-30 0 -55 -45l-38 18q33 80 96 80q33 0 76.5 -19.5t51.5 -19.5
q30 0 55 45l35 -18q-14 -30 -39 -55t-54 -25z" />
    <glyph glyph-name="ograve" unicode="&#xf2;" horiz-adv-x="582" 
d="M488 263q0 -123 -57 -198.5t-159 -75.5q-103 0 -160 75.5t-57 198.5q0 124 57 200t159 76q103 0 160 -76t57 -200zM426 263q0 99 -38 164t-116 65q-79 0 -117.5 -65t-38.5 -164t38.5 -162t117.5 -63t116.5 63t37.5 162zM285 574h-31l-141 176h85z" />
    <glyph glyph-name="oacute" unicode="&#xf3;" horiz-adv-x="582" 
d="M488 263q0 -123 -57 -198.5t-159 -75.5q-103 0 -160 75.5t-57 198.5q0 124 57 200t159 76q103 0 160 -76t57 -200zM426 263q0 99 -38 164t-116 65q-79 0 -117.5 -65t-38.5 -164t38.5 -162t117.5 -63t116.5 63t37.5 162zM289 597h-31l87 176h85z" />
    <glyph glyph-name="ocircumflex" unicode="&#xf4;" horiz-adv-x="582" 
d="M488 263q0 -123 -57 -198.5t-159 -75.5q-103 0 -160 75.5t-57 198.5q0 124 57 200t159 76q103 0 160 -76t57 -200zM426 263q0 99 -38 164t-116 65q-79 0 -117.5 -65t-38.5 -164t38.5 -162t117.5 -63t116.5 63t37.5 162zM273 661l-104 -96l-28 31l132 147l132 -147
l-28 -31z" />
    <glyph glyph-name="otilde" unicode="&#xf5;" horiz-adv-x="582" 
d="M488 263q0 -123 -57 -198.5t-159 -75.5q-103 0 -160 75.5t-57 198.5q0 124 57 200t159 76q103 0 160 -76t57 -200zM426 263q0 99 -38 164t-116 65q-79 0 -117.5 -65t-38.5 -164t38.5 -162t117.5 -63t116.5 63t37.5 162zM332 583q-29 0 -74.5 19.5t-53.5 19.5
q-30 0 -55 -45l-38 18q33 80 96 80q33 0 76.5 -19.5t51.5 -19.5q30 0 55 45l35 -18q-14 -30 -39 -55t-54 -25z" />
    <glyph glyph-name="odieresis" unicode="&#xf6;" horiz-adv-x="582" 
d="M488 263q0 -123 -57 -198.5t-159 -75.5q-103 0 -160 75.5t-57 198.5q0 124 57 200t159 76q103 0 160 -76t57 -200zM426 263q0 99 -38 164t-116 65q-79 0 -117.5 -65t-38.5 -164t38.5 -162t117.5 -63t116.5 63t37.5 162zM230 643q0 -22 -13 -35t-33 -13t-33 13t-13 35
t13 35t33 13t33 -13t13 -35zM402 643q0 -22 -13 -35t-33 -13t-33 13t-13 35t13 35t33 13t33 -13t13 -35z" />
    <glyph glyph-name="divide" unicode="&#xf7;" horiz-adv-x="564" 
d="M328 478q0 -21 -13.5 -35t-34.5 -14t-35 14t-14 35q0 20 13.5 34t35.5 14q21 0 34.5 -13.5t13.5 -34.5zM328 102q0 -21 -13.5 -34.5t-34.5 -13.5q-22 0 -35.5 14t-13.5 34q0 21 14 35t35 14t34.5 -14t13.5 -35zM507 262h-451v55h451v-55z" />
    <glyph glyph-name="oslash" unicode="&#xf8;" horiz-adv-x="582" 
d="M527 258q0 -121 -66 -195.5t-170 -74.5q-81 0 -139 45l-51 -67l-43 32l56 72q-59 71 -59 188q0 121 66 196t170 75q81 0 141 -48l51 67l42 -31l-56 -73q58 -74 58 -186zM124 258q0 -81 31 -134l239 308q-44 38 -103 38q-77 0 -122 -57.5t-45 -154.5zM458 258
q0 79 -31 132l-237 -308q38 -35 101 -35q77 0 122 57t45 154z" />
    <glyph glyph-name="ugrave" unicode="&#xf9;" 
d="M453 25q-84 -35 -185 -35q-59 0 -98 17.5t-58.5 52t-26.5 74t-7 96.5v298h60v-286q0 -106 27.5 -154.5t110.5 -48.5q81 0 117 20v469h60v-503zM289 574h-31l-141 176h85z" />
    <glyph glyph-name="uacute" unicode="&#xfa;" 
d="M453 25q-84 -35 -185 -35q-59 0 -98 17.5t-58.5 52t-26.5 74t-7 96.5v298h60v-286q0 -106 27.5 -154.5t110.5 -48.5q81 0 117 20v469h60v-503zM293 597h-31l87 176h85z" />
    <glyph glyph-name="ucircumflex" unicode="&#xfb;" 
d="M453 25q-84 -35 -185 -35q-59 0 -98 17.5t-58.5 52t-26.5 74t-7 96.5v298h60v-286q0 -106 27.5 -154.5t110.5 -48.5q81 0 117 20v469h60v-503zM277 661l-104 -96l-28 31l132 147l132 -147l-28 -31z" />
    <glyph glyph-name="udieresis" unicode="&#xfc;" 
d="M453 25q-84 -35 -185 -35q-59 0 -98 17.5t-58.5 52t-26.5 74t-7 96.5v298h60v-286q0 -106 27.5 -154.5t110.5 -48.5q81 0 117 20v469h60v-503zM234 643q0 -22 -13 -35t-33 -13t-33 13t-13 35t13 35t33 13t33 -13t13 -35zM406 643q0 -22 -13 -35t-33 -13t-33 13t-13 35
t13 35t33 13t33 -13t13 -35z" />
    <glyph glyph-name="yacute" unicode="&#xfd;" horiz-adv-x="474" 
d="M444 528q-92 -333 -175 -549q-18 -47 -29 -70.5t-30.5 -43t-44.5 -19.5q-11 0 -22 1.5t-18 3t-16 5.5t-12 6l-11 7t-9 5l11 37q47 -27 63 -27q14 0 26 10t21 31.5t13 33t11 36.5q-117 269 -194 533h64q47 -179 131 -403q5 -13 13.5 -38t11.5 -32q2 0 5.5 12l8.5 30t8 27
q49 148 117 404h57zM252 597h-31l87 176h85z" />
    <glyph glyph-name="thorn" unicode="&#xfe;" horiz-adv-x="583" 
d="M86 764l65 12v-274q63 25 127 25q112 0 181 -73.5t69 -196.5q0 -120 -62 -194.5t-172 -74.5q-86 0 -143 42v-215h-65v949zM151 445v-352q61 -46 137 -46q90 0 130.5 57.5t40.5 152.5q0 100 -51 155.5t-136 55.5q-72 0 -121 -23z" />
    <glyph glyph-name="ydieresis" unicode="&#xff;" horiz-adv-x="474" 
d="M444 528q-92 -333 -175 -549q-18 -47 -29 -70.5t-30.5 -43t-44.5 -19.5q-11 0 -22 1.5t-18 3t-16 5.5t-12 6l-11 7t-9 5l11 37q47 -27 63 -27q14 0 26 10t21 31.5t13 33t11 36.5q-117 269 -194 533h64q47 -179 131 -403q5 -13 13.5 -38t11.5 -32q2 0 5.5 12l8.5 30t8 27
q49 148 117 404h57zM193 643q0 -22 -13 -35t-33 -13t-33 13t-13 35t13 35t33 13t33 -13t13 -35zM365 643q0 -22 -13 -35t-33 -13t-33 13t-13 35t13 35t33 13t33 -13t13 -35z" />
    <glyph glyph-name="Amacron" unicode="&#x100;" horiz-adv-x="641" 
d="M588 0h-67l-73 212h-294q-42 -112 -74 -212h-62q172 478 259 690h52q56 -136 259 -690zM432 260l-98 273q-8 22 -18 52.5t-14 38.5q-4 -6 -14 -35q-20 -59 -61.5 -172t-56.5 -157h262zM430 790h-265v55h265v-55z" />
    <glyph glyph-name="amacron" unicode="&#x101;" horiz-adv-x="509" 
d="M415 20q-62 -30 -177 -30q-91 0 -140.5 40t-49.5 117q0 158 219 177q18 2 90 -2q0 87 -26 127.5t-102 40.5q-74 0 -125 -28l-12 46q55 31 142 31q86 0 133.5 -45.5t47.5 -132.5v-57v-284zM357 50v227q-50 4 -94 1q-73 -10 -114 -38.5t-41 -92.5q0 -112 139 -112
q65 0 110 15zM380 635h-265v55h265v-55z" />
    <glyph glyph-name="Abreve" unicode="&#x102;" horiz-adv-x="641" 
d="M588 0h-67l-73 212h-294q-42 -112 -74 -212h-62q172 478 259 690h52q56 -136 259 -690zM432 260l-98 273q-8 22 -18 52.5t-14 38.5q-4 -6 -14 -35q-20 -59 -61.5 -172t-56.5 -157h262zM300 753q-52 0 -89 34.5t-33 98.5h43q0 -14 4 -29t23.5 -31.5t51.5 -16.5t51.5 16.5
t23.5 31.5t4 29h43q0 -66 -34 -99.5t-88 -33.5z" />
    <glyph glyph-name="abreve" unicode="&#x103;" horiz-adv-x="509" 
d="M415 20q-62 -30 -177 -30q-91 0 -140.5 40t-49.5 117q0 158 219 177q18 2 90 -2q0 87 -26 127.5t-102 40.5q-74 0 -125 -28l-12 46q55 31 142 31q86 0 133.5 -45.5t47.5 -132.5v-57v-284zM357 50v227q-50 4 -94 1q-73 -10 -114 -38.5t-41 -92.5q0 -112 139 -112
q65 0 110 15zM250 598q-52 0 -89 34.5t-33 98.5h43q0 -14 4 -29t23.5 -31.5t51.5 -16.5t51.5 16.5t23.5 31.5t4 29h43q0 -66 -34 -99.5t-88 -33.5z" />
    <glyph glyph-name="Aogonek" unicode="&#x104;" horiz-adv-x="641" 
d="M588 0h-67l-73 212h-294q-42 -112 -74 -212h-62q172 478 259 690h52q56 -136 259 -690zM432 260l-98 273q-8 22 -18 52.5t-14 38.5q-4 -6 -14 -35q-20 -59 -61.5 -172t-56.5 -157h262zM533 -186q-98 0 -98 70q0 35 25.5 68.5t60.5 55.5h69q-32 -24 -53 -46v0
q-35 -38 -35 -63q0 -34 42 -34q22 0 38 6l5 -48q-25 -9 -54 -9z" />
    <glyph glyph-name="aogonek" unicode="&#x105;" horiz-adv-x="509" 
d="M243 529q47 0 81 -12t54 -32t31.5 -51t15.5 -63t4 -74v-287q-24 -19 -49 -46q-35 -38 -35 -65q0 -34 42 -34q21 0 38 6l5 -48q-25 -9 -54 -9q-24 0 -46 5q-52 14 -52 65q0 34 24 65q16 21 50 47q-58 -7 -114 -7q-86 0 -138 39.5t-52 122.5q0 81 58.5 120t158.5 39
q26 0 58 -5.5t41 -9.5v32q0 30 -4.5 53t-17 45t-38.5 34t-64 12q-78 0 -127 -20l-8 56q46 22 138 22zM249 47q66 0 115 9v182q-18 9 -53 13q-19 3 -48 3q-148 0 -148 -103q0 -104 134 -104z" />
    <glyph glyph-name="Cacute" unicode="&#x106;" horiz-adv-x="609" 
d="M509 26q-20 -15 -64.5 -26.5t-100.5 -11.5q-126 0 -205 98t-79 259q0 158 81.5 258t203.5 100q104 0 161 -41l-19 -47q-55 37 -131 37q-135 0 -195 -126q-35 -74 -35 -181t36.5 -185t106.5 -106q36 -15 81 -15q83 0 141 33zM344 767h-31l87 176h85z" />
    <glyph glyph-name="cacute" unicode="&#x107;" horiz-adv-x="460" 
d="M402 21q-45 -31 -127 -31q-102 0 -161 74t-59 199q0 127 59 201.5t160 74.5q77 0 123 -30q-10 -30 -16 -45q-42 25 -100 25q-83 0 -123.5 -59.5t-40.5 -164.5q0 -104 42 -164.5t126 -60.5q57 0 102 27zM270 625h-31l87 176h85z" />
    <glyph glyph-name="Ccircumflex" unicode="&#x108;" horiz-adv-x="609" 
d="M509 26q-20 -15 -64.5 -26.5t-100.5 -11.5q-126 0 -205 98t-79 259q0 158 81.5 258t203.5 100q104 0 161 -41l-19 -47q-55 37 -131 37q-135 0 -195 -126q-35 -74 -35 -181t36.5 -185t106.5 -106q36 -15 81 -15q83 0 141 33zM328 831l-104 -96l-28 31l132 147l132 -147
l-28 -31z" />
    <glyph glyph-name="ccircumflex" unicode="&#x109;" horiz-adv-x="460" 
d="M402 21q-45 -31 -127 -31q-102 0 -161 74t-59 199q0 127 59 201.5t160 74.5q77 0 123 -30q-10 -30 -16 -45q-42 25 -100 25q-83 0 -123.5 -59.5t-40.5 -164.5q0 -104 42 -164.5t126 -60.5q57 0 102 27zM254 689l-104 -96l-28 31l132 147l132 -147l-28 -31z" />
    <glyph glyph-name="Cdotaccent" unicode="&#x10a;" horiz-adv-x="609" 
d="M509 26q-20 -15 -64.5 -26.5t-100.5 -11.5q-126 0 -205 98t-79 259q0 158 81.5 258t203.5 100q104 0 161 -41l-19 -47q-55 37 -131 37q-135 0 -195 -126q-35 -74 -35 -181t36.5 -185t106.5 -106q36 -15 81 -15q83 0 141 33zM326 763q-21 0 -34.5 13.5t-13.5 36.5
t13.5 36.5t34.5 13.5t34.5 -13.5t13.5 -36.5t-13.5 -36.5t-34.5 -13.5z" />
    <glyph glyph-name="cdotaccent" unicode="&#x10b;" horiz-adv-x="460" 
d="M402 21q-45 -31 -127 -31q-102 0 -161 74t-59 199q0 127 59 201.5t160 74.5q77 0 123 -30q-10 -30 -16 -45q-42 25 -100 25q-83 0 -123.5 -59.5t-40.5 -164.5q0 -104 42 -164.5t126 -60.5q57 0 102 27zM252 621q-21 0 -34.5 13.5t-13.5 36.5t13.5 36.5t34.5 13.5
t34.5 -13.5t13.5 -36.5t-13.5 -36.5t-34.5 -13.5z" />
    <glyph glyph-name="Ccaron" unicode="&#x10c;" horiz-adv-x="609" 
d="M509 26q-20 -15 -64.5 -26.5t-100.5 -11.5q-126 0 -205 98t-79 259q0 158 81.5 258t203.5 100q104 0 161 -41l-19 -47q-55 37 -131 37q-135 0 -195 -126q-35 -74 -35 -181t36.5 -185t106.5 -106q36 -15 81 -15q83 0 141 33zM223 935l104 -96l104 96l28 -31l-132 -147
l-132 147z" />
    <glyph glyph-name="ccaron" unicode="&#x10d;" horiz-adv-x="460" 
d="M402 21q-45 -31 -127 -31q-102 0 -161 74t-59 199q0 127 59 201.5t160 74.5q77 0 123 -30q-10 -30 -16 -45q-42 25 -100 25q-83 0 -123.5 -59.5t-40.5 -164.5q0 -104 42 -164.5t126 -60.5q57 0 102 27zM149 793l104 -96l104 96l28 -31l-132 -147l-132 147z" />
    <glyph glyph-name="Dcaron" unicode="&#x10e;" horiz-adv-x="702" 
d="M582 350q0 -170 -86.5 -264t-239.5 -94q-104 0 -170 27v651q68 28 169 28q151 0 239 -90.5t88 -257.5zM516 350q0 144 -66.5 222.5t-194.5 78.5q-70 0 -106 -12v-585q30 -12 107 -12q131 0 195.5 80.5t64.5 227.5zM193 935l104 -96l104 96l28 -31l-132 -147l-132 147z
" />
    <glyph glyph-name="dcaron" unicode="&#x10f;" horiz-adv-x="615" 
d="M497 776v-760q-84 -28 -188 -28q-115 0 -184.5 72.5t-69.5 197.5q0 120 62.5 195t171.5 75q86 0 143 -42v278zM432 61v362q-61 46 -137 46q-89 0 -130 -58t-41 -153q0 -100 50.5 -155.5t135.5 -55.5q82 0 122 14zM576 776h71l-24 -217h-47v217z" />
    <glyph glyph-name="Dcroat" unicode="&#x110;" horiz-adv-x="716" 
d="M654 347q0 -172 -103.5 -262.5t-277.5 -90.5q-99 0 -169 18v323h-80v55h80v290q69 19 169 19q174 0 277.5 -90.5t103.5 -261.5zM172 335v-275q56 -7 109 -7q147 0 224 78t77 216t-77 215.5t-224 77.5q-53 0 -109 -7v-243h132v-55h-132z" />
    <glyph glyph-name="dcroat" unicode="&#x111;" horiz-adv-x="583" 
d="M497 776v-96h80v-52h-80v-612q-84 -28 -188 -28q-115 0 -184.5 72.5t-69.5 197.5q0 120 62.5 195t171.5 75q86 0 143 -42v142h-182v52h182v84zM432 61v362q-61 46 -137 46q-89 0 -130 -58t-41 -153q0 -100 50.5 -155.5t135.5 -55.5q82 0 122 14z" />
    <glyph glyph-name="Emacron" unicode="&#x112;" horiz-adv-x="555" 
d="M451 0h-365v690h352v-49h-289v-256h259v-49h-259v-287h302v-49zM405 790h-265v55h265v-55z" />
    <glyph glyph-name="emacron" unicode="&#x113;" horiz-adv-x="548" 
d="M469 271l-354 -26q9 -205 184 -205q73 0 129 29l14 -47q-51 -32 -145 -32q-117 0 -179.5 70.5t-62.5 204.5q0 132 62 203t153 71q85 0 136 -51t60 -154q2 -20 3 -63zM410 312q-1 89 -37 133.5t-103 44.5q-68 0 -110.5 -53.5t-44.5 -147.5zM394 620h-265v55h265v-55z" />
    <glyph glyph-name="Ebreve" unicode="&#x114;" horiz-adv-x="555" 
d="M451 0h-365v690h352v-49h-289v-256h259v-49h-259v-287h302v-49zM275 753q-52 0 -89 34.5t-33 98.5h43q0 -14 4 -29t23.5 -31.5t51.5 -16.5t51.5 16.5t23.5 31.5t4 29h43q0 -66 -34 -99.5t-88 -33.5z" />
    <glyph glyph-name="ebreve" unicode="&#x115;" horiz-adv-x="548" 
d="M469 271l-354 -26q9 -205 184 -205q73 0 129 29l14 -47q-51 -32 -145 -32q-117 0 -179.5 70.5t-62.5 204.5q0 132 62 203t153 71q85 0 136 -51t60 -154q2 -20 3 -63zM410 312q-1 89 -37 133.5t-103 44.5q-68 0 -110.5 -53.5t-44.5 -147.5zM264 583q-52 0 -89 34.5
t-33 98.5h43q0 -14 4 -29t23.5 -31.5t51.5 -16.5t51.5 16.5t23.5 31.5t4 29h43q0 -66 -34 -99.5t-88 -33.5z" />
    <glyph glyph-name="Edotaccent" unicode="&#x116;" horiz-adv-x="555" 
d="M451 0h-365v690h352v-49h-289v-256h259v-49h-259v-287h302v-49zM274 763q-21 0 -34.5 13.5t-13.5 36.5t13.5 36.5t34.5 13.5t34.5 -13.5t13.5 -36.5t-13.5 -36.5t-34.5 -13.5z" />
    <glyph glyph-name="edotaccent" unicode="&#x117;" horiz-adv-x="548" 
d="M469 271l-354 -26q9 -205 184 -205q73 0 129 29l14 -47q-51 -32 -145 -32q-117 0 -179.5 70.5t-62.5 204.5q0 132 62 203t153 71q85 0 136 -51t60 -154q2 -20 3 -63zM410 312q-1 89 -37 133.5t-103 44.5q-68 0 -110.5 -53.5t-44.5 -147.5zM263 593q-21 0 -34.5 13.5
t-13.5 36.5t13.5 36.5t34.5 13.5t34.5 -13.5t13.5 -36.5t-13.5 -36.5t-34.5 -13.5z" />
    <glyph glyph-name="Eogonek" unicode="&#x118;" horiz-adv-x="555" 
d="M445 0h-118h-237v693h400v-59h-332v-241h296v-58h-296v-276h358v-57q-30 -22 -55 -51t-25 -52q0 -34 42 -34q22 0 38 6l5 -48q-25 -9 -54 -9q-98 0 -98 70q0 63 76 116z" />
    <glyph glyph-name="eogonek" unicode="&#x119;" horiz-adv-x="548" 
d="M55 259q0 128 66.5 199t159.5 71q98 0 153 -63.5t55 -189.5q0 -6 -1 -16.5t-1 -14.5h-363q5 -169 137 -193q20 -4 50 -4q72 0 129 27l12 -56q-101 -78 -101 -120q0 -34 42 -34q21 0 38 6l5 -48q-25 -9 -54 -9q-98 0 -98 70q0 21 12 45q19 38 62 66q-28 -5 -49 -5
q-130 0 -192 72.5t-62 196.5zM126 300h296q-2 82 -38 126.5t-102 44.5q-67 0 -109.5 -50t-46.5 -121z" />
    <glyph glyph-name="Ecaron" unicode="&#x11a;" horiz-adv-x="555" 
d="M451 0h-365v690h352v-49h-289v-256h259v-49h-259v-287h302v-49zM171 935l104 -96l104 96l28 -31l-132 -147l-132 147z" />
    <glyph glyph-name="ecaron" unicode="&#x11b;" horiz-adv-x="548" 
d="M469 271l-354 -26q9 -205 184 -205q73 0 129 29l14 -47q-51 -32 -145 -32q-117 0 -179.5 70.5t-62.5 204.5q0 132 62 203t153 71q85 0 136 -51t60 -154q2 -20 3 -63zM410 312q-1 89 -37 133.5t-103 44.5q-68 0 -110.5 -53.5t-44.5 -147.5zM160 765l104 -96l104 96l28 -31
l-132 -147l-132 147z" />
    <glyph glyph-name="Gcircumflex" unicode="&#x11c;" horiz-adv-x="658" 
d="M545 23q-64 -35 -188 -35q-126 0 -211.5 93.5t-85.5 266.5q0 169 87.5 262t213.5 93q110 0 175 -41l-20 -47q-56 37 -154 37q-108 0 -172 -79.5t-64 -229.5q0 -143 64.5 -224.5t173.5 -81.5q82 0 118 18v244h-67v53h130v-329zM349 831l-104 -96l-28 31l132 147l132 -147
l-28 -31z" />
    <glyph glyph-name="gcircumflex" unicode="&#x11d;" horiz-adv-x="573" 
d="M457 6q0 -212 -216 -212q-91 0 -155 30q5 16 17 48q56 -29 135 -29q84 0 123 41q38 39 38 117v38q-49 -34 -126 -34q-97 0 -157.5 67.5t-60.5 192.5q0 122 63 197.5t174 75.5q97 0 165 -32v-500zM399 87v388q-37 16 -106 16q-85 0 -131 -61.5t-46 -164.5
q0 -104 44 -158.5t120 -54.5q71 0 119 35zM293 661l-104 -96l-28 31l132 147l132 -147l-28 -31z" />
    <glyph glyph-name="Gbreve" unicode="&#x11e;" horiz-adv-x="658" 
d="M545 23q-64 -35 -188 -35q-126 0 -211.5 93.5t-85.5 266.5q0 169 87.5 262t213.5 93q110 0 175 -41l-20 -47q-56 37 -154 37q-108 0 -172 -79.5t-64 -229.5q0 -143 64.5 -224.5t173.5 -81.5q82 0 118 18v244h-67v53h130v-329zM348 753q-52 0 -89 34.5t-33 98.5h43
q0 -14 4 -29t23.5 -31.5t51.5 -16.5t51.5 16.5t23.5 31.5t4 29h43q0 -66 -34 -99.5t-88 -33.5z" />
    <glyph glyph-name="gbreve" unicode="&#x11f;" horiz-adv-x="573" 
d="M457 6q0 -212 -216 -212q-91 0 -155 30q5 16 17 48q56 -29 135 -29q84 0 123 41q38 39 38 117v38q-49 -34 -126 -34q-97 0 -157.5 67.5t-60.5 192.5q0 122 63 197.5t174 75.5q97 0 165 -32v-500zM399 87v388q-37 16 -106 16q-85 0 -131 -61.5t-46 -164.5
q0 -104 44 -158.5t120 -54.5q71 0 119 35zM292 583q-52 0 -89 34.5t-33 98.5h43q0 -14 4 -29t23.5 -31.5t51.5 -16.5t51.5 16.5t23.5 31.5t4 29h43q0 -66 -34 -99.5t-88 -33.5z" />
    <glyph glyph-name="Gdotaccent" unicode="&#x120;" horiz-adv-x="658" 
d="M545 23q-64 -35 -188 -35q-126 0 -211.5 93.5t-85.5 266.5q0 169 87.5 262t213.5 93q110 0 175 -41l-20 -47q-56 37 -154 37q-108 0 -172 -79.5t-64 -229.5q0 -143 64.5 -224.5t173.5 -81.5q82 0 118 18v244h-67v53h130v-329zM347 763q-21 0 -34.5 13.5t-13.5 36.5
t13.5 36.5t34.5 13.5t34.5 -13.5t13.5 -36.5t-13.5 -36.5t-34.5 -13.5z" />
    <glyph glyph-name="gdotaccent" unicode="&#x121;" horiz-adv-x="573" 
d="M457 6q0 -212 -216 -212q-91 0 -155 30q5 16 17 48q56 -29 135 -29q84 0 123 41q38 39 38 117v38q-49 -34 -126 -34q-97 0 -157.5 67.5t-60.5 192.5q0 122 63 197.5t174 75.5q97 0 165 -32v-500zM399 87v388q-37 16 -106 16q-85 0 -131 -61.5t-46 -164.5
q0 -104 44 -158.5t120 -54.5q71 0 119 35zM291 593q-21 0 -34.5 13.5t-13.5 36.5t13.5 36.5t34.5 13.5t34.5 -13.5t13.5 -36.5t-13.5 -36.5t-34.5 -13.5z" />
    <glyph glyph-name="Gcommaaccent" unicode="&#x122;" horiz-adv-x="658" 
d="M522 62v177v89h68v-309q-75 -33 -211 -33q-140 0 -228.5 96t-88.5 265q0 168 93.5 264.5t232.5 96.5q126 0 200 -48l-23 -58q-62 45 -180 45q-110 0 -180.5 -78.5t-70.5 -221.5q0 -141 66 -221t190 -80q95 0 132 16zM336 -68v13h64q1 -5 1 -17q0 -9 -2 -23
q-5 -38 -27.5 -61t-57.5 -28q-14 -2 -21 -2q-22 0 -31 4v43q42 0 58 16.5t16 54.5z" />
    <glyph glyph-name="gcommaaccent" unicode="&#x123;" horiz-adv-x="573" 
d="M423 26v34q-16 -14 -53 -27.5t-85 -13.5q-99 0 -164.5 62t-65.5 189q0 113 66.5 185t178.5 72q101 0 187 -28v-472q0 -114 -59 -164.5t-182 -50.5q-85 0 -160 25l13 59q58 -27 149 -27q95 0 134 35q41 37 41 122zM422 121v333q-46 14 -121 14q-82 0 -129.5 -55
t-47.5 -144q0 -96 47 -143.5t114 -47.5q87 0 137 43zM265 633q0 64 30.5 99.5t69.5 46.5l20 -38q-18 -11 -27.5 -20.5t-18.5 -34t-9 -60.5v-12h-64q-1 5 -1 19z" />
    <glyph glyph-name="Hcircumflex" unicode="&#x124;" horiz-adv-x="692" 
d="M550 0h-63v335h-338v-335h-63v690h63v-306h338v306h63v-690zM317 831l-104 -96l-28 31l132 147l132 -147l-28 -31z" />
    <glyph glyph-name="hcircumflex" unicode="&#x125;" 
d="M461 0h-59v288q0 51 -4 81.5t-17 60.5t-42 43.5t-75 13.5q-74 0 -123 -28v-459h-60v780h60v-276q68 31 129 31q53 0 90 -15t56.5 -36t30 -56.5t12.5 -62t2 -66.5v-299zM284 884l-104 -96l-28 31l132 147l132 -147l-28 -31z" />
    <glyph glyph-name="Hbar" unicode="&#x126;" horiz-adv-x="720" 
d="M696 532h-80v-532h-68v333h-376v-333h-68v532h-80v54h80v107h68v-107h376v107h68v-107h80v-54zM548 392v140h-376v-140h376z" />
    <glyph glyph-name="hbar" unicode="&#x127;" 
d="M151 0h-65v628h-80v52h80v84l65 12v-96h187v-52h-187v-126q67 25 131 25q114 0 160.5 -61.5t46.5 -176.5v-289h-65v268q0 112 -33 156t-119 44q-30 0 -69.5 -8.5t-51.5 -14.5v-445z" />
    <glyph glyph-name="Itilde" unicode="&#x128;" horiz-adv-x="248" 
d="M151 0h-63v690h63v-690zM178 753q-29 0 -74 19.5t-54 19.5q-30 0 -55 -45l-38 18q13 31 37 55.5t59 24.5q33 0 76.5 -19.5t51.5 -19.5q30 0 55 45l35 -18q-14 -30 -39 -55t-54 -25z" />
    <glyph glyph-name="itilde" unicode="&#x129;" horiz-adv-x="237" 
d="M151 517v-517h-65v517h65zM178 583q-29 0 -74 19.5t-54 19.5q-30 0 -55 -45l-38 18q13 31 37 55.5t59 24.5q33 0 76.5 -19.5t51.5 -19.5q30 0 55 45l35 -18q-14 -30 -39 -55t-54 -25z" />
    <glyph glyph-name="Imacron" unicode="&#x12a;" horiz-adv-x="248" 
d="M151 0h-63v690h63v-690zM248 790h-265v55h265v-55z" />
    <glyph glyph-name="imacron" unicode="&#x12b;" horiz-adv-x="237" 
d="M151 517v-517h-65v517h65zM248 620h-265v55h265v-55z" />
    <glyph glyph-name="Ibreve" unicode="&#x12c;" horiz-adv-x="248" 
d="M151 0h-63v690h63v-690zM118 753q-52 0 -89 34.5t-33 98.5h43q0 -14 4 -29t23.5 -31.5t51.5 -16.5t51.5 16.5t23.5 31.5t4 29h43q0 -66 -34 -99.5t-88 -33.5z" />
    <glyph glyph-name="ibreve" unicode="&#x12d;" horiz-adv-x="237" 
d="M151 517v-517h-65v517h65zM118 583q-52 0 -89 34.5t-33 98.5h43q0 -14 4 -29t23.5 -31.5t51.5 -16.5t51.5 16.5t23.5 31.5t4 29h43q0 -66 -34 -99.5t-88 -33.5z" />
    <glyph glyph-name="Iogonek" unicode="&#x12e;" horiz-adv-x="248" 
d="M158 693v-693q-76 -64 -76 -101q0 -34 42 -34q22 0 38 6l5 -48q-25 -9 -54 -9q-98 0 -98 70q0 61 75 116v693h68z" />
    <glyph glyph-name="iogonek" unicode="&#x12f;" horiz-adv-x="237" 
d="M151 517v-517l-18.5 -18l-20.5 -20t-16.5 -19t-13.5 -22.5t-4 -21.5q0 -34 42 -34q22 0 38 6l5 -48q-25 -9 -54 -9q-98 0 -98 70q0 61 75 116v517h65zM166 673q0 -23 -13.5 -36.5t-34.5 -13.5t-34.5 13.5t-13.5 36.5t13.5 36.5t34.5 13.5t34.5 -13.5t13.5 -36.5z" />
    <glyph glyph-name="Idotaccent" unicode="&#x130;" horiz-adv-x="248" 
d="M90 0v693h68v-693h-68zM125 779q-21 0 -34.5 13.5t-13.5 36.5t13.5 36.5t34.5 13.5t34.5 -13.5t13.5 -36.5t-13.5 -36.5t-34.5 -13.5z" />
    <glyph glyph-name="dotlessi" unicode="&#x131;" horiz-adv-x="237" 
d="M151 517v-517h-65v517h65z" />
    <glyph glyph-name="IJ" unicode="&#x132;" horiz-adv-x="735" 
d="M90 0v693h68v-693h-68zM648 693v-475q0 -109 -48 -171t-163 -62q-64 0 -112.5 19.5t-68.5 39.5l32 55q60 -53 142 -53q79 0 114.5 41t35.5 138v468h68z" />
    <glyph glyph-name="ij" unicode="&#x133;" horiz-adv-x="474" 
d="M395 681q0 -19 -12.5 -31t-29.5 -12q-18 0 -30 12t-12 31t12 31t30 12t30 -12t12 -31zM383 11q0 -177 -132 -203q-19 -7 -54 -7l5 45q65 9 92 49t29 114v519h60v-517zM156 681q0 -19 -12 -31t-30 -12t-30 12t-12 31t12 31t30 12t30 -12t12 -31zM144 0h-59v528h59v-528z
" />
    <glyph glyph-name="Jcircumflex" unicode="&#x134;" horiz-adv-x="487" 
d="M272 118q0 -92 -41 -150t-125 -72q-59 -6 -125 16q10 32 16 48q58 -17 103 -7q67 14 88 62.5t21 154.5v65v455h63v-572zM243 831l-104 -96l-28 31l132 147l132 -147l-28 -31z" />
    <glyph glyph-name="jcircumflex" unicode="&#x135;" horiz-adv-x="237" 
d="M-11 -187q-30 0 -52 10l9 53q18 -6 42 -6q57 0 77.5 31t20.5 101v515h65v-512q0 -100 -37.5 -146t-124.5 -46zM119 661l-104 -96l-28 31l132 147l132 -147l-28 -31z" />
    <glyph glyph-name="Kcommaaccent" unicode="&#x136;" horiz-adv-x="599" 
d="M589 0h-38h-38q-68 104 -166 198t-189 145v-343h-68v693h68v-323l180.5 171t145.5 152h82q-169 -180 -330 -326q88 -55 198 -169t155 -198zM296 -68v13h64q1 -5 1 -17q0 -9 -2 -23q-5 -38 -27.5 -61t-57.5 -28q-14 -2 -21 -2q-22 0 -31 4v43q42 0 58 16.5t16 54.5z" />
    <glyph glyph-name="kcommaaccent" unicode="&#x137;" horiz-adv-x="495" 
d="M239 -68v13h64q1 -5 1 -17q0 -9 -2 -23q-5 -38 -27.5 -61t-57.5 -28q-14 -2 -21 -2q-22 0 -31 4v43q42 0 58 16.5t16 54.5zM453 0h-70q-102 146 -240 270v-270h-59v780h59v-497q117 123 220 245h69l-227 -247q136 -124 248 -281z" />
    <glyph glyph-name="kgreenlandic" unicode="&#x138;" horiz-adv-x="506" 
d="M151 0h-65v517h65v-239q161 155 237 239h78q-43 -49 -116 -121.5t-125 -119.5q68 -44 144 -124t119 -152h-77q-46 72 -122.5 145.5t-137.5 109.5v-255z" />
    <glyph glyph-name="Lacute" unicode="&#x139;" horiz-adv-x="502" 
d="M425 0h-337v690h63v-641h274v-49zM137 767h-31l87 176h85z" />
    <glyph glyph-name="lacute" unicode="&#x13a;" horiz-adv-x="255" 
d="M227 32l-14 -46q-67 12 -97.5 45.5t-30.5 127.5v621h59v-546q0 -87 7.5 -125t22 -51.5t53.5 -25.5zM132 857h-31l87 176h85z" />
    <glyph glyph-name="Lcommaaccent" unicode="&#x13b;" horiz-adv-x="502" 
d="M158 59h326v-59h-394v693h68v-634zM262 -68v13h64q1 -5 1 -17q0 -9 -2 -23q-5 -38 -27.5 -61t-57.5 -28q-14 -2 -21 -2q-22 0 -31 4v43q42 0 58 16.5t16 54.5z" />
    <glyph glyph-name="lcommaaccent" unicode="&#x13c;" horiz-adv-x="255" 
d="M112 -68v13h64q1 -5 1 -17q0 -9 -2 -23q-5 -38 -27.5 -61t-57.5 -28q-14 -2 -21 -2q-22 0 -31 4v43q42 0 58 16.5t16 54.5zM227 32l-14 -46q-67 12 -97.5 45.5t-30.5 127.5v621h59v-546q0 -87 7.5 -125t22 -51.5t53.5 -25.5z" />
    <glyph glyph-name="Lcaron" unicode="&#x13d;" horiz-adv-x="502" 
d="M158 59h326v-59h-394v693h68v-634zM257 694h71l-24 -217h-47v217z" />
    <glyph glyph-name="lcaron" unicode="&#x13e;" horiz-adv-x="332" 
d="M229 776h71l-24 -217h-47v217zM227 32l-14 -46q-67 12 -97.5 45.5t-30.5 127.5v621h59v-546q0 -87 7.5 -125t22 -51.5t53.5 -25.5z" />
    <glyph glyph-name="Ldot" unicode="&#x13f;" horiz-adv-x="502" 
d="M158 59h326v-59h-394v693h68v-634zM375 314q-21 0 -34.5 13.5t-13.5 36.5t13.5 36.5t34.5 13.5t34.5 -13.5t13.5 -36.5t-13.5 -36.5t-34.5 -13.5z" />
    <glyph glyph-name="ldot" unicode="&#x140;" horiz-adv-x="255" 
d="M227 32l-14 -46q-67 12 -97.5 45.5t-30.5 127.5v621h59v-546q0 -87 7.5 -125t22 -51.5t53.5 -25.5zM114 853q-21 0 -34.5 13.5t-13.5 36.5t13.5 36.5t34.5 13.5t34.5 -13.5t13.5 -36.5t-13.5 -36.5t-34.5 -13.5z" />
    <glyph glyph-name="Lslash" unicode="&#x141;" horiz-adv-x="516" 
d="M172 391l113 58l23 -48l-136 -71v-271h326v-59h-394v295l-78 -40l-25 48l103 53v337h68v-302z" />
    <glyph glyph-name="lslash" unicode="&#x142;" horiz-adv-x="255" 
d="M155 439l74 38l22 -48l-96 -50v-254q0 -45 16 -59.5t60 -21.5l-9 -54q-69 4 -100.5 33t-31.5 100v111v111l-54 -28l-23 47l77 40v376h65v-341z" />
    <glyph glyph-name="Nacute" unicode="&#x143;" horiz-adv-x="709" 
d="M590 0h-29h-29q-107 188 -344 545q-9 13 -20 32l-17 29t-9 10q0 -16 1 -114t1 -149v-353h-58v690h64q192 -270 347 -529l16 -29l13.5 -24.5t7.5 -11.5q0 33 -1 155.5t-1 181.5v257h58v-690zM363 767h-31l87 176h85z" />
    <glyph glyph-name="nacute" unicode="&#x144;" 
d="M461 0h-59v291q0 40 -1.5 63t-9 52.5t-22 45.5t-41.5 27t-66 11q-75 0 -121 -18v-472h-60v505q77 33 190 33q52 0 89 -15.5t56 -37t30 -56.5t13 -61.5t2 -65.5v-302zM275 597h-31l87 176h85z" />
    <glyph glyph-name="Ncommaaccent" unicode="&#x145;" horiz-adv-x="709" 
d="M619 0h-29h-28q-59 107 -188.5 294.5t-216.5 289.5v-292v-292h-67v693h54q80 -90 177 -219.5t170 -243.5q30 -46 61 -101v282v282h67v-693zM327 -68v13h64q1 -5 1 -17q0 -9 -2 -23q-5 -38 -27.5 -61t-57.5 -28q-14 -2 -21 -2q-22 0 -31 4v43q42 0 58 16.5t16 54.5z" />
    <glyph glyph-name="ncommaaccent" unicode="&#x146;" 
d="M86 0v499q99 28 198 28q112 0 158.5 -61.5t46.5 -176.5v-289h-65v268q0 111 -32.5 155.5t-117.5 44.5q-87 0 -123 -14v-454h-65zM258 -68v13h64q1 -5 1 -17q0 -9 -2 -23q-5 -38 -27.5 -61t-57.5 -28q-14 -2 -21 -2q-22 0 -31 4v43q42 0 58 16.5t16 54.5z" />
    <glyph glyph-name="Ncaron" unicode="&#x147;" horiz-adv-x="709" 
d="M590 0h-29h-29q-107 188 -344 545q-9 13 -20 32l-17 29t-9 10q0 -16 1 -114t1 -149v-353h-58v690h64q192 -270 347 -529l16 -29l13.5 -24.5t7.5 -11.5q0 33 -1 155.5t-1 181.5v257h58v-690zM242 935l104 -96l104 96l28 -31l-132 -147l-132 147z" />
    <glyph glyph-name="ncaron" unicode="&#x148;" 
d="M461 0h-59v291q0 40 -1.5 63t-9 52.5t-22 45.5t-41.5 27t-66 11q-75 0 -121 -18v-472h-60v505q77 33 190 33q52 0 89 -15.5t56 -37t30 -56.5t13 -61.5t2 -65.5v-302zM154 765l104 -96l104 96l28 -31l-132 -147l-132 147z" />
    <glyph glyph-name="napostrophe" unicode="&#x149;" 
d="M86 0v499q99 28 198 28q112 0 158.5 -61.5t46.5 -176.5v-289h-65v268q0 111 -32.5 155.5t-117.5 44.5q-87 0 -123 -14v-454h-65zM67 776h73q0 -12 -2 -34q-7 -79 -64 -173l-45 21q40 82 40 151q0 21 -2 35z" />
    <glyph glyph-name="Eng" unicode="&#x14a;" horiz-adv-x="709" 
d="M552 -37v54q-64 112 -188 291t-207 276v-584h-67v693h54q100 -112 222.5 -281.5t185.5 -282.5v564h67v-719q0 -80 -25 -120.5t-101 -40.5q-18 0 -33 3q-16 3 -23 6l9 54q14 -6 37 -6q38 0 53.5 22t15.5 71z" />
    <glyph glyph-name="eng" unicode="&#x14b;" 
d="M424 -37v305q0 111 -32.5 155.5t-117.5 44.5q-87 0 -123 -14v-454h-65v499q99 28 198 28q112 0 158.5 -61.5t46.5 -176.5v-315q0 -80 -24.5 -120t-100.5 -40q-22 0 -31 2q-10 1 -22 6l9 53q13 -5 36 -5q37 0 52.5 22t15.5 71z" />
    <glyph glyph-name="Omacron" unicode="&#x14c;" horiz-adv-x="774" 
d="M624 345q0 -164 -76 -260.5t-206 -96.5t-206 96.5t-76 260.5q0 163 76 260.5t206 97.5t206 -97.5t76 -260.5zM559 346q0 135 -55 221t-162 86t-162 -86t-55 -221t54.5 -221t162.5 -86q109 0 163 86t54 221zM474 820h-265v55h265v-55z" />
    <glyph glyph-name="omacron" unicode="&#x14d;" horiz-adv-x="582" 
d="M488 263q0 -123 -57 -198.5t-159 -75.5q-103 0 -160 75.5t-57 198.5q0 124 57 200t159 76q103 0 160 -76t57 -200zM426 263q0 99 -38 164t-116 65q-79 0 -117.5 -65t-38.5 -164t38.5 -162t117.5 -63t116.5 63t37.5 162zM402 620h-265v55h265v-55z" />
    <glyph glyph-name="Obreve" unicode="&#x14e;" horiz-adv-x="774" 
d="M624 345q0 -164 -76 -260.5t-206 -96.5t-206 96.5t-76 260.5q0 163 76 260.5t206 97.5t206 -97.5t76 -260.5zM559 346q0 135 -55 221t-162 86t-162 -86t-55 -221t54.5 -221t162.5 -86q109 0 163 86t54 221zM344 783q-52 0 -89 34.5t-33 98.5h43q0 -14 4 -29t23.5 -31.5
t51.5 -16.5t51.5 16.5t23.5 31.5t4 29h43q0 -66 -34 -99.5t-88 -33.5z" />
    <glyph glyph-name="obreve" unicode="&#x14f;" horiz-adv-x="582" 
d="M488 263q0 -123 -57 -198.5t-159 -75.5q-103 0 -160 75.5t-57 198.5q0 124 57 200t159 76q103 0 160 -76t57 -200zM426 263q0 99 -38 164t-116 65q-79 0 -117.5 -65t-38.5 -164t38.5 -162t117.5 -63t116.5 63t37.5 162zM272 583q-52 0 -89 34.5t-33 98.5h43q0 -14 4 -29
t23.5 -31.5t51.5 -16.5t51.5 16.5t23.5 31.5t4 29h43q0 -66 -34 -99.5t-88 -33.5z" />
    <glyph glyph-name="Ohungarumlaut" unicode="&#x150;" horiz-adv-x="774" 
d="M712 347q0 -171 -93 -266.5t-232 -95.5t-232 95.5t-93 266.5t93 266t232 95t232 -95t93 -266zM640 347q0 139 -68.5 219.5t-184.5 80.5t-184.5 -80.5t-68.5 -219.5t68.5 -220t184.5 -81t184.5 81t68.5 220zM394 929l46 -42l-126 -149l-39 29zM551 929l46 -42l-126 -149
l-39 29z" />
    <glyph glyph-name="ohungarumlaut" unicode="&#x151;" horiz-adv-x="582" 
d="M527 258q0 -121 -66 -195.5t-170 -74.5t-170 74.5t-66 195.5t66 196t170 75t170 -75t66 -196zM458 258q0 97 -45 154.5t-122 57.5t-122 -57.5t-45 -154.5t45 -154t122 -57t122 57t45 154zM298 773l46 -42l-126 -149l-39 29zM455 773l46 -42l-126 -149l-39 29z" />
    <glyph glyph-name="OE" unicode="&#x152;" horiz-adv-x="990" 
d="M539 60v573q-56 7 -107 7q-144 0 -219.5 -77.5t-75.5 -215.5t75.5 -216t219.5 -78q51 0 107 7zM951 0h-411q-50 -6 -100 -6q-171 0 -273 90.5t-102 262.5q0 171 102 261.5t273 90.5q51 0 99 -6h386v-59h-318v-241h282v-58h-282v-276h344v-59z" />
    <glyph glyph-name="oe" unicode="&#x153;" horiz-adv-x="944" 
d="M291 529q138 0 197 -130q43 96 131 122q29 8 58 8q98 0 153 -63.5t55 -189.5q0 -6 -1 -16.5t-1 -14.5h-363q5 -158 119 -189q32 -8 68 -8q72 0 129 27l12 -56q-52 -30 -143 -30q-45 0 -80 9q-97 24 -138 115q-62 -125 -196 -125q-104 0 -170 74.5t-66 195.5t66 196
t170 75zM458 258q0 97 -45 154.5t-122 57.5t-122 -57.5t-45 -154.5t45 -154t122 -57t122 57t45 154zM522 300h296q-2 82 -38 126.5t-102 44.5q-67 0 -109.5 -50t-46.5 -121z" />
    <glyph glyph-name="Racute" unicode="&#x154;" horiz-adv-x="618" 
d="M531 0h-70q-135 221 -210 298h-102v-298h-61v671q68 27 163 27q124 0 188.5 -53t64.5 -153q0 -83 -48 -133.5t-135 -58.5v-1q102 -128 210 -299zM440 492q0 51 -16 85t-46 50t-59.5 22t-67.5 6q-62 0 -102 -14v-297h102q91 0 140 32t49 116zM300 767h-31l87 176h85z" />
    <glyph glyph-name="racute" unicode="&#x155;" horiz-adv-x="374" 
d="M321 530l-15 -51q-31 9 -85 9q-53 -1 -80 -18v-470h-60v502q63 30 143 34q47 1 97 -6zM212 597h-31l87 176h85z" />
    <glyph glyph-name="Rcommaaccent" unicode="&#x156;" horiz-adv-x="618" 
d="M552 485q0 -143 -149 -188q132 -166 191 -297h-73q-60 114 -187 283q-32 -3 -64 -3h-112v-280h-68v680q70 19 174 19q288 0 288 -214zM272 640q-56 0 -114 -7v-295h94q42 0 72.5 2.5t62 11.5t50.5 24.5t31.5 43.5t12.5 66q0 154 -209 154zM295 -68v13h64q1 -5 1 -17
q0 -9 -2 -23q-5 -38 -27.5 -61t-57.5 -28q-14 -2 -21 -2q-22 0 -31 4v43q42 0 58 16.5t16 54.5z" />
    <glyph glyph-name="rcommaaccent" unicode="&#x157;" horiz-adv-x="374" 
d="M262 527q68 0 100 -15q-2 -10 -6.5 -28.5t-6.5 -27.5q-29 13 -97 13q-66 0 -101 -16v-453h-65v493q75 34 176 34zM87 -68v13h64q1 -5 1 -17q0 -9 -2 -23q-5 -38 -27.5 -61t-57.5 -28q-14 -2 -21 -2q-22 0 -31 4v43q42 0 58 16.5t16 54.5z" />
    <glyph glyph-name="Rcaron" unicode="&#x158;" horiz-adv-x="618" 
d="M531 0h-70q-135 221 -210 298h-102v-298h-61v671q68 27 163 27q124 0 188.5 -53t64.5 -153q0 -83 -48 -133.5t-135 -58.5v-1q102 -128 210 -299zM440 492q0 51 -16 85t-46 50t-59.5 22t-67.5 6q-62 0 -102 -14v-297h102q91 0 140 32t49 116zM179 935l104 -96l104 96
l28 -31l-132 -147l-132 147z" />
    <glyph glyph-name="rcaron" unicode="&#x159;" horiz-adv-x="374" 
d="M262 527q68 0 100 -15q-2 -10 -6.5 -28.5t-6.5 -27.5q-29 13 -97 13q-66 0 -101 -16v-453h-65v493q75 34 176 34zM123 765l104 -96l104 96l28 -31l-132 -147l-132 147z" />
    <glyph glyph-name="Sacute" unicode="&#x15a;" horiz-adv-x="517" 
d="M438 180q0 -90 -60 -141t-160 -51q-112 0 -177 41l20 50q66 -40 154 -40q75 0 117 35.5t42 102.5q0 60 -36.5 92t-116.5 63q-136 53 -161 141q-6 23 -6 48q0 82 54.5 132t148.5 50q98 0 156 -41l-20 -47q-58 38 -136 38q-65 0 -102.5 -33.5t-37.5 -95.5q0 -56 35.5 -86
t106.5 -58q93 -36 136 -83.5t43 -116.5zM253 767h-31l87 176h85z" />
    <glyph glyph-name="sacute" unicode="&#x15b;" horiz-adv-x="428" 
d="M364 137q0 -64 -50.5 -105.5t-131.5 -41.5q-91 0 -141 32l17 49q37 -31 122 -31q55 0 89 25t34 70q0 43 -24.5 65.5t-89.5 48.5q-71 28 -103.5 63t-32.5 87q0 61 45 100.5t119 39.5q79 0 125 -30q-2 -8 -7.5 -23.5l-8.5 -23.5q-46 29 -109 29q-48 0 -77 -24t-29 -65
q0 -40 27 -63t83 -44q73 -28 108 -64t35 -94zM217 597h-31l87 176h85z" />
    <glyph glyph-name="Scircumflex" unicode="&#x15c;" horiz-adv-x="517" 
d="M438 180q0 -90 -60 -141t-160 -51q-112 0 -177 41l20 50q66 -40 154 -40q75 0 117 35.5t42 102.5q0 60 -36.5 92t-116.5 63q-136 53 -161 141q-6 23 -6 48q0 82 54.5 132t148.5 50q98 0 156 -41l-20 -47q-58 38 -136 38q-65 0 -102.5 -33.5t-37.5 -95.5q0 -56 35.5 -86
t106.5 -58q93 -36 136 -83.5t43 -116.5zM237 831l-104 -96l-28 31l132 147l132 -147l-28 -31z" />
    <glyph glyph-name="scircumflex" unicode="&#x15d;" horiz-adv-x="428" 
d="M364 137q0 -64 -50.5 -105.5t-131.5 -41.5q-91 0 -141 32l17 49q37 -31 122 -31q55 0 89 25t34 70q0 43 -24.5 65.5t-89.5 48.5q-71 28 -103.5 63t-32.5 87q0 61 45 100.5t119 39.5q79 0 125 -30q-2 -8 -7.5 -23.5l-8.5 -23.5q-46 29 -109 29q-48 0 -77 -24t-29 -65
q0 -40 27 -63t83 -44q73 -28 108 -64t35 -94zM201 661l-104 -96l-28 31l132 147l132 -147l-28 -31z" />
    <glyph glyph-name="Scedilla" unicode="&#x15e;" horiz-adv-x="517" 
d="M274 -13q-1 -4 -4.5 -11.5l-5.5 -11.5q61 -26 61 -76q0 -31 -22 -53t-76 -22q-50 0 -71 12l8 43q19 -9 59 -9q41 0 41 29q0 16 -12 24.5t-46 22.5q5 17 22 50q-68 2 -119.5 16.5t-74.5 30.5l22 59q79 -47 183 -47q171 0 171 125q0 34 -12 59.5t-35 42t-48 29t-59 25.5
q-13 4 -19 7q-96 38 -140 80t-44 115q0 88 58.5 134.5t164.5 46.5q53 0 103.5 -13.5t77.5 -32.5l-24 -57q-64 44 -160 44q-69 0 -110 -28.5t-41 -88.5q0 -25 9 -45t19.5 -32.5t36.5 -27t41.5 -21.5t52.5 -22q54 -22 79.5 -35t59 -38t47.5 -58.5t14 -79.5q0 -85 -54 -132
t-153 -54z" />
    <glyph glyph-name="scedilla" unicode="&#x15f;" horiz-adv-x="428" 
d="M221 -36q61 -26 61 -76q0 -31 -22 -53t-76 -22q-50 0 -71 12l8 43q19 -9 59 -9q41 0 41 29q0 16 -12 24.5t-46 22.5q9 26 23 53q-94 1 -146 29l17 59q6 -4 19.5 -10t46.5 -13t69 -7q22 0 42 3q87 13 87 78q0 41 -24 60t-104 52l-45 20t-38 21t-34 27t-19.5 34.5
t-8.5 46.5q0 64 48 102.5t130 38.5q83 0 136 -25l-15 -58q-52 26 -124 26q-47 0 -78 -19.5t-31 -58.5q0 -21 6.5 -35.5t26.5 -27.5t35 -20t53 -23q29 -12 39.5 -17l34.5 -17t33.5 -21.5t22.5 -25t18 -34.5t5 -43q0 -61 -41 -96.5t-114 -42.5q-7 -15 -12 -27z" />
    <glyph glyph-name="Scaron" unicode="&#x160;" horiz-adv-x="517" 
d="M438 180q0 -90 -60 -141t-160 -51q-112 0 -177 41l20 50q66 -40 154 -40q75 0 117 35.5t42 102.5q0 60 -36.5 92t-116.5 63q-136 53 -161 141q-6 23 -6 48q0 82 54.5 132t148.5 50q98 0 156 -41l-20 -47q-58 38 -136 38q-65 0 -102.5 -33.5t-37.5 -95.5q0 -56 35.5 -86
t106.5 -58q93 -36 136 -83.5t43 -116.5zM132 935l104 -96l104 96l28 -31l-132 -147l-132 147z" />
    <glyph glyph-name="scaron" unicode="&#x161;" horiz-adv-x="428" 
d="M364 137q0 -64 -50.5 -105.5t-131.5 -41.5q-91 0 -141 32l17 49q37 -31 122 -31q55 0 89 25t34 70q0 43 -24.5 65.5t-89.5 48.5q-71 28 -103.5 63t-32.5 87q0 61 45 100.5t119 39.5q79 0 125 -30q-2 -8 -7.5 -23.5l-8.5 -23.5q-46 29 -109 29q-48 0 -77 -24t-29 -65
q0 -40 27 -63t83 -44q73 -28 108 -64t35 -94zM96 765l104 -96l104 96l28 -31l-132 -147l-132 147z" />
    <glyph glyph-name="uni0162" unicode="&#x162;" horiz-adv-x="548" 
d="M281 -36q61 -26 61 -76q0 -31 -22 -53t-76 -22q-50 0 -71 12l8 43q19 -9 59 -9q41 0 41 29q0 16 -12 24.5t-46 22.5q15 41 29 65h-12v634h-222v59h512v-59h-222v-634h-10q-10 -18 -17 -36z" />
    <glyph glyph-name="uni0163" unicode="&#x163;" horiz-adv-x="387" 
d="M243 -36q61 -26 61 -76q0 -31 -22 -53t-76 -22q-50 0 -71 12l8 43q19 -9 59 -9q41 0 41 29q0 20 -25 33l-33 14q2 8 12 27.5t13 29.5q-79 11 -103.5 64.5t-24.5 173.5v450h65v-163h206v-55h-206v-275q0 -71 19 -101t58 -36q9 -2 30 -2q58 0 105 27l16 -54
q-44 -29 -121 -32q-1 -2 -11 -25z" />
    <glyph glyph-name="Tcaron" unicode="&#x164;" horiz-adv-x="548" 
d="M453 641h-183v-641h-63v641h-183v49h429v-49zM134 935l104 -96l104 96l28 -31l-132 -147l-132 147z" />
    <glyph glyph-name="tcaron" unicode="&#x165;" horiz-adv-x="387" 
d="M147 681v-164h206v-55h-206v-275q0 -82 26.5 -110.5t80.5 -28.5q58 0 105 27q3 -9 8 -27t8 -27q-51 -32 -125 -32q-94 0 -131 48.5t-37 155.5v0v238v238zM216 776h71l-26 -194h-45v194z" />
    <glyph glyph-name="Tbar" unicode="&#x166;" horiz-adv-x="548" 
d="M18 693h512v-59h-222v-251h124v-54h-124v-329h-68v329h-124v54h124v251h-222v59z" />
    <glyph glyph-name="tbar" unicode="&#x167;" horiz-adv-x="387" 
d="M147 681v-164h206v-55h-206v-164h202v-53h-202v-58q0 -83 26 -111t81 -28q58 0 105 27l16 -54q-51 -32 -125 -32q-94 0 -131 48.5t-37 155.5v476z" />
    <glyph glyph-name="Utilde" unicode="&#x168;" horiz-adv-x="680" 
d="M540 225q0 -105 -58 -171.5t-170 -66.5q-99 0 -156.5 54t-66.5 140q-4 40 -4 93v416h62v-411q0 -118 39 -178.5t128 -60.5q62 0 106.5 37t53.5 103q6 44 6 99v411h60v-465zM378 753q-30 0 -75 19.5t-53 19.5q-30 0 -55 -45l-38 18q33 80 96 80q33 0 76.5 -19.5
t51.5 -19.5q30 0 55 45l35 -18q-14 -30 -39 -55t-54 -25z" />
    <glyph glyph-name="utilde" unicode="&#x169;" 
d="M453 25q-84 -35 -185 -35q-59 0 -98 17.5t-58.5 52t-26.5 74t-7 96.5v298h60v-286q0 -106 27.5 -154.5t110.5 -48.5q81 0 117 20v469h60v-503zM336 583q-30 0 -75 19.5t-53 19.5q-30 0 -55 -45l-38 18q33 80 96 80q33 0 76.5 -19.5t51.5 -19.5q30 0 55 45l35 -18
q-14 -30 -39 -55t-54 -25z" />
    <glyph glyph-name="Umacron" unicode="&#x16a;" horiz-adv-x="680" 
d="M540 225q0 -105 -58 -171.5t-170 -66.5q-99 0 -156.5 54t-66.5 140q-4 40 -4 93v416h62v-411q0 -118 39 -178.5t128 -60.5q62 0 106.5 37t53.5 103q6 44 6 99v411h60v-465zM448 790h-265v55h265v-55z" />
    <glyph glyph-name="umacron" unicode="&#x16b;" 
d="M453 25q-84 -35 -185 -35q-59 0 -98 17.5t-58.5 52t-26.5 74t-7 96.5v298h60v-286q0 -106 27.5 -154.5t110.5 -48.5q81 0 117 20v469h60v-503zM406 620h-265v55h265v-55z" />
    <glyph glyph-name="Ubreve" unicode="&#x16c;" horiz-adv-x="680" 
d="M540 225q0 -105 -58 -171.5t-170 -66.5q-99 0 -156.5 54t-66.5 140q-4 40 -4 93v416h62v-411q0 -118 39 -178.5t128 -60.5q62 0 106.5 37t53.5 103q6 44 6 99v411h60v-465zM318 753q-52 0 -89 34.5t-33 98.5h43q0 -14 4 -29t23.5 -31.5t51.5 -16.5t51.5 16.5t23.5 31.5
t4 29h43q0 -66 -34 -99.5t-88 -33.5z" />
    <glyph glyph-name="ubreve" unicode="&#x16d;" 
d="M453 25q-84 -35 -185 -35q-59 0 -98 17.5t-58.5 52t-26.5 74t-7 96.5v298h60v-286q0 -106 27.5 -154.5t110.5 -48.5q81 0 117 20v469h60v-503zM276 583q-52 0 -89 34.5t-33 98.5h43q0 -14 4 -29t23.5 -31.5t51.5 -16.5t51.5 16.5t23.5 31.5t4 29h43q0 -66 -34 -99.5
t-88 -33.5z" />
    <glyph glyph-name="Uring" unicode="&#x16e;" horiz-adv-x="680" 
d="M540 225q0 -105 -58 -171.5t-170 -66.5q-99 0 -156.5 54t-66.5 140q-4 40 -4 93v416h62v-411q0 -118 39 -178.5t128 -60.5q62 0 106.5 37t53.5 103q6 44 6 99v411h60v-465zM413 849q0 -43 -27.5 -69.5t-67.5 -26.5t-68 26.5t-28 69.5q0 42 28 68.5t68 26.5t67.5 -27
t27.5 -68zM375 849q0 27 -16 43t-41 16t-41 -16t-16 -43q0 -28 16 -43.5t41 -15.5t41 15.5t16 43.5z" />
    <glyph glyph-name="uring" unicode="&#x16f;" 
d="M453 25q-84 -35 -185 -35q-59 0 -98 17.5t-58.5 52t-26.5 74t-7 96.5v298h60v-286q0 -106 27.5 -154.5t110.5 -48.5q81 0 117 20v469h60v-503zM371 679q0 -43 -27.5 -69.5t-67.5 -26.5t-68 26.5t-28 69.5q0 42 28 68.5t68 26.5t67.5 -27t27.5 -68zM333 679q0 27 -16 43
t-41 16t-41 -16t-16 -43q0 -28 16 -43.5t41 -15.5t41 15.5t16 43.5z" />
    <glyph glyph-name="Uhungarumlaut" unicode="&#x170;" horiz-adv-x="680" 
d="M540 225q0 -105 -58 -171.5t-170 -66.5q-99 0 -156.5 54t-66.5 140q-4 40 -4 93v416h62v-411q0 -118 39 -178.5t128 -60.5q62 0 106.5 37t53.5 103q6 44 6 99v411h60v-465zM367 765l118 163l46 -43l-127 -150zM374 885l-126 -150l-37 30l117 164z" />
    <glyph glyph-name="uhungarumlaut" unicode="&#x171;" 
d="M453 25q-84 -35 -185 -35q-59 0 -98 17.5t-58.5 52t-26.5 74t-7 96.5v298h60v-286q0 -106 27.5 -154.5t110.5 -48.5q81 0 117 20v469h60v-503zM305 618l118 163l46 -43l-127 -150zM312 738l-126 -150l-37 30l117 164z" />
    <glyph glyph-name="Uogonek" unicode="&#x172;" horiz-adv-x="680" 
d="M361 -14q-8 -1 -21 -1q-131 0 -192 74.5t-61 197.5v436h68v-427q0 -110 49.5 -165t135.5 -55t135.5 55t49.5 165v427h68v-436q0 -175 -110 -238q-45 -25 -79.5 -57.5t-34.5 -62.5q0 -34 42 -34q21 0 38 6l5 -48q-25 -9 -54 -9q-98 0 -98 70q0 50 59 102z" />
    <glyph glyph-name="uogonek" unicode="&#x173;" 
d="M412 1q-77 -11 -127 -11q-110 0 -157.5 61.5t-47.5 175.5v290h65v-269q0 -110 34 -154.5t116 -44.5q89 0 123 14v454h65v-504q-5 -4 -50 -49q-35 -38 -35 -65q0 -34 42 -34q22 0 38 6l5 -48q-25 -9 -54 -9q-98 0 -98 70q0 24 11 46q16 32 70 71z" />
    <glyph glyph-name="Wcircumflex" unicode="&#x174;" horiz-adv-x="921" 
d="M824 690q-78 -393 -164 -690h-62q-115 371 -145 477q-5 17 -11.5 45.5t-9.5 35.5q-3 -6 -6 -18t-7 -30.5t-8 -32.5q-34 -118 -147 -477h-60q-80 269 -164 690h65q52 -276 107 -515q22 -96 25 -105q4 0 32 97q64 209 138 481h53q69 -261 138 -481l31 -97q2 4 4.5 14.5
t6 28.5t6.5 28q53 225 118 549h60zM434 831l-104 -96l-28 31l132 147l132 -147l-28 -31z" />
    <glyph glyph-name="wcircumflex" unicode="&#x175;" horiz-adv-x="775" 
d="M734 528q-71 -271 -164 -528h-52q-76 223 -119 377q-4 14 -8.5 35t-6.5 26q-51 -185 -135 -438h-53q-93 257 -164 528h63q36 -160 115 -413q3 -10 6 -22.5t5 -18.5t4 -9l16 55q71 224 119 408h53q43 -190 116 -409q3 -9 6 -21.5t5.5 -21t4.5 -11.5q2 2 4 9l5.5 19.5
t6.5 21.5q61 183 115 413h58zM386 661l-104 -96l-28 31l132 147l132 -147l-28 -31z" />
    <glyph glyph-name="Ycircumflex" unicode="&#x176;" 
d="M510 690q-133 -251 -215 -390v-300h-62v299q-107 182 -216 391h71q91 -192 178 -344q82 144 180 344h64zM267 831l-104 -96l-28 31l132 147l132 -147l-28 -31z" />
    <glyph glyph-name="ycircumflex" unicode="&#x177;" horiz-adv-x="474" 
d="M444 528q-92 -333 -175 -549q-18 -47 -29 -70.5t-30.5 -43t-44.5 -19.5q-11 0 -22 1.5t-18 3t-16 5.5t-12 6l-11 7t-9 5l11 37q47 -27 63 -27q14 0 26 10t21 31.5t13 33t11 36.5q-117 269 -194 533h64q47 -179 131 -403q5 -13 13.5 -38t11.5 -32q2 0 5.5 12l8.5 30t8 27
q49 148 117 404h57zM236 661l-104 -96l-28 31l132 147l132 -147l-28 -31z" />
    <glyph glyph-name="Ydieresis" unicode="&#x178;" 
d="M510 690q-133 -251 -215 -390v-300h-62v299q-107 182 -216 391h71q91 -192 178 -344q82 144 180 344h64zM224 813q0 -22 -13 -35t-33 -13t-33 13t-13 35t13 35t33 13t33 -13t13 -35zM396 813q0 -22 -13 -35t-33 -13t-33 13t-13 35t13 35t33 13t33 -13t13 -35z" />
    <glyph glyph-name="Zacute" unicode="&#x179;" horiz-adv-x="560" 
d="M450 0h-417v50q88 189 335 590h-320v50h391v-50l-72 -122.5l-95.5 -164l-84 -149.5t-80.5 -154h343v-50zM264 767h-31l87 176h85z" />
    <glyph glyph-name="zacute" unicode="&#x17a;" horiz-adv-x="455" 
d="M389 0h-354v35q24 47 63.5 114.5l69 115.5l77 123.5l59.5 95.5h-253v44h329v-41l-56 -85q-135 -203 -214 -359h279v-43zM237 597h-31l87 176h85z" />
    <glyph glyph-name="Zdotaccent" unicode="&#x17b;" horiz-adv-x="560" 
d="M450 0h-417v50q88 189 335 590h-320v50h391v-50l-72 -122.5l-95.5 -164l-84 -149.5t-80.5 -154h343v-50zM246 763q-21 0 -34.5 13.5t-13.5 36.5t13.5 36.5t34.5 13.5t34.5 -13.5t13.5 -36.5t-13.5 -36.5t-34.5 -13.5z" />
    <glyph glyph-name="zdotaccent" unicode="&#x17c;" horiz-adv-x="455" 
d="M389 0h-354v35q24 47 63.5 114.5l69 115.5l77 123.5l59.5 95.5h-253v44h329v-41l-56 -85q-135 -203 -214 -359h279v-43zM219 593q-21 0 -34.5 13.5t-13.5 36.5t13.5 36.5t34.5 13.5t34.5 -13.5t13.5 -36.5t-13.5 -36.5t-34.5 -13.5z" />
    <glyph glyph-name="Zcaron" unicode="&#x17d;" horiz-adv-x="560" 
d="M450 0h-417v50q88 189 335 590h-320v50h391v-50l-72 -122.5l-95.5 -164l-84 -149.5t-80.5 -154h343v-50zM143 935l104 -96l104 96l28 -31l-132 -147l-132 147z" />
    <glyph glyph-name="zcaron" unicode="&#x17e;" horiz-adv-x="455" 
d="M389 0h-354v35q24 47 63.5 114.5l69 115.5l77 123.5l59.5 95.5h-253v44h329v-41l-56 -85q-135 -203 -214 -359h279v-43zM116 765l104 -96l104 96l28 -31l-132 -147l-132 147z" />
    <glyph glyph-name="longs" unicode="&#x17f;" horiz-adv-x="247" 
d="M151 571v-571h-65v573q0 203 190 203q75 0 103 -18l-13 -56q-34 16 -87 16q-69 0 -98.5 -34.5t-29.5 -112.5z" />
    <glyph glyph-name="uni0180" unicode="&#x180;" horiz-adv-x="583" 
d="M151 776v-96h194v-52h-194v-142q57 42 143 42q109 0 171.5 -75t62.5 -195q0 -125 -69.5 -197.5t-184.5 -72.5q-104 0 -188 28v612h-80v52h80v84zM151 423v-362q40 -14 122 -14q85 0 135.5 55.5t50.5 155.5q0 95 -41 153t-130 58q-76 0 -137 -46z" />
    <glyph glyph-name="uni0181" unicode="&#x181;" horiz-adv-x="712" 
d="M345 699q124 0 201 -42.5t77 -137.5q0 -35 -13 -68q-26 -62 -92 -82q139 -32 139 -174q0 -201 -319 -201q-92 0 -166 19v622q-93 -6 -93 -100q0 -20 3 -32l-56 -8q-6 22 -6 48q0 40 14.5 68t39.5 45t67.5 27t89 13t114.5 3zM384 332h-144v-273q47 -7 106 -7
q239 0 239 144q0 77 -50.5 106.5t-150.5 29.5zM345 641q-82 0 -105 -3v-248h88q35 0 58.5 1t52 5t46.5 12.5t34.5 22t24.5 35.5t8 51q0 124 -207 124z" />
    <glyph glyph-name="uni0182" unicode="&#x182;" horiz-adv-x="612" 
d="M244 366h-86v-306q58 -7 110 -7q225 0 225 156q0 90 -62 123.5t-187 33.5zM158 424h95q153 0 232 -51t79 -163q0 -216 -299 -216q-105 0 -175 19v680h412v-59h-344v-210z" />
    <glyph glyph-name="uni0183" unicode="&#x183;" horiz-adv-x="583" 
d="M151 716v-230q57 42 143 42q109 0 171.5 -75t62.5 -195q0 -125 -69.5 -197.5t-184.5 -72.5q-104 0 -188 28v755h383v-55h-318zM151 423v-362q40 -14 122 -14q85 0 135.5 55.5t50.5 155.5q0 95 -41 153t-130 58q-76 0 -137 -46z" />
    <glyph glyph-name="uni0184" unicode="&#x184;" horiz-adv-x="583" 
d="M151 776v-290q57 42 143 42q109 0 171.5 -75t62.5 -195q0 -125 -69.5 -197.5t-184.5 -72.5q-104 0 -188 28v635l-63 69q58 38 128 56zM151 423v-362q40 -14 122 -14q85 0 135.5 55.5t50.5 155.5q0 95 -41 153t-130 58q-76 0 -137 -46z" />
    <glyph glyph-name="uni0185" unicode="&#x185;" horiz-adv-x="602" 
d="M273 375q-63 0 -109 -6v-309q42 -7 110 -7q49 0 86 7t69 24.5t49 50.5t17 80q0 88 -58 124t-164 36zM164 698v-270q46 6 105 6q297 0 297 -219q0 -221 -295 -221q-105 0 -175 19v559l-66 69q66 40 134 57z" />
    <glyph glyph-name="uni0186" unicode="&#x186;" horiz-adv-x="604" 
d="M213 46q130 0 193.5 80.5t63.5 220.5q0 139 -65.5 219.5t-184.5 80.5q-104 0 -173 -38l-18 57q23 15 76 28.5t123 13.5q138 0 226 -96t88 -266q0 -171 -89 -266t-234 -95q-114 0 -190 41l19 58q69 -38 165 -38z" />
    <glyph glyph-name="uni0187" unicode="&#x187;" horiz-adv-x="635" 
d="M395 647q-126 0 -193.5 -82t-67.5 -219q0 -139 65.5 -219.5t184.5 -80.5q109 0 178 38l19 -58q-18 -13 -74 -27t-129 -14q-138 0 -227 96.5t-89 265.5q0 167 93.5 264t226.5 97q77 0 133 -25q25 101 129 101q33 0 55 -9l-11 -48q-19 7 -43 7q-20 0 -33.5 -6t-22 -19
t-12 -22t-9.5 -28l-14 -50q-81 38 -159 38z" />
    <glyph glyph-name="uni0188" unicode="&#x188;" horiz-adv-x="490" 
d="M367 522q20 78 78 95q21 6 48 6q36 0 55 -8l-11 -48q-19 7 -43 7q-22 0 -37 -7.5t-23.5 -25t-12 -27.5t-6.5 -35t-4 -28q-47 19 -112 19q-86 0 -130.5 -55t-44.5 -158q0 -209 187 -209q65 0 112 25l14 -55q-54 -29 -137 -29q-118 0 -181.5 72.5t-63.5 195.5t64.5 197.5
t173.5 74.5q39 0 74 -7z" />
    <glyph glyph-name="uni0189" unicode="&#x189;" horiz-adv-x="716" 
d="M654 347q0 -172 -103.5 -262.5t-277.5 -90.5q-99 0 -169 18v323h-80v55h80v290q69 19 169 19q174 0 277.5 -90.5t103.5 -261.5zM172 335v-275q56 -7 109 -7q147 0 224 78t77 216t-77 215.5t-224 77.5q-53 0 -109 -7v-243h132v-55h-132z" />
    <glyph glyph-name="uni018A" unicode="&#x18a;" horiz-adv-x="784" 
d="M341 699q174 0 277.5 -90.5t103.5 -261.5q0 -172 -103.5 -262.5t-277.5 -90.5q-99 0 -169 18v623q-93 -6 -93 -100q0 -20 3 -32l-56 -8q-6 22 -6 48q0 40 14.5 68t39 45t67 27t88.5 13t112 3zM345 640q-90 0 -105 -2v-578q56 -7 109 -7q147 0 224 78t77 216t-78 215.5
t-227 77.5z" />
    <glyph glyph-name="uni018B" unicode="&#x18b;" horiz-adv-x="612" 
d="M454 366h-43q-60 0 -99 -2.5t-79.5 -11.5t-63 -26t-36.5 -46t-14 -71q0 -157 225 -157q64 0 110 7v307zM359 424h95v210h-344v59h412v-681q-70 -19 -175 -19q-299 0 -299 217q0 113 78.5 163.5t232.5 50.5z" />
    <glyph glyph-name="uni018C" unicode="&#x18c;" horiz-adv-x="583" 
d="M432 486v230h-318v55h383v-755q-84 -28 -188 -28q-115 0 -184.5 72.5t-69.5 197.5q0 120 62.5 195t171.5 75q86 0 143 -42zM432 61v362q-61 46 -137 46q-89 0 -130 -58t-41 -153q0 -100 50.5 -155.5t135.5 -55.5q82 0 122 14z" />
    <glyph glyph-name="uni018D" unicode="&#x18d;" horiz-adv-x="572" 
d="M517 289q0 -79 -47 -144.5t-122 -95.5q57 -32 73 -68q9 -21 9 -48q0 -44 -29.5 -72t-67.5 -37t-84 -9t-86.5 8.5t-56.5 16.5l14 53q36 -23 130 -23q37 0 58 5q57 13 57 57q0 31 -23.5 49t-82.5 45q-9 4 -14 6q-42 21 -69.5 39t-58.5 47.5t-46.5 71t-15.5 94.5
q0 104 57.5 175t173.5 71q60 0 106.5 -21.5t72.5 -57.5t39 -77t13 -85zM293 75q67 29 111 83t44 130q0 48 -14 87t-52 67.5t-96 28.5q-79 0 -120.5 -49t-41.5 -136q0 -28 6.5 -53t14.5 -42.5t24.5 -35t27 -27t33 -22t31.5 -16.5t32 -15z" />
    <glyph glyph-name="uni018E" unicode="&#x18e;" horiz-adv-x="555" 
d="M465 0h-426v59h358v276h-296v58h296v241h-332v59h400v-693z" />
    <glyph glyph-name="uni018F" unicode="&#x18f;" horiz-adv-x="694" 
d="M561 303h-430q0 -116 51 -187t149 -71q56 0 100 23t70.5 61.5t41.5 82.5t18 91zM62 361h499q-4 139 -69.5 212.5t-179.5 73.5q-121 0 -183 -45l-22 58q74 48 207 48q145 0 231.5 -94t86.5 -263q0 -176 -85.5 -271t-218.5 -95q-130 0 -199 87.5t-69 259.5q0 15 2 29z" />
    <glyph glyph-name="uni0190" unicode="&#x190;" horiz-adv-x="552" 
d="M316 649q-75 0 -119 -34q-40 -31 -40 -84q0 -71 56.5 -102.5t134.5 -31.5h59v-58h-46q-111 0 -172.5 -32.5t-61.5 -117.5q0 -119 131 -140q33 -5 65 -5q103 0 178 46l22 -59q-27 -16 -80 -31t-119 -15q-125 0 -197 49t-72 155q0 81 47.5 127.5t121.5 59.5
q-100 21 -129 105q-9 25 -9 52q0 87 62 131t167 44q56 0 106.5 -13.5t79.5 -32.5l-24 -57q-64 44 -161 44z" />
    <glyph glyph-name="uni0191" unicode="&#x191;" horiz-adv-x="520" 
d="M158 331v-214q0 -21 1.5 -61t1.5 -62.5t-2.5 -55t-11 -51.5t-22 -38t-38 -27.5t-58.5 -8.5q-29 0 -54 9l9 54q14 -6 37 -6q50 0 62 42q7 25 7 132v649h395v-59h-327v-244h290v-59h-290z" />
    <glyph glyph-name="florin" unicode="&#x192;" horiz-adv-x="376" 
d="M151 462v-392q0 -63 -3 -99.5t-13 -70.5t-30 -52.5t-54 -27.5q-25 -7 -62 -7q-30 0 -52 10l9 53q18 -6 42 -6q57 0 77.5 31t20.5 101v508v63q0 203 190 203q75 0 103 -18l-13 -56q-34 16 -87 16q-81 0 -104.5 -43t-23.5 -158h208v-55h-208z" />
    <glyph glyph-name="uni0193" unicode="&#x193;" horiz-adv-x="663" 
d="M388 708q80 0 136 -25q13 52 44 76t87 24q36 0 55 -8l-11 -48q-19 7 -43 7q-20 0 -33.5 -6t-22 -19.5t-12 -22.5t-9.5 -28v0l-14 -50q-67 39 -171 39q-118 0 -189 -78t-71 -222q0 -141 65.5 -221t190.5 -80q95 0 132 16v266h68v-309q-75 -33 -211 -33q-140 0 -228.5 96
t-88.5 265q0 168 93.5 264.5t232.5 96.5z" />
    <glyph glyph-name="uni0194" unicode="&#x194;" horiz-adv-x="624" 
d="M312 102q-67 -100 -67 -156q0 -31 17 -51.5t50 -20.5t50 20.5t17 51.5q0 52 -67 156zM348 156l13 -21l26.5 -43.5t29 -51t17 -43.5t9.5 -52q0 -20 -5 -39.5t-17.5 -41t-40.5 -35t-67 -13.5t-67 13.5t-40.5 35t-17.5 41t-5 39.5q0 23 9 50.5t17.5 43.5t29.5 51.5t26 44.5
l10 17q-121 205 -265 541h76q132 -309 227 -481q94 173 229 481h72q-102 -257 -266 -537z" />
    <glyph glyph-name="uni0195" unicode="&#x195;" horiz-adv-x="884" 
d="M475 287v-60q0 -96 32 -137t100 -41q67 0 99.5 41t32.5 137v290h65v-296q0 -110 -44 -171t-153 -61t-153 61t-44 171v45q0 113 -29 157.5t-111 44.5q-31 0 -68.5 -8.5t-50.5 -14.5v-445h-65v764l65 12v-274q67 25 129 25q110 0 152.5 -61.5t42.5 -178.5z" />
    <glyph glyph-name="uni0196" unicode="&#x196;" horiz-adv-x="362" 
d="M88 168v525h68v-528q0 -70 24 -94.5t75 -24.5t78 16l16 -56q-39 -21 -104 -21q-79 0 -118 41t-39 142z" />
    <glyph glyph-name="uni0197" unicode="&#x197;" horiz-adv-x="308" 
d="M188 0h-68v334h-96v54h96v305h68v-305h96v-54h-96v-334z" />
    <glyph glyph-name="uni0198" unicode="&#x198;" horiz-adv-x="650" 
d="M399 640q62 67 128 67q58 0 101 -46l-34 -46q-32 34 -68 34q-38 0 -84 -46q-84 -84 -209 -234q89 -54 200.5 -169.5t155.5 -199.5h-76q-67 103 -165.5 198t-189.5 145v-343h-68v693h68v-329q123 149 191 222z" />
    <glyph glyph-name="uni0199" unicode="&#x199;" horiz-adv-x="495" 
d="M86 0v616q0 80 24.5 120t100.5 40q31 0 53 -8l-9 -53q-13 5 -36 5q-17 0 -28.5 -3.5t-19 -13.5t-12 -19t-6 -30.5t-2 -35.5t-0.5 -47v-13v-274q140 134 226 233h78l-231 -236q61 -41 135.5 -124.5t117.5 -156.5h-77q-46 76 -116 148t-133 112v-260h-65z" />
    <glyph glyph-name="uni019A" unicode="&#x19a;" horiz-adv-x="260" 
d="M235 44l-9 -54q-69 4 -100.5 33t-31.5 100v84v169h-77v53h77v335l65 12v-347h93v-53h-93v-251q0 -45 16 -59.5t60 -21.5z" />
    <glyph glyph-name="uni019B" unicode="&#x19b;" horiz-adv-x="492" 
d="M260 455q-119 -224 -175 -455h-66q25 101 85.5 250.5t128.5 275.5q-8 23 -24 61l-111 -37l-19 53l107 36q-22 48 -43.5 64.5t-60.5 16.5q-22 0 -38 -7q-2 9 -5.5 27t-5.5 27q25 9 62 9q59 0 93 -31.5t58 -85.5l124 42l19 -53l-122 -41q113 -283 204 -607h-68
q-52 208 -143 455z" />
    <glyph glyph-name="uni019C" unicode="&#x19c;" horiz-adv-x="965" 
d="M494 57q-88 -72 -190 -72q-123 0 -170 68.5t-47 200.5v439h68v-409q0 -132 31.5 -185.5t123.5 -53.5q93 0 156 63q-19 54 -19 150v435h68v-422q0 -122 32.5 -174t121.5 -52q40 0 81.5 6.5t56.5 12.5v629h68v-674q-102 -34 -209 -34q-116 0 -172 72z" />
    <glyph glyph-name="uni019D" unicode="&#x19d;" horiz-adv-x="709" 
d="M157 584v-508q0 -16 0.5 -49t0.5 -49t-2 -43t-6.5 -41t-13.5 -32t-22.5 -27t-34.5 -15.5t-48 -6.5q-31 0 -56 9l9 54q14 -6 37 -6q38 0 53.5 22t15.5 71v730h54q100 -112 222.5 -281.5t185.5 -282.5v564h67v-693h-57q-21 38 -40 69q-72 118 -181.5 273.5t-183.5 241.5z
" />
    <glyph glyph-name="uni019E" unicode="&#x19e;" horiz-adv-x="568" 
d="M86 0v499q99 28 198 28q112 0 158.5 -61.5t46.5 -176.5v-474h-65v453q0 110 -33 155t-117 45q-87 0 -123 -14v-454h-65z" />
    <glyph glyph-name="uni019F" unicode="&#x19f;" horiz-adv-x="774" 
d="M712 347q0 -171 -93 -266.5t-232 -95.5t-232 95.5t-93 266.5t93 266t232 95t232 -95t93 -266zM387 46q110 0 178 73.5t74 201.5h-505q6 -128 74.5 -201.5t178.5 -73.5zM387 647q-109 0 -176.5 -71.5t-75.5 -196.5h504q-8 125 -75.5 196.5t-176.5 71.5z" />
    <glyph glyph-name="Ohorn" unicode="&#x1a0;" horiz-adv-x="774" 
d="M712 347q0 -171 -93 -266.5t-232 -95.5t-232 95.5t-93 266.5t93 266t232 95q121 0 204 -70q53 48 53 127q0 23 -3 35h65q2 -16 2 -27q0 -112 -77 -174q81 -95 81 -252zM640 347q0 139 -68.5 219.5t-184.5 80.5t-184.5 -80.5t-68.5 -219.5t68.5 -220t184.5 -81t184.5 81
t68.5 220z" />
    <glyph glyph-name="ohorn" unicode="&#x1a1;" horiz-adv-x="587" 
d="M527 258q0 -121 -66 -195.5t-170 -74.5t-170 74.5t-66 195.5t66 196t170 75q95 0 160 -65q28 28 40 56.5t12 69.5q0 23 -3 35h65q2 -16 2 -27q0 -27 -4 -48q-14 -82 -78 -130q42 -67 42 -162zM458 258q0 97 -45 154.5t-122 57.5t-122 -57.5t-45 -154.5t45 -154t122 -57
t122 57t45 154z" />
    <glyph glyph-name="uni01A2" unicode="&#x1a2;" horiz-adv-x="1002" 
d="M374 708q110 0 193 -68q78 67 164 67q106 0 143.5 -61.5t37.5 -189.5v-456h-68v450q0 107 -24.5 152.5t-95.5 45.5q-58 0 -116 -49q78 -98 78 -252q0 -171 -89.5 -266.5t-222.5 -95.5t-222.5 95.5t-89.5 266.5q0 170 89.5 265.5t222.5 95.5zM374 46q111 0 175.5 81
t64.5 220q0 140 -64.5 220t-175.5 80t-175.5 -80t-64.5 -220q0 -139 64.5 -220t175.5 -81z" />
    <glyph glyph-name="uni01A3" unicode="&#x1a3;" horiz-adv-x="799" 
d="M517 258q0 -121 -64.5 -195.5t-166.5 -74.5t-166.5 74.5t-64.5 195.5t64.5 196t166.5 75q81 0 140 -50q61 49 128 49q98 0 131.5 -55.5t33.5 -169.5v-488h-65v479q0 92 -22 134.5t-82 42.5q-48 0 -85 -33q52 -74 52 -180zM448 258q0 97 -44 154.5t-118 57.5
q-75 0 -118.5 -57.5t-43.5 -154.5t43.5 -154t118.5 -57t118.5 57t43.5 154z" />
    <glyph glyph-name="uni01A4" unicode="&#x1a4;" horiz-adv-x="675" 
d="M341 699q297 0 297 -215q0 -114 -78 -165t-226 -51h-94v-268h-68v635q-93 -6 -93 -100q0 -20 3 -32l-56 -8q-6 22 -6 48q0 40 14.5 68t39 45t67 27t88.5 13t112 3zM345 640q-90 0 -105 -2v-311h86q121 0 181 33.5t60 124.5q0 155 -222 155z" />
    <glyph glyph-name="uni01A5" unicode="&#x1a5;" horiz-adv-x="583" 
d="M151 627v-125q63 25 127 25q112 0 181 -73.5t69 -196.5q0 -120 -62 -194.5t-172 -74.5q-86 0 -143 42v-215h-65v801q0 80 24.5 120t100.5 40q4 0 31 -3q21 -5 22 -5l-9 -53q-13 5 -36 5q-37 0 -52.5 -22t-15.5 -71zM151 445v-352q61 -46 137 -46q90 0 130.5 57.5
t40.5 152.5q0 100 -51 155.5t-136 55.5q-30 0 -69.5 -8.5t-51.5 -14.5z" />
    <glyph glyph-name="uni01A6" unicode="&#x1a6;" horiz-adv-x="618" 
d="M90 776h68v-86q46 6 105 6q289 0 289 -211q0 -143 -149 -188q142 -179 242 -406h-73q-91 196 -238 392q-32 -3 -64 -3h-112v-280h-68v776zM267 637q-63 0 -109 -6v-293h47h48.5t44.5 1.5t44 3.5t37.5 7t35.5 12.5l26.5 18.5t22 25.5t12 34.5t5.5 45q0 151 -214 151z" />
    <glyph glyph-name="uni01A7" unicode="&#x1a7;" horiz-adv-x="517" 
d="M278 44q104 0 183 47l22 -59q-79 -47 -206 -47q-116 0 -178.5 47.5t-62.5 140.5q0 31 6.5 56.5t22.5 46t29.5 34t42.5 29t46 23t54 22.5t52.5 22t41 21.5t36 27t19.5 32.5t9 45q0 60 -41 88.5t-110 28.5q-96 0 -160 -44l-24 57q27 19 78.5 32.5t104.5 13.5q107 0 164 -46
t57 -135q0 -73 -44.5 -115t-140.5 -80q-7 -3 -26 -10.5t-26.5 -11t-24 -10.5t-23.5 -11.5l-19.5 -13t-18 -15.5l-14 -17.5t-12 -21t-6 -24t-2.5 -28.5q0 -125 171 -125z" />
    <glyph glyph-name="uni01A8" unicode="&#x1a8;" horiz-adv-x="428" 
d="M236 46q36 0 68 6.5t46.5 12.5t20.5 11l17 -59q-58 -29 -153 -29q-195 0 -195 142q0 24 5 43t19 34.5t24 25.5t34 22t35 16.5l40 16.5q36 15 52 22.5t34 20.5t24.5 27.5t6.5 35.5q0 39 -31 58.5t-78 19.5q-72 0 -124 -26l-15 58q53 25 139 25q83 0 129 -37.5t46 -103.5
q0 -25 -8.5 -46.5t-19.5 -34.5t-34 -27t-38 -21l-45 -20q-80 -33 -104.5 -52t-24.5 -60q0 -81 130 -81z" />
    <glyph glyph-name="uni01A9" unicode="&#x1a9;" horiz-adv-x="552" 
d="M356 364l-82 -97.5l-93 -111.5t-71 -96h401v-59h-473v58q34 56 130 172l54 66l54 67l-83 101.5l-88.5 108t-53.5 72.5v48h458v-59h-369q13 -21 48 -64l85 -103.5z" />
    <glyph glyph-name="uni01AA" unicode="&#x1aa;" horiz-adv-x="299" 
d="M148 -54v600q-37 -37 -88 -37q-56 0 -90 37.5t-34 95.5q0 62 37.5 98t95.5 36q30 0 53.5 -7t38.5 -19t26 -29t15.5 -37t7.5 -42t3 -45.5v-46.5v-23v-579q0 -45 16 -59.5t60 -21.5q-6 -27 -9 -54q-69 4 -100.5 33t-31.5 100zM70 564q25 0 41 11t37 36v22q0 44 -21 65.5
t-58 21.5q-36 0 -54 -21.5t-18 -56.5q0 -34 18.5 -56t54.5 -22z" />
    <glyph glyph-name="uni01AB" unicode="&#x1ab;" horiz-adv-x="387" 
d="M254 49q70 0 108 14q6 -32 6 -89q0 -80 -24.5 -120t-100.5 -40q-31 0 -53 8l9 53q13 -5 36 -5q39 0 55 22t16 71q0 22 -2 36q-30 -6 -63 -6q-98 0 -128.5 55.5t-30.5 192.5v428l65 12v-164h206v-55h-206v-275q0 -81 26 -109.5t81 -28.5z" />
    <glyph glyph-name="uni01AC" unicode="&#x1ac;" horiz-adv-x="563" 
d="M255 634h-78q-98 0 -98 -99q0 -20 3 -32l-56 -8q-6 22 -6 48q0 32 7.5 56.5t21 40t32.5 26.5t42.5 16t50 8t55.5 3h59h32h225v-59h-222v-634h-68v634z" />
    <glyph glyph-name="uni01AD" unicode="&#x1ad;" horiz-adv-x="387" 
d="M147 517h208v-55h-208v-275q0 -106 50 -129q23 -10 57 -10q58 0 105 27l16 -54q-51 -32 -125 -32q-94 0 -131 48.5t-37 155.5v380q0 203 190 203q75 0 103 -18l-13 -56q-34 16 -87 16q-81 0 -104.5 -43t-23.5 -158z" />
    <glyph glyph-name="uni01AE" unicode="&#x1ae;" horiz-adv-x="548" 
d="M308 634v-671q0 -49 15.5 -71t53.5 -22q23 0 37 6l9 -54q-25 -9 -54 -9q-40 0 -66.5 11.5t-39.5 35t-18 50t-5 64.5v660h-222v59h512v-59h-222z" />
    <glyph glyph-name="Uhorn" unicode="&#x1af;" horiz-adv-x="693" 
d="M525 693h64q27 0 45.5 17t18.5 56q0 23 -3 35h65q2 -16 2 -27q0 -54 -29 -93t-95 -42v-382q0 -123 -61 -197.5t-192 -74.5t-192 74.5t-61 197.5v436h68v-427q0 -111 49 -165.5t136 -54.5t136 54.5t49 165.5v427z" />
    <glyph glyph-name="uhorn" unicode="&#x1b0;" horiz-adv-x="584" 
d="M483 463v-445q-99 -28 -198 -28q-110 0 -157.5 61.5t-47.5 175.5v290h65v-269q0 -110 34 -154.5t116 -44.5q89 0 123 14v454h61q27 0 45.5 17t18.5 56q0 23 -3 35h65q2 -16 2 -27q0 -54 -29 -93t-95 -42z" />
    <glyph glyph-name="uni01B1" unicode="&#x1b1;" horiz-adv-x="780" 
d="M390 -15q-136 0 -227 89.5t-91 251.5q0 102 41.5 181t97.5 128h-155v58h254v-44q-166 -125 -166 -325q0 -128 67.5 -203t178.5 -75t178.5 75t67.5 203q0 200 -166 325v44h254v-58h-155q139 -125 139 -309q0 -162 -91 -251.5t-227 -89.5z" />
    <glyph glyph-name="uni01B2" unicode="&#x1b2;" horiz-adv-x="681" 
d="M606 362q0 -377 -276 -377q-127 0 -185 73t-58 193v442h68v-432q0 -107 46.5 -161t122.5 -54q105 0 159 72.5t54 232.5q0 147 -37.5 216.5t-116.5 69.5q-13 0 -34 -3l-6 54q18 6 55 6q208 0 208 -332z" />
    <glyph glyph-name="uni01B3" unicode="&#x1b3;" horiz-adv-x="654" 
d="M286 343q30 60 96 179l24 45.5l24.5 45.5t21.5 35t25.5 31t25.5 16q21 8 48 8q62 0 107 -50l-34 -45q-32 36 -69 36q-21 0 -32 -8t-27 -34q-108 -179 -177 -315v-57v-230h-68v285q-146 224 -241 408h79q82 -173 197 -350z" />
    <glyph glyph-name="uni01B4" unicode="&#x1b4;" horiz-adv-x="553" 
d="M419 398q-47 -201 -109 -361q-42 -108 -78 -156.5t-97 -62.5q-29 -6 -63 -6q-45 0 -71 15l13 53q5 -4 24 -9.5t37 -5.5q57 0 91.5 27.5t61.5 95.5q-145 268 -208 529h69q50 -221 170 -461q42 125 85 293q3 11 9 36.5t9 35.5t9.5 29.5t11.5 27t14.5 20t20.5 17t26 8.5
t34 4q31 0 72 -15l-15 -52q-20 11 -48 11q-31 0 -44.5 -16t-23.5 -57z" />
    <glyph glyph-name="uni01B5" unicode="&#x1b5;" horiz-adv-x="560" 
d="M510 693v-62q-66 -74 -184 -239h160v-55h-199q-112 -161 -175 -278h408v-59h-482v51q59 115 174 286h-127v55h165q115 164 186 242h-379v59h453z" />
    <glyph glyph-name="uni01B6" unicode="&#x1b6;" horiz-adv-x="455" 
d="M407 517v-53q-49 -53 -131 -163h126v-53h-165q-71 -97 -124 -193h303v-55h-378v47q37 71 127 201h-98v53h136q74 100 125 161h-275v55h354z" />
    <glyph glyph-name="uni01B7" unicode="&#x1b7;" horiz-adv-x="545" 
d="M496 189q0 -106 -72 -155t-197 -49q-119 0 -199 46l22 59q75 -46 178 -46q196 0 196 145q0 85 -62 118.5t-170 33.5h-7v21v22q26 26 61 65.5l55.5 64.5l57.5 71t40 49h-341v59h424v-41q-60 -89 -218 -262q44 -3 82.5 -15t73.5 -34t55.5 -61t20.5 -91z" />
    <glyph glyph-name="uni01B8" unicode="&#x1b8;" horiz-adv-x="546" 
d="M49 189q0 52 20.5 91t55.5 61t73.5 34t82.5 15q-150 165 -217 262v41h423v-59h-338q108 -144 214 -250v-43h-10q-108 0 -170 -33.5t-62 -118.5q0 -145 196 -145q99 0 178 47l23 -58q-86 -48 -200 -48q-125 0 -197 49t-72 155z" />
    <glyph glyph-name="uni01B9" unicode="&#x1b9;" horiz-adv-x="459" 
d="M332 216v-49h-25q-198 0 -198 -143q0 -73 46 -111.5t136 -38.5q93 0 149 29l17 -56q-58 -32 -166 -32q-117 0 -183.5 53.5t-66.5 155.5q0 98 62 144t157 50q-49 54 -106 131.5t-89 130.5v37h371v-55h-293q78 -122 189 -246z" />
    <glyph glyph-name="uni01BA" unicode="&#x1ba;" horiz-adv-x="452" 
d="M209 277q105 -13 152.5 -47t47.5 -102q0 -90 -80 -131q-32 -16 -130 -42q-83 -23 -103 -38q-23 -16 -23 -44q0 -30 11 -48l-55 -12q-16 25 -16 62q0 48 34 77.5t82 42l96 24.5t82 38.5t34 70.5q0 52 -48 75.5t-153 28.5v50q103 88 176 180h-291v55h365v-45
q-78 -106 -181 -195z" />
    <glyph glyph-name="uni01BB" unicode="&#x1bb;" horiz-adv-x="525" 
d="M440 523q0 -78 -78 -171h95v-54h-148q-57 -53 -87 -83.5t-59.5 -75.5t-29.5 -80h326v-59h-400l-1 8v16q0 78 44 141t122 133h-130v54h187q87 87 87 168q0 65 -36.5 97t-98.5 32q-89 0 -155 -66l-34 46q21 24 72.5 51.5t115.5 27.5q100 0 154 -48.5t54 -136.5z" />
    <glyph glyph-name="uni01BC" unicode="&#x1bc;" horiz-adv-x="539" 
d="M468 634h-274q-11 -180 -17 -215q167 -10 243 -66.5t76 -159.5q0 -96 -64.5 -152t-199.5 -56q-56 0 -110 13.5t-71 25.5l17 58q67 -37 162 -37q72 0 114 19q80 34 80 128q0 84 -73.5 126t-240.5 42q19 164 23 274h-98v59h433v-59z" />
    <glyph glyph-name="uni01BD" unicode="&#x1bd;" horiz-adv-x="490" 
d="M445 146q0 -72 -55.5 -115t-166.5 -43q-50 0 -100.5 9.5t-71.5 21.5l17 58q59 -31 154 -31q38 0 66 6q89 20 89 95q0 66 -50.5 90.5t-179.5 24.5h-46l11 103q3 37 7 97h-81v55h384v-55h-245q-11 -128 -13 -146q141 0 211 -37t70 -133z" />
    <glyph glyph-name="uni01BE" unicode="&#x1be;" horiz-adv-x="449" 
d="M349 462h-206v-50q0 -44 27.5 -72.5t66.5 -44.5l78 -33t66.5 -49.5t27.5 -82.5q0 -69 -52.5 -105.5t-148.5 -36.5q-99 0 -157 29l17 59q6 -4 20.5 -10t48 -13t71.5 -7t70 8q64 18 64 73q0 39 -27.5 60.5t-107.5 54.5l-43 19t-33.5 21t-29 30t-16 41t-7.5 60v256l65 12
v-164h206v-55z" />
    <glyph glyph-name="uni01BF" unicode="&#x1bf;" horiz-adv-x="566" 
d="M274 527q114 0 175.5 -60t61.5 -171q0 -61 -20.5 -111.5t-52.5 -85.5t-81 -65t-96.5 -48.5t-109.5 -36.5v-134h-65v671q84 41 188 41zM273 468q-67 0 -122 -23v-434q46 14 77.5 26t75.5 36.5t71 52.5t47 73t20 99q0 39 -11 72q-34 98 -158 98z" />
    <glyph glyph-name="uni01C0" unicode="&#x1c0;" horiz-adv-x="262" 
d="M100 -185v968h62v-968h-62z" />
    <glyph glyph-name="uni01C1" unicode="&#x1c1;" horiz-adv-x="446" 
d="M100 -185v968h62v-968h-62zM284 -185v968h62v-968h-62z" />
    <glyph glyph-name="uni01C2" unicode="&#x1c2;" 
d="M253 425v358h62v-358h204v-57h-204v-132h204v-57h-204v-364h-62v364h-203v57h203v132h-203v57h203z" />
    <glyph glyph-name="uni01C3" unicode="&#x1c3;" horiz-adv-x="274" 
d="M132 722l-3 -247q-1 -111 -13 -275h-35q-12 139 -13 275l-3 247q16 8 32 8q19 0 35 -8zM147 41q0 -21 -13.5 -34.5t-34.5 -13.5t-35 13.5t-14 34.5t14 35t35 14t34.5 -14t13.5 -35z" />
    <glyph glyph-name="uni01C4" unicode="&#x1c4;" horiz-adv-x="1262" 
d="M640 347q0 -172 -103.5 -262.5t-277.5 -90.5q-99 0 -169 18v668q69 19 169 19q174 0 277.5 -90.5t103.5 -261.5zM158 633v-573q56 -7 109 -7q147 0 224 78t77 216t-77 215.5t-224 77.5q-53 0 -109 -7zM1212 693v-62q-80 -94 -202.5 -267.5t-195.5 -304.5h408v-59h-482v51
q65 126 189.5 307.5t208.5 275.5h-379v59h453zM885 921l104 -96l104 96l28 -31l-132 -147l-132 147z" />
    <glyph glyph-name="uni01C5" unicode="&#x1c5;" horiz-adv-x="1157" 
d="M640 347q0 -172 -103.5 -262.5t-277.5 -90.5q-99 0 -169 18v668q69 19 169 19q174 0 277.5 -90.5t103.5 -261.5zM158 633v-573q56 -7 109 -7q147 0 224 78t77 216t-77 215.5t-224 77.5q-53 0 -109 -7zM1109 517v-53l-46 -55q-58 -69 -129 -169.5t-119 -184.5h303v-55
h-378v47q47 89 136 214t154 201h-275v55h354zM823 765l104 -96l104 96l28 -31l-132 -147l-132 147z" />
    <glyph glyph-name="uni01C6" unicode="&#x1c6;" horiz-adv-x="1038" 
d="M497 776v-760q-84 -28 -188 -28q-115 0 -184.5 72.5t-69.5 197.5q0 120 62.5 195t171.5 75q86 0 143 -42v278zM432 61v362q-61 46 -137 46q-89 0 -130 -58t-41 -153q0 -100 50.5 -155.5t135.5 -55.5q82 0 122 14zM990 517v-53q-62 -72 -150.5 -191.5t-143.5 -217.5h303
v-55h-378v47q47 89 136 214t154 201h-275v55h354zM704 765l104 -96l104 96l28 -31l-132 -147l-132 147z" />
    <glyph glyph-name="uni01C7" unicode="&#x1c7;" horiz-adv-x="1017" 
d="M158 59h326v-59h-394v693h68v-634zM930 693v-475q0 -109 -48 -171t-163 -62q-64 0 -112.5 19.5t-68.5 39.5l32 55q60 -53 142 -53q79 0 114.5 41t35.5 138v468h68z" />
    <glyph glyph-name="uni01C8" unicode="&#x1c8;" horiz-adv-x="739" 
d="M158 59h326v-59h-394v693h68v-634zM491 -187q-30 0 -52 10l9 53q18 -6 42 -6q57 0 77.5 31t20.5 101v515h65v-512q0 -100 -37.5 -146t-124.5 -46zM668 673q0 -23 -13.5 -36.5t-34.5 -13.5t-34.5 13.5t-13.5 36.5t13.5 36.5t34.5 13.5t34.5 -13.5t13.5 -36.5z" />
    <glyph glyph-name="uni01C9" unicode="&#x1c9;" horiz-adv-x="492" 
d="M226 45l-9 -54q-68 2 -100 32.5t-32 100.5v91v549l65 12v-464v-186q0 -45 16 -59.5t60 -21.5zM244 -187q-30 0 -52 10l9 53q18 -6 42 -6q57 0 77.5 31t20.5 101v515h65v-512q0 -100 -37.5 -146t-124.5 -46zM421 673q0 -23 -13.5 -36.5t-34.5 -13.5t-34.5 13.5t-13.5 36.5
t13.5 36.5t34.5 13.5t34.5 -13.5t13.5 -36.5z" />
    <glyph glyph-name="uni01CA" unicode="&#x1ca;" horiz-adv-x="1196" 
d="M619 0h-29h-28q-59 107 -188.5 294.5t-216.5 289.5v-292v-292h-67v693h54q80 -90 177 -219.5t170 -243.5q30 -46 61 -101v282v282h67v-693zM1109 693v-475q0 -109 -48 -171t-163 -62q-64 0 -112.5 19.5t-68.5 39.5l32 55q60 -53 142 -53q79 0 114.5 41t35.5 138v468h68z
" />
    <glyph glyph-name="uni01CB" unicode="&#x1cb;" horiz-adv-x="946" 
d="M619 0h-29h-28q-59 107 -188.5 294.5t-216.5 289.5v-292v-292h-67v693h54q80 -90 177 -219.5t170 -243.5q30 -46 61 -101v282v282h67v-693zM698 -187q-30 0 -52 10l9 53q18 -6 42 -6q57 0 77.5 31t20.5 101v515h65v-512q0 -100 -37.5 -146t-124.5 -46zM875 673
q0 -23 -13.5 -36.5t-34.5 -13.5t-34.5 13.5t-13.5 36.5t13.5 36.5t34.5 13.5t34.5 -13.5t13.5 -36.5z" />
    <glyph glyph-name="uni01CC" unicode="&#x1cc;" horiz-adv-x="806" 
d="M86 0v499q99 28 198 28q112 0 158.5 -61.5t46.5 -176.5v-289h-65v268q0 111 -32.5 155.5t-117.5 44.5q-87 0 -123 -14v-454h-65zM558 -187q-30 0 -52 10l9 53q18 -6 42 -6q57 0 77.5 31t20.5 101v515h65v-512q0 -100 -37.5 -146t-124.5 -46zM735 673q0 -23 -13.5 -36.5
t-34.5 -13.5t-34.5 13.5t-13.5 36.5t13.5 36.5t34.5 13.5t34.5 -13.5t13.5 -36.5z" />
    <glyph glyph-name="uni01CD" unicode="&#x1cd;" horiz-adv-x="237" 
d="M151 517v-517h-65v517h65zM14 765l104 -96l104 96l28 -31l-132 -147l-132 147z" />
    <glyph glyph-name="uni01CE" unicode="&#x1ce;" horiz-adv-x="509" 
d="M415 20q-62 -30 -177 -30q-91 0 -140.5 40t-49.5 117q0 158 219 177q18 2 90 -2q0 87 -26 127.5t-102 40.5q-74 0 -125 -28l-12 46q55 31 142 31q86 0 133.5 -45.5t47.5 -132.5v-57v-284zM357 50v227q-50 4 -94 1q-73 -10 -114 -38.5t-41 -92.5q0 -112 139 -112
q65 0 110 15zM146 780l104 -96l104 96l28 -31l-132 -147l-132 147z" />
    <glyph glyph-name="uni01CF" unicode="&#x1cf;" horiz-adv-x="248" 
d="M151 0h-63v690h63v-690zM14 935l104 -96l104 96l28 -31l-132 -147l-132 147z" />
    <glyph glyph-name="uni01D0" unicode="&#x1d0;" horiz-adv-x="237" 
d="M151 517v-517h-65v517h65zM14 765l104 -96l104 96l28 -31l-132 -147l-132 147z" />
    <glyph glyph-name="uni01D1" unicode="&#x1d1;" horiz-adv-x="684" 
d="M624 345q0 -164 -76 -260.5t-206 -96.5t-206 96.5t-76 260.5q0 163 76 260.5t206 97.5t206 -97.5t76 -260.5zM559 346q0 135 -55 221t-162 86t-162 -86t-55 -221t54.5 -221t162.5 -86q109 0 163 86t54 221zM238 935l104 -96l104 96l28 -31l-132 -147l-132 147z" />
    <glyph glyph-name="uni01D2" unicode="&#x1d2;" horiz-adv-x="582" 
d="M488 263q0 -123 -57 -198.5t-159 -75.5q-103 0 -160 75.5t-57 198.5q0 124 57 200t159 76q103 0 160 -76t57 -200zM426 263q0 99 -38 164t-116 65q-79 0 -117.5 -65t-38.5 -164t38.5 -162t117.5 -63t116.5 63t37.5 162zM168 765l104 -96l104 96l28 -31l-132 -147
l-132 147z" />
    <glyph glyph-name="uni01D3" unicode="&#x1d3;" horiz-adv-x="680" 
d="M540 225q0 -105 -58 -171.5t-170 -66.5q-99 0 -156.5 54t-66.5 140q-4 40 -4 93v416h62v-411q0 -118 39 -178.5t128 -60.5q62 0 106.5 37t53.5 103q6 44 6 99v411h60v-465zM214 935l104 -96l104 96l28 -31l-132 -147l-132 147z" />
    <glyph glyph-name="uni01D4" unicode="&#x1d4;" 
d="M453 25q-84 -35 -185 -35q-59 0 -98 17.5t-58.5 52t-26.5 74t-7 96.5v298h60v-286q0 -106 27.5 -154.5t110.5 -48.5q81 0 117 20v469h60v-503zM172 765l104 -96l104 96l28 -31l-132 -147l-132 147z" />
    <glyph glyph-name="uni01D5" unicode="&#x1d5;" horiz-adv-x="680" 
d="M340 -15q-131 0 -192 74t-61 198v436h68v-427q0 -110 49.5 -165t135.5 -55t135.5 55t49.5 165v427h68v-436q0 -123 -61 -197.5t-192 -74.5zM215 899v54h251v-54h-251zM287 798q0 -22 -13 -35t-33 -13t-33 13t-13 35q0 21 12.5 34.5t33.5 13.5q20 0 33 -13t13 -35z
M486 798q0 -22 -13 -35t-33 -13t-33 13t-13 35q0 21 12.5 34.5t33.5 13.5q20 0 33 -13t13 -35z" />
    <glyph glyph-name="uni01D6" unicode="&#x1d6;" 
d="M453 25q-84 -35 -185 -35q-59 0 -98 17.5t-58.5 52t-26.5 74t-7 96.5v298h60v-286q0 -106 27.5 -154.5t110.5 -48.5q81 0 117 20v469h60v-503zM133 731v54h251v-54h-251zM205 630q0 -22 -13 -35t-33 -13t-33 13t-13 35q0 21 12.5 34.5t33.5 13.5q20 0 33 -13t13 -35z
M404 630q0 -22 -13 -35t-33 -13t-33 13t-13 35q0 21 12.5 34.5t33.5 13.5q20 0 33 -13t13 -35z" />
    <glyph glyph-name="uni01D7" unicode="&#x1d7;" horiz-adv-x="680" 
d="M540 225q0 -105 -58 -171.5t-170 -66.5q-99 0 -156.5 54t-66.5 140q-4 40 -4 93v416h62v-411q0 -118 39 -178.5t128 -60.5q62 0 106.5 37t53.5 103q6 44 6 99v411h60v-465zM268 785l112 173l57 -39l-129 -163zM247 804q0 -22 -13 -35t-33 -13t-33 13t-13 35t13 35t33 13
t33 -13t13 -35zM493 804q0 -22 -13 -35t-33 -13t-33 13t-13 35t13 35t33 13t33 -13t13 -35z" />
    <glyph glyph-name="uni01D8" unicode="&#x1d8;" horiz-adv-x="478" 
d="M425 25q-84 -35 -185 -35q-59 0 -98 17.5t-58.5 52t-26.5 74t-7 96.5v298h60v-286q0 -106 27.5 -154.5t110.5 -48.5q81 0 117 20v469h60v-503zM173 599l112 173l57 -39l-129 -163zM152 618q0 -22 -13 -35t-33 -13t-33 13t-13 35t13 35t33 13t33 -13t13 -35zM398 618
q0 -22 -13 -35t-33 -13t-33 13t-13 35t13 35t33 13t33 -13t13 -35z" />
    <glyph glyph-name="uni01D9" unicode="&#x1d9;" horiz-adv-x="555" 
d="M505 225q0 -105 -58 -171.5t-170 -66.5q-99 0 -156.5 54t-66.5 140q-4 40 -4 93v416h62v-411q0 -118 39 -178.5t128 -60.5q62 0 106.5 37t53.5 103q6 44 6 99v411h60v-465zM172 977l104 -96l104 96l28 -31l-132 -147l-132 147zM232 794q0 -22 -13 -35t-33 -13t-33 13
t-13 35t13 35t33 13t33 -13t13 -35zM404 794q0 -22 -13 -35t-33 -13t-33 13t-13 35t13 35t33 13t33 -13t13 -35z" />
    <glyph glyph-name="uni01DA" unicode="&#x1da;" 
d="M425 25q-84 -35 -185 -35q-59 0 -98 17.5t-58.5 52t-26.5 74t-7 96.5v298h60v-286q0 -106 27.5 -154.5t110.5 -48.5q81 0 117 20v469h60v-503zM132 856l104 -96l104 96l28 -31l-132 -147l-132 147zM192 673q0 -22 -13 -35t-33 -13t-33 13t-13 35t13 35t33 13t33 -13
t13 -35zM364 673q0 -22 -13 -35t-33 -13t-33 13t-13 35t13 35t33 13t33 -13t13 -35z" />
    <glyph glyph-name="uni01DB" unicode="&#x1db;" horiz-adv-x="680" 
d="M540 225q0 -105 -58 -171.5t-170 -66.5q-99 0 -156.5 54t-66.5 140q-4 40 -4 93v416h62v-411q0 -118 39 -178.5t128 -60.5q62 0 106.5 37t53.5 103q6 44 6 99v411h60v-465zM256 780q0 -21 -13.5 -34.5t-34.5 -13.5q-22 0 -35.5 14t-13.5 34q0 21 14 35t35 14t34.5 -14
t13.5 -35zM465 780q0 -21 -13.5 -34.5t-34.5 -13.5t-35 14t-14 34q0 21 14 35t35 14t34.5 -14t13.5 -35zM236 984l112 -173l-40 -29l-129 163z" />
    <glyph glyph-name="uni01DC" unicode="&#x1dc;" horiz-adv-x="475" 
d="M425 25q-84 -35 -185 -35q-59 0 -98 17.5t-58.5 52t-26.5 74t-7 96.5v298h60v-286q0 -106 27.5 -154.5t110.5 -48.5q81 0 117 20v469h60v-503zM177 642q0 -21 -13.5 -34.5t-34.5 -13.5t-35 14t-14 34q0 21 14 35t35 14t34.5 -14t13.5 -35zM386 642q0 -21 -13.5 -34.5
t-34.5 -13.5q-22 0 -35.5 14t-13.5 34q0 21 14 35t35 14t34.5 -14t13.5 -35zM157 846l112 -173l-40 -29l-129 163z" />
    <glyph glyph-name="uni01DD" unicode="&#x1dd;" horiz-adv-x="548" 
d="M493 259q0 -128 -66.5 -199t-159.5 -71q-98 0 -153 63.5t-55 189.5q0 21 2 31h363q-5 158 -119 189q-32 8 -68 8q-72 0 -129 -27l-12 56q52 30 143 30q130 0 192 -72.5t62 -197.5zM422 218h-296q2 -82 38 -126.5t102 -44.5q67 0 109.5 50t46.5 121z" />
    <glyph glyph-name="uni01DE" unicode="&#x1de;" horiz-adv-x="641" 
d="M588 0h-34h-33l-49 143l-24 69h-294q-42 -112 -74 -212h-62q172 478 259 690h52q56 -136 259 -690zM432 260l-98 273q-8 22 -18 52.5t-14 38.5q-4 -6 -14 -35q-20 -59 -61.5 -172t-56.5 -157h262zM175 899v54h251v-54h-251zM247 798q0 -22 -13 -35t-33 -13t-33 13t-13 35
q0 21 12.5 34.5t33.5 13.5q20 0 33 -13t13 -35zM446 798q0 -22 -13 -35t-33 -13t-33 13t-13 35q0 21 12.5 34.5t33.5 13.5q20 0 33 -13.5t13 -34.5z" />
    <glyph glyph-name="uni01DF" unicode="&#x1df;" horiz-adv-x="509" 
d="M415 20q-62 -30 -177 -30q-91 0 -140.5 40t-49.5 117q0 158 219 177q18 2 90 -2q0 87 -26 127.5t-102 40.5q-74 0 -125 -28l-12 46q55 31 142 31q86 0 133.5 -45.5t47.5 -132.5v-57v-284zM357 50v227q-50 4 -94 1q-73 -10 -114 -38.5t-41 -92.5q0 -112 139 -112
q65 0 110 15zM113 731v54h251v-54h-251zM185 630q0 -22 -13 -35t-33 -13t-33 13t-13 35q0 21 12.5 34.5t33.5 13.5q20 0 33 -13t13 -35zM384 630q0 -22 -13 -35t-33 -13t-33 13t-13 35q0 21 12.5 34.5t33.5 13.5q20 0 33 -13.5t13 -34.5z" />
    <glyph glyph-name="uni01E0" unicode="&#x1e0;" horiz-adv-x="641" 
d="M588 0h-34h-33l-49 143l-24 69h-294q-42 -112 -74 -212h-62q172 478 259 690h52q56 -136 259 -690zM432 260l-98 273q-8 22 -18 52.5t-14 38.5q-4 -6 -14 -35q-20 -59 -61.5 -172t-56.5 -157h262zM178 898v54h251v-54h-251zM350 797q0 -22 -13 -35t-33 -13t-33 13t-13 35
t13 35t33 13t33 -13t13 -35z" />
    <glyph glyph-name="uni01E1" unicode="&#x1e1;" horiz-adv-x="509" 
d="M415 20q-62 -30 -177 -30q-91 0 -140.5 40t-49.5 117q0 158 219 177q18 2 90 -2q0 87 -26 127.5t-102 40.5q-74 0 -125 -28l-12 46q55 31 142 31q86 0 133.5 -45.5t47.5 -132.5v-57v-284zM357 50v227q-50 4 -94 1q-73 -10 -114 -38.5t-41 -92.5q0 -112 139 -112
q65 0 110 15zM102 743v54h251v-54h-251zM274 642q0 -22 -13 -35t-33 -13t-33 13t-13 35t13 35t33 13t33 -13t13 -35z" />
    <glyph glyph-name="uni01E2" unicode="&#x1e2;" horiz-adv-x="915" 
d="M876 0h-412v190h-287q-70 -128 -101 -190h-70q176 350 427 693h417v-59h-318v-241h282v-58h-282v-276h344v-59zM464 248v389q-128 -177 -194 -288l-60 -101h254zM694 805h-265v55h265v-55z" />
    <glyph glyph-name="uni01E3" unicode="&#x1e3;" horiz-adv-x="854" 
d="M432 300h296q-2 82 -38 126.5t-102 44.5q-67 0 -109.5 -50t-46.5 -121zM252 -11q-93 0 -148.5 39.5t-55.5 122.5q0 81 58.5 120t158.5 39q26 0 58 -5.5t41 -9.5v31t-1.5 29.5t-4.5 30.5t-8.5 26t-15 24.5t-22 17.5t-31 13t-41.5 4q-78 0 -127 -20l-8 56q46 22 138 22
q131 0 169 -98q49 73 126 92q24 6 49 6q98 0 153 -63.5t55 -189.5q0 -13 -2 -31h-363q6 -197 187 -197q72 0 129 27l12 -56q-52 -30 -143 -30q-29 0 -54 3q-76 11 -124 57q-73 -60 -185 -60zM365 238q-34 16 -102 16q-148 0 -148 -103q0 -104 137 -104q97 0 148 46
q-34 56 -35 145zM550 649h-265v55h265v-55z" />
    <glyph glyph-name="uni01E4" unicode="&#x1e4;" horiz-adv-x="690" 
d="M522 62v144h-116v54h116v93h68v-93h80v-54h-80v-187q-75 -33 -211 -33q-140 0 -228.5 96t-88.5 265q0 168 93.5 264.5t232.5 96.5q126 0 200 -48l-23 -58q-62 45 -180 45q-110 0 -180.5 -78.5t-70.5 -221.5q0 -141 66 -221t190 -80q95 0 132 16z" />
    <glyph glyph-name="uni01E5" unicode="&#x1e5;" horiz-adv-x="587" 
d="M423 26v34q-16 -14 -53 -27.5t-85 -13.5q-99 0 -164.5 62t-65.5 189q0 113 66.5 185t178.5 72q101 0 187 -28v-199h83v-53h-83v-165v-55q0 -114 -59 -164.5t-182 -50.5q-85 0 -160 25l13 59q58 -27 149 -27q93 0 134 36t41 121zM422 121v126h-123v53h123v154
q-46 14 -121 14q-82 0 -129.5 -55t-47.5 -144q0 -96 47 -143.5t114 -47.5q87 0 137 43z" />
    <glyph glyph-name="Gcaron" unicode="&#x1e6;" horiz-adv-x="658" 
d="M545 23q-64 -35 -188 -35q-126 0 -211.5 93.5t-85.5 266.5q0 169 87.5 262t213.5 93q110 0 175 -41l-20 -47q-56 37 -154 37q-108 0 -172 -79.5t-64 -229.5q0 -143 64.5 -224.5t173.5 -81.5q82 0 118 18v244h-67v53h130v-329zM244 935l104 -96l104 96l28 -31l-132 -147
l-132 147z" />
    <glyph glyph-name="gcaron" unicode="&#x1e7;" horiz-adv-x="573" 
d="M457 6q0 -212 -216 -212q-91 0 -155 30q5 16 17 48q56 -29 135 -29q84 0 123 41q38 39 38 117v38q-49 -34 -126 -34q-97 0 -157.5 67.5t-60.5 192.5q0 122 63 197.5t174 75.5q97 0 165 -32v-500zM399 87v388q-37 16 -106 16q-85 0 -131 -61.5t-46 -164.5
q0 -104 44 -158.5t120 -54.5q71 0 119 35zM188 765l104 -96l104 96l28 -31l-132 -147l-132 147z" />
    <glyph glyph-name="uni01E8" unicode="&#x1e8;" horiz-adv-x="599" 
d="M525 0h-36h-35q-137 202 -304 353v-353h-62v690h62v-323q213 231 287 323h71l-293 -324q80 -75 167.5 -177.5t142.5 -188.5zM169 925l104 -96l104 96l28 -31l-132 -147l-132 147z" />
    <glyph glyph-name="uni01E9" unicode="&#x1e9;" horiz-adv-x="495" 
d="M453 0h-70q-102 146 -240 270v-270h-59v780h59v-497q117 123 220 245h69l-227 -247q136 -124 248 -281zM219 765l104 -96l104 96l28 -31l-132 -147l-132 147z" />
    <glyph glyph-name="uni01EA" unicode="&#x1ea;" horiz-adv-x="774" 
d="M640 347q0 139 -68.5 219.5t-184.5 80.5t-184.5 -80.5t-68.5 -219.5t68.5 -220t184.5 -81t184.5 81t68.5 220zM387 -15q-139 0 -232 95.5t-93 266.5t93 266t232 95t232 -95t93 -266q0 -122 -49 -207t-132 -124q-43 -21 -79 -53.5t-36 -63.5q0 -34 42 -34q22 0 38 6l5 -48
q-25 -9 -54 -9q-98 0 -98 70q0 50 59 102q-8 -1 -21 -1z" />
    <glyph glyph-name="uni01EB" unicode="&#x1eb;" horiz-adv-x="582" 
d="M409 19q-23 -14 -37.5 -24t-34.5 -26.5t-30.5 -34t-10.5 -35.5q0 -34 42 -34q22 0 38 6l5 -48q-25 -9 -54 -9q-98 0 -98 70q0 19 8 38q12 30 54 66q-104 0 -170 74.5t-66 195.5t66 196t170 75t170 -75t66 -196q0 -82 -31.5 -144t-86.5 -95zM458 258q0 97 -45 154.5
t-122 57.5t-122 -57.5t-45 -154.5t45 -154t122 -57t122 57t45 154z" />
    <glyph glyph-name="uni01EC" unicode="&#x1ec;" horiz-adv-x="774" 
d="M640 347q0 139 -68.5 219.5t-184.5 80.5t-184.5 -80.5t-68.5 -219.5t68.5 -220t184.5 -81t184.5 81t68.5 220zM387 -15q-139 0 -232 95.5t-93 266.5t93 266t232 95t232 -95t93 -266q0 -122 -49 -207t-132 -124q-43 -21 -79 -53.5t-36 -63.5q0 -34 42 -34q22 0 38 6l5 -48
q-25 -9 -54 -9q-98 0 -98 70q0 50 59 102q-8 -1 -21 -1zM520 805h-265v55h265v-55z" />
    <glyph glyph-name="uni01ED" unicode="&#x1ed;" horiz-adv-x="582" 
d="M409 19q-23 -14 -37.5 -24t-34.5 -26.5t-30.5 -34t-10.5 -35.5q0 -34 42 -34q22 0 38 6l5 -48q-25 -9 -54 -9q-98 0 -98 70q0 19 8 38q12 30 54 66q-104 0 -170 74.5t-66 195.5t66 196t170 75t170 -75t66 -196q0 -82 -31.5 -144t-86.5 -95zM458 258q0 97 -45 154.5
t-122 57.5t-122 -57.5t-45 -154.5t45 -154t122 -57t122 57t45 154zM424 649h-265v55h265v-55z" />
    <glyph glyph-name="uni01EE" unicode="&#x1ee;" horiz-adv-x="545" 
d="M496 189q0 -106 -72 -155t-197 -49q-119 0 -199 46l22 59q75 -46 178 -46q196 0 196 145q0 85 -62 118.5t-170 33.5h-7v21v22q26 26 61 65.5l55.5 64.5l57.5 71t40 49h-341v59h424v-41q-60 -89 -218 -262q44 -3 82.5 -15t73.5 -34t55.5 -61t20.5 -91zM164 921l104 -96
l104 96l28 -31l-132 -147l-132 147z" />
    <glyph glyph-name="uni01EF" unicode="&#x1ef;" horiz-adv-x="454" 
d="M125 167v24v25q111 124 189 246h-293v55h371v-37q-87 -140 -195 -262q95 -4 157 -50t62 -144q0 -102 -66.5 -155.5t-183.5 -53.5q-108 0 -166 32l17 56q56 -29 149 -29q89 0 135.5 38.5t46.5 111.5q0 143 -198 143h-25zM97 765l104 -96l104 96l28 -31l-132 -147l-132 147
z" />
    <glyph glyph-name="uni01F0" unicode="&#x1f0;" horiz-adv-x="237" 
d="M-11 -187q-30 0 -52 10l9 53q18 -6 42 -6q57 0 77.5 31t20.5 101v515h65v-512q0 -100 -37.5 -146t-124.5 -46zM15 765l104 -96l104 96l28 -31l-132 -147l-132 147z" />
    <glyph glyph-name="uni01F1" unicode="&#x1f1;" horiz-adv-x="1262" 
d="M640 347q0 -172 -103.5 -262.5t-277.5 -90.5q-99 0 -169 18v668q69 19 169 19q174 0 277.5 -90.5t103.5 -261.5zM158 633v-573q56 -7 109 -7q147 0 224 78t77 216t-77 215.5t-224 77.5q-53 0 -109 -7zM1212 693v-62q-80 -94 -202.5 -267.5t-195.5 -304.5h408v-59h-482v51
q65 126 189.5 307.5t208.5 275.5h-379v59h453z" />
    <glyph glyph-name="uni01F2" unicode="&#x1f2;" horiz-adv-x="1157" 
d="M640 347q0 -172 -103.5 -262.5t-277.5 -90.5q-99 0 -169 18v668q69 19 169 19q174 0 277.5 -90.5t103.5 -261.5zM158 633v-573q56 -7 109 -7q147 0 224 78t77 216t-77 215.5t-224 77.5q-53 0 -109 -7zM1109 517v-53l-46 -55q-58 -69 -129 -169.5t-119 -184.5h303v-55
h-378v47q47 89 136 214t154 201h-275v55h354z" />
    <glyph glyph-name="uni01F3" unicode="&#x1f3;" horiz-adv-x="1038" 
d="M497 776v-760q-84 -28 -188 -28q-115 0 -184.5 72.5t-69.5 197.5q0 120 62.5 195t171.5 75q86 0 143 -42v278zM432 61v362q-61 46 -137 46q-89 0 -130 -58t-41 -153q0 -100 50.5 -155.5t135.5 -55.5q82 0 122 14zM990 517v-53q-62 -72 -150.5 -191.5t-143.5 -217.5h303
v-55h-378v47q47 89 136 214t154 201h-275v55h354z" />
    <glyph glyph-name="uni01F4" unicode="&#x1f4;" horiz-adv-x="658" 
d="M545 23q-64 -35 -188 -35q-126 0 -211.5 93.5t-85.5 266.5q0 169 87.5 262t213.5 93q110 0 175 -41l-20 -47q-56 37 -154 37q-108 0 -172 -79.5t-64 -229.5q0 -143 64.5 -224.5t173.5 -81.5q82 0 118 18v244h-67v53h130v-329zM365 767h-31l87 176h85z" />
    <glyph glyph-name="uni01F5" unicode="&#x1f5;" horiz-adv-x="573" 
d="M457 6q0 -212 -216 -212q-91 0 -155 30q5 16 17 48q56 -29 135 -29q84 0 123 41q38 39 38 117v38q-49 -34 -126 -34q-97 0 -157.5 67.5t-60.5 192.5q0 122 63 197.5t174 75.5q97 0 165 -32v-500zM399 87v388q-37 16 -106 16q-85 0 -131 -61.5t-46 -164.5
q0 -104 44 -158.5t120 -54.5q71 0 119 35zM309 597h-31l87 176h85z" />
    <glyph glyph-name="uni01F6" unicode="&#x1f6;" horiz-adv-x="1047" 
d="M899 257v256h68v-272q0 -121 -49 -188t-170 -67t-170 67t-49 188v92h-371v-333h-68v693h68v-301h371v301h68v-436q0 -111 35 -160.5t116 -49.5t116 49.5t35 160.5z" />
    <glyph glyph-name="uni01F7" unicode="&#x1f7;" horiz-adv-x="630" 
d="M158 1v-186h-68v836q126 48 209 48q135 0 206 -64t71 -188q0 -87 -31 -157t-91.5 -122.5t-130 -91t-165.5 -75.5zM158 610v-543q45 19 75.5 33t70 36t65.5 42.5t54 49.5t44 60.5t26.5 73.5t10.5 89q0 189 -204 189q-77 0 -142 -30z" />
    <glyph glyph-name="uni01F8" unicode="&#x1f8;" horiz-adv-x="709" 
d="M590 0h-29h-29q-107 188 -344 545q-9 13 -20 32l-17 29t-9 10q0 -16 1 -114t1 -149v-353h-58v690h64q192 -270 347 -529l16 -29l13.5 -24.5t7.5 -11.5q0 33 -1 155.5t-1 181.5v257h58v-690zM359 744h-31l-141 176h85z" />
    <glyph glyph-name="uni01F9" unicode="&#x1f9;" 
d="M461 0h-59v291q0 40 -1.5 63t-9 52.5t-22 45.5t-41.5 27t-66 11q-75 0 -121 -18v-472h-60v505q77 33 190 33q52 0 89 -15.5t56 -37t30 -56.5t13 -61.5t2 -65.5v-302zM271 574h-31l-141 176h85z" />
    <glyph glyph-name="Aringacute" unicode="&#x1fa;" horiz-adv-x="641" 
d="M588 0h-67l-73 212h-294q-42 -112 -74 -212h-62q172 478 259 690h52q56 -136 259 -690zM432 260l-98 273q-8 22 -18 52.5t-14 38.5q-4 -6 -14 -35q-20 -59 -61.5 -172t-56.5 -157h262zM404 803q0 -43 -27.5 -69.5t-67.5 -26.5t-68 26.5t-28 69.5q0 42 28 68.5t68 26.5
t67.5 -27t27.5 -68zM366 803q0 27 -16 43t-41 16t-41 -16t-16 -43q0 -28 16 -43.5t41 -15.5t41 15.5t16 43.5zM373 1084l46 -51l-171 -139l-33 38z" />
    <glyph glyph-name="aringacute" unicode="&#x1fb;" horiz-adv-x="509" 
d="M415 20q-62 -30 -177 -30q-91 0 -140.5 40t-49.5 117q0 158 219 177q18 2 90 -2q0 87 -26 127.5t-102 40.5q-74 0 -125 -28l-12 46q55 31 142 31q86 0 133.5 -45.5t47.5 -132.5v-57v-284zM357 50v227q-50 4 -94 1q-73 -10 -114 -38.5t-41 -92.5q0 -112 139 -112
q65 0 110 15zM328 676q0 -43 -27.5 -69.5t-67.5 -26.5t-68 26.5t-28 69.5q0 42 28 68.5t68 26.5t67.5 -27t27.5 -68zM290 676q0 27 -16 43t-41 16t-41 -16t-16 -43q0 -28 16 -43.5t41 -15.5t41 15.5t16 43.5zM297 957l46 -51l-171 -139l-33 38z" />
    <glyph glyph-name="AEacute" unicode="&#x1fc;" horiz-adv-x="915" 
d="M876 0h-412v190h-287q-70 -128 -101 -190h-70q176 350 427 693h417v-59h-318v-241h282v-58h-282v-276h344v-59zM464 248v389q-128 -177 -194 -288l-60 -101h254zM654 929l46 -51l-171 -139l-33 38z" />
    <glyph glyph-name="aeacute" unicode="&#x1fd;" horiz-adv-x="854" 
d="M432 300h296q-2 82 -38 126.5t-102 44.5q-67 0 -109.5 -50t-46.5 -121zM252 -11q-93 0 -148.5 39.5t-55.5 122.5q0 81 58.5 120t158.5 39q26 0 58 -5.5t41 -9.5v31t-1.5 29.5t-4.5 30.5t-8.5 26t-15 24.5t-22 17.5t-31 13t-41.5 4q-78 0 -127 -20l-8 56q46 22 138 22
q131 0 169 -98q49 73 126 92q24 6 49 6q98 0 153 -63.5t55 -189.5q0 -13 -2 -31h-363q6 -197 187 -197q72 0 129 27l12 -56q-52 -30 -143 -30q-29 0 -54 3q-76 11 -124 57q-73 -60 -185 -60zM365 238q-34 16 -102 16q-148 0 -148 -103q0 -104 137 -104q97 0 148 46
q-34 56 -35 145zM509 773l46 -51l-171 -139l-33 38z" />
    <glyph glyph-name="Oslashacute" unicode="&#x1fe;" horiz-adv-x="774" 
d="M712 347q0 -171 -93 -266.5t-232 -95.5q-110 0 -193 61l-61 -80l-48 36l65 84q-88 94 -88 261q0 171 93 266t232 95q113 0 195 -63l64 83l48 -36l-68 -88q86 -97 86 -257zM134 347q0 -127 58 -207l351 454q-65 53 -156 53q-116 0 -184.5 -80.5t-68.5 -219.5zM640 347
q0 124 -56 203l-351 -454q62 -50 154 -50q116 0 184.5 81t68.5 220zM479 929l46 -51l-171 -139l-33 38z" />
    <glyph glyph-name="oslashacute" unicode="&#x1ff;" horiz-adv-x="582" 
d="M527 258q0 -121 -66 -195.5t-170 -74.5q-81 0 -139 45l-51 -67l-43 32l56 72q-59 71 -59 188q0 121 66 196t170 75q81 0 141 -48l51 67l42 -31l-56 -73q58 -74 58 -186zM124 258q0 -81 31 -134l239 308q-43 38 -103 38q-77 0 -122 -57.5t-45 -154.5zM458 258
q0 79 -31 132l-237 -308q41 -35 101 -35q77 0 122 57t45 154zM383 773l46 -51l-171 -139l-33 38z" />
    <glyph glyph-name="uni0200" unicode="&#x200;" horiz-adv-x="641" 
d="M631 0h-38h-37q-43 111 -69 190h-337l-69 -190h-71l154.5 406t125.5 287h60l39.5 -84.5l41 -95l35.5 -85l40.5 -102l37 -95.5l44 -115.5zM318 615q-68 -154 -147 -367h295q-75 198 -148 367zM267 887l46 42l119 -162l-39 -29zM110 887l46 42l119 -162l-39 -29z" />
    <glyph glyph-name="uni0201" unicode="&#x201;" horiz-adv-x="509" 
d="M415 20q-62 -30 -177 -30q-91 0 -140.5 40t-49.5 117q0 158 219 177q18 2 90 -2q0 87 -26 127.5t-102 40.5q-74 0 -125 -28l-12 46q55 31 142 31q86 0 133.5 -45.5t47.5 -132.5v-57v-284zM357 50v227q-50 4 -94 1q-73 -10 -114 -38.5t-41 -92.5q0 -112 139 -112
q65 0 110 15zM184 733l46 42l119 -162l-39 -29zM27 733l46 42l119 -162l-39 -29z" />
    <glyph glyph-name="uni0202" unicode="&#x202;" horiz-adv-x="641" 
d="M631 0h-38h-37q-43 111 -69 190h-337l-69 -190h-71l154.5 406t125.5 287h60l39.5 -84.5l41 -95l35.5 -85l40.5 -102l37 -95.5l44 -115.5zM318 615q-68 -154 -147 -367h295q-75 198 -148 367zM320 902q54 0 88 -33.5t34 -99.5h-43q0 14 -4 29t-23.5 31.5t-51.5 16.5
t-51.5 -16.5t-23.5 -31.5t-4 -29h-43q-4 64 33 98.5t89 34.5z" />
    <glyph glyph-name="uni0203" unicode="&#x203;" horiz-adv-x="509" 
d="M260 746q54 0 88 -33.5t34 -99.5h-43q0 14 -4 29t-23.5 31.5t-51.5 16.5t-51.5 -16.5t-23.5 -31.5t-4 -29h-43q-4 64 33 98.5t89 34.5zM415 20q-62 -30 -177 -30q-91 0 -140.5 40t-49.5 117q0 158 219 177q18 2 90 -2q0 87 -26 127.5t-102 40.5q-74 0 -125 -28l-12 46
q55 31 142 31q86 0 133.5 -45.5t47.5 -132.5v-57v-284zM357 50v227q-50 4 -94 1q-73 -10 -114 -38.5t-41 -92.5q0 -112 139 -112q65 0 110 15z" />
    <glyph glyph-name="uni0204" unicode="&#x204;" horiz-adv-x="555" 
d="M451 0h-365v690h352v-49h-289v-256h259v-49h-259v-287h302v-49zM267 887l46 42l119 -162l-39 -29zM110 887l46 42l119 -162l-39 -29z" />
    <glyph glyph-name="uni0205" unicode="&#x205;" horiz-adv-x="548" 
d="M469 271l-354 -26q9 -205 184 -205q73 0 129 29l14 -47q-51 -32 -145 -32q-117 0 -179.5 70.5t-62.5 204.5q0 132 62 203t153 71q85 0 136 -51t60 -154l3 -31v-32zM410 312q-1 89 -37 133.5t-103 44.5q-68 0 -110.5 -53.5t-44.5 -147.5zM184 733l46 42l119 -162l-39 -29z
M27 733l46 42l119 -162l-39 -29z" />
    <glyph glyph-name="uni0206" unicode="&#x206;" horiz-adv-x="555" 
d="M516 0h-426v693h400v-59h-332v-241h296v-58h-296v-276h358v-59zM290 902q54 0 88 -33.5t34 -99.5h-43q0 14 -4 29t-23.5 31.5t-51.5 16.5t-51.5 -16.5t-23.5 -31.5t-4 -29h-43q-4 64 33 98.5t89 34.5z" />
    <glyph glyph-name="uni0207" unicode="&#x207;" horiz-adv-x="548" 
d="M55 259q0 128 66.5 199t159.5 71q168 0 201 -175q7 -42 7 -78q0 -13 -2 -31h-363q6 -197 187 -197q72 0 129 27l12 -56q-52 -30 -143 -30q-130 0 -192 72.5t-62 197.5zM126 300h296q-2 82 -38 126.5t-102 44.5q-67 0 -109.5 -50t-46.5 -121zM280 746q54 0 88 -33.5
t34 -99.5h-43q0 14 -4 29t-23.5 31.5t-51.5 16.5t-51.5 -16.5t-23.5 -31.5t-4 -29h-43q-4 64 33 98.5t89 34.5z" />
    <glyph glyph-name="uni0208" unicode="&#x208;" horiz-adv-x="248" 
d="M151 0h-63v690h63v-690zM43 887l46 42l119 -162l-39 -29zM-114 887l46 42l119 -162l-39 -29z" />
    <glyph glyph-name="uni0209" unicode="&#x209;" horiz-adv-x="237" 
d="M151 517v-517h-65v517h65zM64 733l46 42l119 -162l-39 -29zM-93 733l46 42l119 -162l-39 -29z" />
    <glyph glyph-name="uni020A" unicode="&#x20a;" horiz-adv-x="248" 
d="M90 0v693h68v-693h-68zM125 902q54 0 88 -33.5t34 -99.5h-43q0 14 -4 29t-23.5 31.5t-51.5 16.5t-51.5 -16.5t-23.5 -31.5t-4 -29h-43q-4 64 33 98.5t89 34.5z" />
    <glyph glyph-name="uni020B" unicode="&#x20b;" horiz-adv-x="237" 
d="M151 517v-517h-65v517h65zM119 746q54 0 88 -33.5t34 -99.5h-43q0 14 -4 29t-23.5 31.5t-51.5 16.5t-51.5 -16.5t-23.5 -31.5t-4 -29h-43q-4 64 33 98.5t89 34.5z" />
    <glyph glyph-name="uni020C" unicode="&#x20c;" horiz-adv-x="774" 
d="M624 345q0 -164 -76 -260.5t-206 -96.5t-206 96.5t-76 260.5q0 163 76 260.5t206 97.5t206 -97.5t76 -260.5zM559 346q0 135 -55 221t-162 86t-162 -86t-55 -221t54.5 -221t162.5 -86q109 0 163 86t54 221zM267 887l46 42l119 -162l-39 -29zM110 887l46 42l119 -162
l-39 -29z" />
    <glyph glyph-name="uni020D" unicode="&#x20d;" horiz-adv-x="582" 
d="M488 263q0 -123 -57 -198.5t-159 -75.5q-103 0 -160 75.5t-57 198.5q0 124 57 200t159 76q103 0 160 -76t57 -200zM426 263q0 99 -38 164t-116 65q-79 0 -117.5 -65t-38.5 -164t38.5 -162t117.5 -63t116.5 63t37.5 162zM194 733l46 42l119 -162l-39 -29zM37 733l46 42
l119 -162l-39 -29z" />
    <glyph glyph-name="uni020E" unicode="&#x20e;" horiz-adv-x="774" 
d="M624 345q0 -164 -76 -260.5t-206 -96.5t-206 96.5t-76 260.5q0 163 76 260.5t206 97.5t206 -97.5t76 -260.5zM559 346q0 135 -55 221t-162 86t-162 -86t-55 -221t54.5 -221t162.5 -86q109 0 163 86t54 221zM330 888q52 0 89 -34.5t33 -98.5h-43q0 14 -4 29t-23.5 31.5
t-51.5 16.5t-51.5 -16.5t-23.5 -31.5t-4 -29h-43q-4 64 33 98.5t89 34.5z" />
    <glyph glyph-name="uni020F" unicode="&#x20f;" horiz-adv-x="582" 
d="M488 263q0 -123 -57 -198.5t-159 -75.5q-103 0 -160 75.5t-57 198.5q0 124 57 200t159 76q103 0 160 -76t57 -200zM426 263q0 99 -38 164t-116 65q-79 0 -117.5 -65t-38.5 -164t38.5 -162t117.5 -63t116.5 63t37.5 162zM271 718q52 0 89 -34.5t33 -98.5h-43q0 14 -4 29
t-23.5 31.5t-51.5 16.5t-51.5 -16.5t-23.5 -31.5t-4 -29h-43q-4 64 33 98.5t89 34.5z" />
    <glyph glyph-name="uni0210" unicode="&#x210;" horiz-adv-x="618" 
d="M531 0h-70q-60 96 -179 251l-75 54h-58v-305h-61v671q68 27 163 27q124 0 188.5 -53t64.5 -153q0 -86 -51 -135t-141 -57v-1q145 -182 219 -299zM440 492q0 159 -187 159q-35 0 -60 -3q-15 -2 -44 -9v-300q44 -4 83 -4q101 0 154.5 35.5t53.5 121.5zM267 887l46 42
l119 -162l-39 -29zM110 887l46 42l119 -162l-39 -29z" />
    <glyph glyph-name="uni0211" unicode="&#x211;" horiz-adv-x="374" 
d="M321 530l-15 -51q-39 11 -85 9q-53 -1 -80 -18v-470h-60v502q63 30 143 34q47 1 97 -6zM184 733l46 42l119 -162l-39 -29zM27 733l46 42l119 -162l-39 -29z" />
    <glyph glyph-name="uni0212" unicode="&#x212;" horiz-adv-x="618" 
d="M552 485q0 -143 -149 -188q132 -166 191 -297h-73q-60 114 -187 283q-32 -3 -64 -3h-112v-280h-68v680q70 19 174 19q288 0 288 -214zM272 640q-56 0 -114 -7v-295h94q42 0 72.5 2.5t62 11.5t50.5 24.5t31.5 43.5t12.5 66q0 154 -209 154zM289 902q54 0 88 -33.5
t34 -99.5h-43q0 14 -4 29t-23.5 31.5t-51.5 16.5t-51.5 -16.5t-23.5 -31.5t-4 -29h-43q-4 64 33 98.5t89 34.5z" />
    <glyph glyph-name="uni0213" unicode="&#x213;" horiz-adv-x="374" 
d="M262 527q68 0 100 -15q-2 -10 -6.5 -28.5t-6.5 -27.5q-29 13 -97 13q-66 0 -101 -16v-453h-65v493q75 34 176 34zM227 746q52 0 89 -34.5t33 -98.5h-43q0 14 -4 29t-23.5 31.5t-51.5 16.5t-51.5 -16.5t-23.5 -31.5t-4 -29h-43q-4 64 33 98.5t89 34.5z" />
    <glyph glyph-name="uni0214" unicode="&#x214;" horiz-adv-x="680" 
d="M540 225q0 -105 -58 -171.5t-170 -66.5q-99 0 -156.5 54t-66.5 140q-4 40 -4 93v416h62v-411q0 -118 39 -178.5t128 -60.5q62 0 106.5 37t53.5 103q6 44 6 99v411h60v-465zM267 887l46 42l119 -162l-39 -29zM110 887l46 42l119 -162l-39 -29z" />
    <glyph glyph-name="uni0215" unicode="&#x215;" 
d="M453 25q-84 -35 -185 -35q-59 0 -98 17.5t-58.5 52t-26.5 74t-7 96.5v298h60v-286q0 -106 27.5 -154.5t110.5 -48.5q81 0 117 20v469h60v-503zM184 733l46 42l119 -162l-39 -29zM27 733l46 42l119 -162l-39 -29z" />
    <glyph glyph-name="uni0216" unicode="&#x216;" horiz-adv-x="680" 
d="M340 -15q-131 0 -192 74t-61 198v436h68v-427q0 -110 49.5 -165t135.5 -55t135.5 55t49.5 165v427h68v-436q0 -123 -61 -197.5t-192 -74.5zM340 902q54 0 88 -33.5t34 -99.5h-43q0 14 -4 29t-23.5 31.5t-51.5 16.5t-51.5 -16.5t-23.5 -31.5t-4 -29h-43q-4 64 33 98.5
t89 34.5z" />
    <glyph glyph-name="uni0217" unicode="&#x217;" 
d="M483 517v-499q-99 -28 -198 -28q-110 0 -157.5 61.5t-47.5 175.5v290h65v-269q0 -110 34 -154.5t116 -44.5q89 0 123 14v454h65zM281 746q54 0 88 -33.5t34 -99.5h-43q0 14 -4 29t-23.5 31.5t-51.5 16.5t-51.5 -16.5t-23.5 -31.5t-4 -29h-43q-4 64 33 98.5t89 34.5z" />
    <glyph glyph-name="Scommaaccent" unicode="&#x218;" horiz-adv-x="517" 
d="M239 44q171 0 171 125q0 34 -12 59.5t-35 42t-48 29t-59 25.5q-13 4 -19 7q-77 31 -119 61.5t-57 77.5q-8 27 -8 56q0 88 58.5 134.5t164.5 46.5q53 0 103.5 -13.5t77.5 -32.5l-24 -57q-64 44 -160 44q-69 0 -110 -28.5t-41 -88.5q0 -25 9 -45t19.5 -32.5t36.5 -27
t41.5 -21.5t52.5 -22q54 -22 79.5 -35t59 -38t47.5 -58.5t14 -79.5q0 -92 -64.5 -140t-178.5 -48q-128 0 -204 47l22 59q79 -47 183 -47zM229 -68v13h64q1 -5 1 -17q0 -9 -2 -23q-5 -38 -27.5 -61t-57.5 -28q-14 -2 -21 -2q-22 0 -31 4v43q42 0 58 16.5t16 54.5z" />
    <glyph glyph-name="scommaaccent" unicode="&#x219;" horiz-adv-x="428" 
d="M192 46q129 0 129 81q0 41 -24 60t-104 52l-45 20t-38 21t-34 27t-19.5 34.5t-8.5 46.5q0 64 48 102.5t130 38.5q83 0 136 -25l-15 -58q-52 26 -124 26q-47 0 -78 -19.5t-31 -58.5q0 -21 6.5 -35.5t26.5 -27.5t35 -20t53 -23q29 -12 39.5 -17l34.5 -17t33.5 -21.5
t22.5 -25t18 -34.5t5 -43q0 -69 -52 -105.5t-144 -36.5q-94 0 -152 29l17 59q6 -4 19.5 -10t46.5 -13t69 -7zM183 -68v13h64q1 -5 1 -17q0 -9 -2 -23q-5 -38 -27.5 -61t-57.5 -28q-14 -2 -21 -2q-22 0 -31 4v43q42 0 58 16.5t16 54.5z" />
    <glyph glyph-name="uni021A" unicode="&#x21a;" horiz-adv-x="548" 
d="M18 693h512v-59h-222v-634h-68v634h-222v59zM239 -68v13h64q1 -5 1 -17q0 -9 -2 -23q-5 -38 -27.5 -61t-57.5 -28q-14 -2 -21 -2q-22 0 -31 4v43q42 0 58 16.5t16 54.5z" />
    <glyph glyph-name="uni021B" unicode="&#x21b;" horiz-adv-x="387" 
d="M147 681v-164h206v-55h-206v-275q0 -82 26.5 -110.5t80.5 -28.5q58 0 105 27q3 -9 8 -27t8 -27q-51 -32 -125 -32q-94 0 -131 48.5t-37 155.5v0v238v238zM200 -68v13h64q1 -5 1 -17q0 -9 -2 -23q-5 -38 -27.5 -61t-57.5 -28q-14 -2 -21 -2q-22 0 -31 4v43q42 0 58 16.5
t16 54.5z" />
    <glyph glyph-name="uni021C" unicode="&#x21c;" horiz-adv-x="524" 
d="M209 650q-97 0 -166 -48l-24 57q29 19 80.5 34t108.5 15q106 0 169 -53t63 -155q0 -26 -6 -50q-13 -50 -51 -89t-94 -56q85 -20 132.5 -77.5t47.5 -137.5q0 -74 -32 -129.5t-86.5 -86t-118.5 -45t-137 -14.5q-54 0 -65 3l4 58q14 -2 54 -2q58 0 108.5 10t98 32.5t75 66.5
t27.5 104q0 35 -11 65q-17 44 -58.5 71.5t-81.5 36.5t-81 9h-36v58h27q87 0 149.5 43t62.5 128q0 72 -41 112t-118 40z" />
    <glyph glyph-name="uni021D" unicode="&#x21d;" horiz-adv-x="417" 
d="M154 473q-72 -1 -124 -26l-17 53q52 29 144 29q87 0 139.5 -42.5t52.5 -135.5q0 -50 -33.5 -90.5t-80.5 -55.5q140 -29 140 -160q0 -52 -23.5 -93t-60 -66t-85 -41.5t-95 -23t-94.5 -6.5l-3 55q293 13 293 175q0 126 -181 126h-18v55q32 0 60 5.5t55.5 19t43.5 40.5
t16 65q0 117 -129 117z" />
    <glyph glyph-name="uni021E" unicode="&#x21e;" horiz-adv-x="692" 
d="M534 392v301h68v-693h-68v333h-376v-333h-68v693h68v-301h376zM242 921l104 -96l104 96l28 -31l-132 -147l-132 147z" />
    <glyph glyph-name="uni021F" unicode="&#x21f;" 
d="M151 0h-65v764l65 12v-274q67 25 131 25q114 0 160.5 -61.5t46.5 -176.5v-289h-65v268q0 111 -33 155.5t-119 44.5q-30 0 -69.5 -8.5t-51.5 -14.5v-445zM283 923l-119 -98l-119 98l22 35l97 -68l97 68z" />
    <glyph glyph-name="uni0220" unicode="&#x220;" horiz-adv-x="664" 
d="M577 438v-623h-68v600q0 121 -42.5 176.5t-144.5 55.5q-97 0 -164 -21v-626h-68v671q108 36 243 36q244 0 244 -269z" />
    <glyph glyph-name="uni0221" unicode="&#x221;" horiz-adv-x="706" 
d="M579 39q-27 0 -44 -12t-38 -37v-26q0 -46 22.5 -69.5t60.5 -23.5t57.5 23.5t19.5 60.5q0 35 -20 59.5t-58 24.5zM497 776v-720q38 38 93 38q58 0 93 -39.5t35 -99.5q0 -65 -37.5 -102.5t-100.5 -37.5q-114 0 -141 102l-74 -88l-34 30l102 122q-1 13 -1 30
q-53 -20 -123 -20q-115 0 -184.5 71.5t-69.5 195.5q0 120 62.5 195t171.5 75q86 0 143 -42v278zM432 70v353q-61 46 -137 46q-89 0 -130 -58t-41 -153q0 -99 50.5 -153.5t135.5 -54.5q68 0 122 20z" />
    <glyph glyph-name="uni0222" unicode="&#x222;" horiz-adv-x="654" 
d="M327 54q95 0 149.5 36t54.5 111t-54.5 111.5t-149.5 36.5t-149.5 -36.5t-54.5 -111.5t54.5 -111t149.5 -36zM327 -4q-137 0 -206.5 54t-69.5 151q0 75 45.5 121.5t103.5 58.5q-102 33 -102 164q0 74 19 148h64q-17 -85 -17 -141q0 -74 39 -110t124 -36t124 36t39 110
q0 56 -17 141h64q19 -74 19 -148q0 -131 -102 -164q58 -12 103.5 -58.5t45.5 -121.5q0 -97 -69.5 -151t-206.5 -54z" />
    <glyph glyph-name="uni0223" unicode="&#x223;" horiz-adv-x="588" 
d="M294 46q78 0 122.5 50.5t44.5 137.5q0 88 -44.5 138t-122.5 50t-122.5 -50t-44.5 -138q0 -87 44.5 -137.5t122.5 -50.5zM294 478q68 0 101.5 38t33.5 123q0 64 -15 137h64q16 -76 16 -154q0 -132 -88 -172q53 -24 88.5 -79.5t35.5 -136.5q0 -112 -63 -179t-173 -67
t-173 67t-63 179q0 81 35.5 136.5t88.5 79.5q-88 40 -88 172q0 78 16 154h64q-15 -73 -15 -137q0 -85 33.5 -123t101.5 -38z" />
    <glyph glyph-name="uni0224" unicode="&#x224;" horiz-adv-x="560" 
d="M347 -124q14 -6 37 -6q44 0 57 27t13 103h-416v51q65 126 189.5 307.5t208.5 275.5h-379v59h453v-62q-16 -17 -32 -38q-84 -104 -192 -259.5t-174 -274.5h408v-62q0 -99 -24 -141.5t-102 -42.5q-18 0 -33 3q-16 3 -23 6z" />
    <glyph glyph-name="uni0225" unicode="&#x225;" horiz-adv-x="455" 
d="M355 0h-317v47q47 89 136 214t154 201h-275v55h354v-53q-51 -55 -143.5 -181.5t-150.5 -227.5h303v-58q0 -39 -1.5 -62.5t-8.5 -49t-20 -39.5t-36 -23t-57 -9t-53 8l9 53q13 -5 36 -5q44 0 57 28t13 102z" />
    <glyph glyph-name="uni0226" unicode="&#x226;" horiz-adv-x="641" 
d="M588 0h-67l-73 212h-294q-42 -112 -74 -212h-62q172 478 259 690h52q56 -136 259 -690zM432 260l-98 273q-8 22 -18 52.5t-14 38.5q-4 -6 -14 -35q-20 -59 -61.5 -172t-56.5 -157h262zM299 763q-21 0 -34.5 13.5t-13.5 36.5t13.5 36.5t34.5 13.5t34.5 -13.5t13.5 -36.5
t-13.5 -36.5t-34.5 -13.5z" />
    <glyph glyph-name="uni0227" unicode="&#x227;" horiz-adv-x="509" 
d="M415 20q-62 -30 -177 -30q-91 0 -140.5 40t-49.5 117q0 158 219 177q18 2 90 -2q0 87 -26 127.5t-102 40.5q-74 0 -125 -28l-12 46q55 31 142 31q86 0 133.5 -45.5t47.5 -132.5v-57v-284zM357 50v227q-50 4 -94 1q-73 -10 -114 -38.5t-41 -92.5q0 -112 139 -112
q65 0 110 15zM249 608q-21 0 -34.5 13.5t-13.5 36.5t13.5 36.5t34.5 13.5t34.5 -13.5t13.5 -36.5t-13.5 -36.5t-34.5 -13.5z" />
    <glyph glyph-name="uni0228" unicode="&#x228;" horiz-adv-x="555" 
d="M317 -36q61 -26 61 -76q0 -31 -22 -53t-76 -22q-50 0 -71 12l8 43q19 -9 59 -9q41 0 41 29q0 16 -12 24.5t-46 22.5q15 41 29 65h-198v693h400v-59h-332v-241h296v-58h-296v-276h358v-59h-182q-10 -18 -17 -36z" />
    <glyph glyph-name="uni0229" unicode="&#x229;" horiz-adv-x="548" 
d="M314 -11q-2 -4 -5.5 -12.5t-5.5 -12.5q61 -27 61 -76q0 -31 -22 -53t-76 -22q-50 0 -71 12l8 43q19 -9 59 -9q41 0 41 29q0 16 -12 24.5t-46 22.5q9 28 25 56q-110 12 -162.5 82.5t-52.5 185.5q0 128 66.5 199t159.5 71q98 0 153 -63.5t55 -189.5q0 -6 -1 -16.5t-1 -14.5
h-363q5 -164 129 -191q25 -6 58 -6q72 0 129 27l12 -56q-50 -29 -138 -30zM126 300h296q-2 82 -38 126.5t-102 44.5q-67 0 -109.5 -50t-46.5 -121z" />
    <glyph glyph-name="uni022A" unicode="&#x22a;" horiz-adv-x="774" 
d="M624 345q0 -164 -76 -260.5t-206 -96.5t-206 96.5t-76 260.5q0 163 76 260.5t206 97.5t206 -97.5t76 -260.5zM559 346q0 135 -55 221t-162 86t-162 -86t-55 -221t54.5 -221t162.5 -86q109 0 163 86t54 221zM215 899v54h251v-54h-251zM287 798q0 -22 -13 -35t-33 -13
t-33 13t-13 35q0 21 12.5 34.5t33.5 13.5q20 0 33 -13t13 -35zM486 798q0 -22 -13 -35t-33 -13t-33 13t-13 35q0 21 12.5 34.5t33.5 13.5q20 0 33 -13.5t13 -34.5z" />
    <glyph glyph-name="uni022B" unicode="&#x22b;" horiz-adv-x="582" 
d="M488 263q0 -123 -57 -198.5t-159 -75.5q-103 0 -160 75.5t-57 198.5q0 124 57 200t159 76q103 0 160 -76t57 -200zM426 263q0 99 -38 164t-116 65q-79 0 -117.5 -65t-38.5 -164t38.5 -162t117.5 -63t116.5 63t37.5 162zM144 731v54h251v-54h-251zM216 630q0 -22 -13 -35
t-33 -13t-33 13t-13 35q0 21 12.5 34.5t33.5 13.5q20 0 33 -13t13 -35zM415 630q0 -22 -13 -35t-33 -13t-33 13t-13 35q0 21 12.5 34.5t33.5 13.5q20 0 33 -13.5t13 -34.5z" />
    <glyph glyph-name="uni022C" unicode="&#x22c;" horiz-adv-x="774" 
d="M624 345q0 -164 -76 -260.5t-206 -96.5t-206 96.5t-76 260.5q0 163 76 260.5t206 97.5t206 -97.5t76 -260.5zM559 346q0 135 -55 221t-162 86t-162 -86t-55 -221t54.5 -221t162.5 -86q109 0 163 86t54 221zM261 859q34 0 83.5 -17t93.5 -17q55 0 98 43l17 -33
q-34 -87 -117 -87q-26 0 -75.5 21t-68.5 21q-9 0 -25 -2t-41.5 -10t-37.5 -21l-33 46q43 39 64 48q19 8 42 8zM506 912h-320v70h320v-70z" />
    <glyph glyph-name="uni022D" unicode="&#x22d;" horiz-adv-x="582" 
d="M488 263q0 -123 -57 -198.5t-159 -75.5q-103 0 -160 75.5t-57 198.5q0 124 57 200t159 76q103 0 160 -76t57 -200zM426 263q0 99 -38 164t-116 65q-79 0 -117.5 -65t-38.5 -164t38.5 -162t117.5 -63t116.5 63t37.5 162zM332 599q-29 0 -74.5 19.5t-53.5 19.5
q-30 0 -55 -45l-38 18q33 80 96 80q33 0 76.5 -19.5t51.5 -19.5q30 0 55 45l35 -18q-14 -30 -39 -55t-54 -25zM138 741v54h251v-54h-251z" />
    <glyph glyph-name="uni022E" unicode="&#x22e;" horiz-adv-x="774" 
d="M624 345q0 -164 -76 -260.5t-206 -96.5t-206 96.5t-76 260.5q0 163 76 260.5t206 97.5t206 -97.5t76 -260.5zM559 346q0 135 -55 221t-162 86t-162 -86t-55 -221t54.5 -221t162.5 -86q109 0 163 86t54 221zM343 793q-21 0 -34.5 13.5t-13.5 36.5t13.5 36.5t34.5 13.5
t34.5 -13.5t13.5 -36.5t-13.5 -36.5t-34.5 -13.5z" />
    <glyph glyph-name="uni022F" unicode="&#x22f;" horiz-adv-x="582" 
d="M488 263q0 -123 -57 -198.5t-159 -75.5q-103 0 -160 75.5t-57 198.5q0 124 57 200t159 76q103 0 160 -76t57 -200zM426 263q0 99 -38 164t-116 65q-79 0 -117.5 -65t-38.5 -164t38.5 -162t117.5 -63t116.5 63t37.5 162zM291 623q-21 0 -34.5 13.5t-13.5 36.5t13.5 36.5
t34.5 13.5t34.5 -13.5t13.5 -36.5t-13.5 -36.5t-34.5 -13.5z" />
    <glyph glyph-name="uni0230" unicode="&#x230;" horiz-adv-x="774" 
d="M624 345q0 -164 -76 -260.5t-206 -96.5t-206 96.5t-76 260.5q0 163 76 260.5t206 97.5t206 -97.5t76 -260.5zM559 346q0 135 -55 221t-162 86t-162 -86t-55 -221t54.5 -221t162.5 -86q109 0 163 86t54 221zM217 898v54h251v-54h-251zM389 797q0 -22 -13 -35t-33 -13
t-33 13t-13 35t13 35t33 13t33 -13t13 -35z" />
    <glyph glyph-name="uni0231" unicode="&#x231;" horiz-adv-x="582" 
d="M488 263q0 -123 -57 -198.5t-159 -75.5q-103 0 -160 75.5t-57 198.5q0 124 57 200t159 76q103 0 160 -76t57 -200zM426 263q0 99 -38 164t-116 65q-79 0 -117.5 -65t-38.5 -164t38.5 -162t117.5 -63t116.5 63t37.5 162zM145 743v54h251v-54h-251zM317 642q0 -22 -13 -35
t-33 -13t-33 13t-13 35t13 35t33 13t33 -13t13 -35z" />
    <glyph glyph-name="uni0232" unicode="&#x232;" 
d="M510 690q-133 -251 -215 -390v-300h-62v299q-107 182 -216 391h71q91 -192 178 -344q82 144 180 344h64zM396 790h-265v55h265v-55z" />
    <glyph glyph-name="uni0233" unicode="&#x233;" horiz-adv-x="474" 
d="M444 528q-92 -333 -175 -549q-18 -47 -29 -70.5t-30.5 -43t-44.5 -19.5q-11 0 -22 1.5t-18 3t-16 5.5t-12 6l-11 7t-9 5l11 37q47 -27 63 -27q14 0 26 10t21 31.5t13 33t11 36.5q-117 269 -194 533h64q47 -179 131 -403q5 -13 13.5 -38t11.5 -32q2 0 5.5 12l8.5 30t8 27
q49 148 117 404h57zM369 649h-265v55h265v-55z" />
    <glyph glyph-name="uni0234" unicode="&#x234;" horiz-adv-x="357" 
d="M230 39q-27 0 -44 -12t-38 -37v-26q0 -46 22.5 -69.5t60.5 -23.5t57.5 23.5t19.5 60.5q0 35 -20 59.5t-58 24.5zM90 -83l-74 -88l-34 30l102 122q-1 13 -1 31v752l65 12v-720q38 38 93 38q58 0 93 -39.5t35 -99.5q0 -65 -37.5 -102.5t-100.5 -37.5q-114 0 -141 102z" />
    <glyph glyph-name="uni0235" unicode="&#x235;" horiz-adv-x="698" 
d="M571 39q-27 0 -44 -12t-38 -37v-26q0 -46 22.5 -69.5t60.5 -23.5t57.5 23.5t19.5 60.5q0 35 -20 59.5t-58 24.5zM489 289v-233q38 38 93 38q43 0 74.5 -23t44.5 -61q9 -25 9 -55q0 -65 -37.5 -102.5t-100.5 -37.5q-114 0 -141 102l-74 -88l-34 30l102 122q-1 13 -1 31
v256q0 111 -33 155.5t-117 44.5q-87 0 -123 -14v-454h-65v499q99 28 198 28q112 0 158.5 -61.5t46.5 -176.5z" />
    <glyph glyph-name="uni0236" unicode="&#x236;" horiz-adv-x="388" 
d="M148 462v-406q38 38 93 38q58 0 93 -39.5t35 -99.5q0 -65 -37.5 -102.5t-100.5 -37.5q-114 0 -141 102l-74 -88l-34 30l102 122q-1 13 -1 31v657l65 12v-164h206v-55h-206zM230 39q-27 0 -44 -12t-38 -37v-26q0 -46 22.5 -69.5t60.5 -23.5t57.5 23.5t19.5 60.5
q0 35 -20 59.5t-58 24.5z" />
    <glyph glyph-name="uni0237" unicode="&#x237;" horiz-adv-x="237" 
d="M-11 -187q-30 0 -52 10l9 53q18 -6 42 -6q57 0 77.5 31t20.5 101v515h65v-512q0 -100 -37.5 -146t-124.5 -46z" />
    <glyph glyph-name="uni0238" unicode="&#x238;" horiz-adv-x="929" 
d="M497 423v-362q40 -14 122 -14q85 0 135.5 55.5t50.5 155.5q0 95 -41 153t-130 58q-76 0 -137 -46zM497 776v-290q57 42 143 42q109 0 171.5 -75t62.5 -195q0 -125 -69.5 -197.5t-184.5 -72.5q-84 0 -156 24q-72 -24 -155 -24q-115 0 -184.5 72.5t-69.5 197.5
q0 120 62.5 195t171.5 75q86 0 143 -42v278zM432 61v362q-61 46 -137 46q-89 0 -130 -58t-41 -153q0 -100 50.5 -155.5t135.5 -55.5q82 0 122 14z" />
    <glyph glyph-name="uni0239" unicode="&#x239;" horiz-adv-x="929" 
d="M497 454v-361q61 -46 137 -46q90 0 130.5 57.5t40.5 152.5q0 100 -50.5 155.5t-135.5 55.5q-82 0 -122 -14zM497 30v-215h-65v215q-57 -42 -143 -42q-110 0 -172 74.5t-62 194.5q0 125 69.5 197.5t184.5 72.5q83 0 155 -24q72 24 156 24q115 0 184.5 -72.5t69.5 -197.5
q0 -120 -62 -194.5t-172 -74.5q-86 0 -143 42zM432 93v361q-40 14 -122 14q-85 0 -135.5 -55.5t-50.5 -155.5q0 -95 40.5 -152.5t130.5 -57.5q76 0 137 46z" />
    <glyph glyph-name="uni023A" unicode="&#x23a;" horiz-adv-x="641" 
d="M478 773l56 -19l-94 -259q28 -65 55.5 -136.5l71 -187.5l64.5 -171h-74l-70 191h-158l-103 -288l-58 19l96 269h-115q-20 -52 -69 -191h-70l154.5 406t125.5 287h60l54 -118zM169 246h116l89 241l-56 130q-75 -168 -149 -371zM351 246h117l-60 159z" />
    <glyph glyph-name="uni023B" unicode="&#x23b;" horiz-adv-x="627" 
d="M509 775l53 -21l-30 -72l38 -16q7 -3 26 -14l-23 -58q-28 17 -65 32l-233 -558q48 -22 109 -22q109 0 178 38l19 -58q-18 -13 -74 -27t-129 -14q-68 0 -128 25l-45 -109l-53 21l48 115q-138 97 -138 310q0 167 93.5 264t226.5 97q54 0 94 -10zM134 346q0 -167 92 -247
l227 542q-29 6 -58 6q-126 0 -193.5 -82t-67.5 -219z" />
    <glyph glyph-name="uni023C" unicode="&#x23c;" horiz-adv-x="473" 
d="M300 -11q-42 0 -85 12l-27 -85l-52 16l29 91q-110 65 -110 234q0 123 64.5 197.5t173.5 74.5q11 0 33 -2l28 86l52 -16l-25 -79q46 -13 58 -20l-17 -55q-32 15 -59 21l-129 -405q36 -11 77 -11q65 0 112 25l14 -55q-54 -29 -137 -29zM124 257q0 -119 61 -170l123 383
q-184 0 -184 -213z" />
    <glyph glyph-name="uni023D" unicode="&#x23d;" horiz-adv-x="516" 
d="M172 59h326v-59h-394v334h-80v54h80v305h68v-305h163v-54h-163v-275z" />
    <glyph glyph-name="uni023E" unicode="&#x23e;" horiz-adv-x="483" 
d="M270 448l69 193h-69v-193zM90 -48l117 327v362h-183v49h334l20 58l59 -8l-18 -50h39v-49h-60l-128 -357v-284h-63v107l-65 -170z" />
    <glyph glyph-name="uni023F" unicode="&#x23f;" horiz-adv-x="428" 
d="M328 -130q21 0 33 3l8 -52q-18 -6 -51 -6q-23 0 -41 3q-35 5 -61 23t-66 59q-21 23 -45 54t-38.5 45.5t-33.5 24.5l22 53q55 -30 136 -30q130 0 130 80q0 40 -24 59t-104 52l-45 20t-38 21t-34 27t-19.5 34.5t-8.5 46.5q0 64 48 102t130 38q85 0 136 -24l-15 -58
q-50 25 -124 25q-25 0 -42 -4q-67 -15 -67 -73q0 -21 6.5 -35.5t26.5 -27.5t35 -20t53 -23q42 -17 59.5 -25.5t44.5 -27.5t38 -44t11 -60q0 -68 -51.5 -101.5t-144.5 -33.5q-28 0 -54 6l62 -70q29 -32 55.5 -46.5t72.5 -14.5z" />
    <glyph glyph-name="uni0240" unicode="&#x240;" horiz-adv-x="454" 
d="M448 -125l8 -52q-18 -6 -51 -6q-34 0 -62 10q-26 9 -51 31t-46 45.5t-45.5 45.5t-59.5 36.5t-79 14.5h-24v47q47 89 136 214t154 201h-275v55h354v-53q-54 -58 -144.5 -181t-150.5 -227q82 -10 165 -95l23.5 -24.5t26.5 -26.5t23.5 -18t31.5 -16t33 -4q21 0 33 3z" />
    <glyph glyph-name="uni0241" unicode="&#x241;" horiz-adv-x="473" 
d="M206 200v-200h-68v203q0 36 6 63t14 45t29.5 36.5t38 29.5t53.5 33q48 30 68.5 55t20.5 69q0 58 -44.5 86.5t-113.5 28.5q-93 0 -164 -47l-23 56q22 17 77.5 33.5t111.5 16.5q111 0 169 -45t58 -129q0 -35 -9 -61t-32 -48.5t-38.5 -33.5t-53.5 -35q-65 -40 -82.5 -67
t-17.5 -89z" />
    <glyph glyph-name="uni0242" unicode="&#x242;" horiz-adv-x="406" 
d="M182 114v-114h-66v121q0 52 19.5 83t58.5 57l33.5 21l29.5 19t21.5 16t17.5 18.5t9 21t4 27.5q0 87 -128 87q-88 0 -147 -43l-22 54q21 16 68 31.5t99 15.5q98 0 147.5 -38t49.5 -108q0 -36 -18.5 -65.5t-37.5 -44t-57 -37.5q-47 -30 -64 -53t-17 -69z" />
    <glyph glyph-name="uni0243" unicode="&#x243;" horiz-adv-x="644" 
d="M270 -6q-92 0 -166 19v155h-80v53h80v459q69 19 173 19q124 0 201 -42.5t77 -137.5q0 -56 -28 -95.5t-77 -54.5q139 -32 139 -174q0 -201 -319 -201zM316 332h-144v-111h130v-53h-130v-109q47 -7 106 -7q239 0 239 144q0 77 -50.5 106.5t-150.5 29.5zM172 634v-244h132
q180 0 180 127q0 124 -207 124q-65 0 -105 -7z" />
    <glyph glyph-name="uni0244" unicode="&#x244;" horiz-adv-x="698" 
d="M349 -15q-131 0 -192 74.5t-61 197.5v94h-72v54h72v288h68v-288h370v288h68v-288h72v-54h-72v-94q0 -123 -61 -197.5t-192 -74.5zM349 46q86 0 135.5 55t49.5 165v42v43h-370v-43v-42q0 -110 49.5 -165t135.5 -55z" />
    <glyph glyph-name="uni0245" unicode="&#x245;" horiz-adv-x="624" 
d="M614 0h-76q-124 368 -228 613q-101 -234 -228 -613h-72q150 427 270 693h63l40 -91q97 -221 231 -602z" />
    <glyph glyph-name="uni0246" unicode="&#x246;" horiz-adv-x="568" 
d="M525 0h-290l-48 -115l-52 20l39 95h-84v693h374l29 69l52 -20l-147 -350h65v-57h-89l-115 -276h266v-59zM158 634v-242h180l101 242h-281zM158 335v-276h41l115 276h-156z" />
    <glyph glyph-name="uni0247" unicode="&#x247;" horiz-adv-x="548" 
d="M55 259q0 77 31.5 143t94.5 102.5t144 20.5l28 88l49 -16l-28 -87q115 -53 115 -234q0 -13 -2 -31h-198l-59 -186q49 -17 104 -12.5t106 27.5l12 -55q-98 -54 -241 -17l-27 -86l-49 16l29 91q-109 65 -109 236zM124 297h127l56 174q-74 12 -124.5 -40.5t-58.5 -133.5z
M235 245h-113q3 -109 62 -159zM306 297h118q0 113 -68 156z" />
    <glyph glyph-name="uni0248" unicode="&#x248;" horiz-adv-x="504" 
d="M400 693v-305h80v-54h-80v-116q0 -109 -48 -171t-163 -62q-64 0 -112.5 19.5t-68.5 39.5l32 55q60 -53 142 -53q79 0 114.5 41t35.5 138v109h-149v54h149v305h68z" />
    <glyph glyph-name="uni0249" unicode="&#x249;" horiz-adv-x="267" 
d="M5 -187q-30 0 -52 10l9 53q18 -6 42 -6q27 0 41 5q38 12 47.5 48.5t9.5 119.5v205h-95v53h95v216h65v-216h83v-53h-83v-203q0 -126 -33 -179t-129 -53zM182 673q0 -23 -13.5 -36.5t-34.5 -13.5t-34.5 13.5t-13.5 36.5t13.5 36.5t34.5 13.5t34.5 -13.5t13.5 -36.5z" />
    <glyph glyph-name="uni024A" unicode="&#x24a;" horiz-adv-x="789" 
d="M640 347q0 139 -68.5 219.5t-184.5 80.5t-184.5 -80.5t-68.5 -219.5t68.5 -220t184.5 -81t184.5 81t68.5 220zM646 -26v150q-36 -60 -106.5 -99.5t-152.5 -39.5q-139 0 -232 95.5t-93 266.5t93 266t232 95t232 -95t93 -266v-384q0 -49 15.5 -71t53.5 -22q23 0 37 6l9 -54
q-25 -9 -54 -9q-41 0 -67.5 11.5t-39 35.5t-16.5 49.5t-4 64.5z" />
    <glyph glyph-name="uni024B" unicode="&#x24b;" horiz-adv-x="583" 
d="M432 -26v56q-57 -42 -143 -42q-110 0 -172 74.5t-62 194.5q0 125 69.5 197.5t184.5 72.5q104 0 188 -28v-536q0 -49 15.5 -71t52.5 -22q23 0 36 5l9 -53q-22 -8 -53 -8q-76 0 -100.5 40t-24.5 120zM432 93v361q-40 14 -122 14q-85 0 -135.5 -55.5t-50.5 -155.5
q0 -95 40.5 -152.5t130.5 -57.5q76 0 137 46z" />
    <glyph glyph-name="uni024C" unicode="&#x24c;" horiz-adv-x="632" 
d="M347 285q-13 -2 -63 -2h-112v-283h-68v283h-80v55h80v342q70 19 174 19q288 0 288 -214q0 -143 -149 -188q132 -166 191 -297h-73q-59 114 -188 285zM286 640q-56 0 -114 -7v-295h47h48.5t44.5 1.5t44 3.5t37.5 7t35.5 12.5l26.5 18.5t22 25.5t12 34.5t5.5 45
q0 154 -209 154z" />
    <glyph glyph-name="uni024D" unicode="&#x24d;" horiz-adv-x="382" 
d="M270 527q68 0 100 -15l-13 -56q-54 24 -146 10q-33 -5 -52 -13v-186h155v-53h-155v-214h-65v214h-77v53h77v226q75 34 176 34z" />
    <glyph glyph-name="uni024E" unicode="&#x24e;" horiz-adv-x="589" 
d="M329 0h-68v285q-56 83 -118 189h-123v54h91q-64 112 -91 165h79q29 -64 85 -165h224q53 96 87 165h74l-93 -165h92v-54h-123q-31 -55 -116 -187v-287zM214 474l83 -132l80 132h-163z" />
    <glyph glyph-name="uni024F" unicode="&#x24f;" horiz-adv-x="506" 
d="M489 255h-85q-47 -159 -95 -271q-35 -81 -72.5 -120.5t-98.5 -48.5q-21 -3 -46 -3q-45 0 -71 15l13 54q5 -4 24 -9t37 -5q58 0 91 27t61 95q-66 118 -124 266h-95v53h76q-40 106 -64 209h69q23 -96 63 -209h184q22 81 50 209h65q-25 -112 -52 -209h70v-53zM191 255
q50 -124 88 -199q27 78 63 199h-151z" />
    <glyph glyph-name="uni0259" unicode="&#x259;" horiz-adv-x="548" 
d="M55 258l354 26q-9 205 -184 205q-73 0 -129 -29l-14 47q51 32 145 32q117 0 179.5 -70.5t62.5 -204.5q0 -132 -62 -203t-153 -71q-85 0 -136 51t-60 154q-2 20 -3 63zM114 217q1 -89 37 -133.5t103 -44.5q68 0 110.5 53.5t44.5 147.5z" />
    <glyph glyph-name="uni0292" unicode="&#x292;" horiz-adv-x="454" 
d="M125 167v24v25q111 124 189 246h-293v55h371v-37q-87 -140 -195 -262q95 -4 157 -50t62 -144q0 -102 -66.5 -155.5t-183.5 -53.5q-108 0 -166 32l17 56q56 -29 149 -29q89 0 135.5 38.5t46.5 111.5q0 143 -198 143h-25z" />
    <glyph glyph-name="uni02BB" unicode="&#x2bb;" horiz-adv-x="215" 
d="M113 783l41 -20q-15 -22 -20.5 -32t-11.5 -26t-8 -34q51 -5 51 -49q0 -20 -16 -33.5t-40 -13.5q-32 0 -44 16q-16 21 -14 50q5 70 62 142z" />
    <glyph glyph-name="apostrophe" unicode="&#x2bc;" horiz-adv-x="376" 
d="M162 776h73q0 -12 -2 -34q-7 -79 -64 -173l-45 21q40 82 40 151q0 21 -2 35z" />
    <glyph glyph-name="circumflex" unicode="&#x2c6;" horiz-adv-x="376" 
d="M188 680l-104 -96l-28 31l132 147l132 -147l-28 -31z" />
    <glyph glyph-name="caron" unicode="&#x2c7;" horiz-adv-x="376" 
d="M84 765l104 -96l104 96l28 -31l-132 -147l-132 147z" />
    <glyph glyph-name="uni02C8" unicode="&#x2c8;" horiz-adv-x="159" 
d="M50 597v157h59v-157h-59z" />
    <glyph glyph-name="uni02C9" unicode="&#x2c9;" horiz-adv-x="376" 
d="M321 649h-265v55h265v-55z" />
    <glyph glyph-name="breve" unicode="&#x2d8;" horiz-adv-x="376" 
d="M188 613q-52 0 -89 34.5t-33 98.5h43q0 -14 4 -29t23.5 -31.5t51.5 -16.5t51.5 16.5t23.5 31.5t4 29h43q0 -66 -34 -99.5t-88 -33.5z" />
    <glyph glyph-name="dotaccent" unicode="&#x2d9;" horiz-adv-x="376" 
d="M188 623q-21 0 -34.5 13.5t-13.5 36.5t13.5 36.5t34.5 13.5t34.5 -13.5t13.5 -36.5t-13.5 -36.5t-34.5 -13.5z" />
    <glyph glyph-name="ring" unicode="&#x2da;" horiz-adv-x="376" 
d="M283 676q0 -43 -27.5 -69.5t-67.5 -26.5t-68 26.5t-28 69.5q0 42 28 68.5t68 26.5t67.5 -27t27.5 -68zM245 676q0 27 -16 43t-41 16t-41 -16t-16 -43q0 -28 16 -43.5t41 -15.5t41 15.5t16 43.5z" />
    <glyph glyph-name="ogonek" unicode="&#x2db;" horiz-adv-x="376" 
d="M177 -186q-98 0 -98 70q0 35 25.5 68.5t60.5 55.5h69q-32 -24 -53 -46v0q-35 -38 -35 -63q0 -34 42 -34q22 0 38 6l5 -48q-25 -9 -54 -9z" />
    <glyph glyph-name="tilde" unicode="&#x2dc;" horiz-adv-x="376" 
d="M251 583q-29 0 -74 19.5t-54 19.5q-30 0 -55 -45l-38 18q13 31 37 55.5t59 24.5q33 0 76.5 -19.5t51.5 -19.5q30 0 55 45l35 -18q-14 -30 -39 -55t-54 -25z" />
    <glyph glyph-name="hungarumlaut" unicode="&#x2dd;" horiz-adv-x="380" 
d="M183 611l118 163l46 -43l-127 -150zM190 731l-126 -150l-37 30l117 164z" />
    <glyph glyph-name="gravecomb" unicode="&#x300;" horiz-adv-x="0" 
d="M-291 576h-31l-141 176h85z" />
    <glyph glyph-name="acutecomb" unicode="&#x301;" horiz-adv-x="0" 
d="M-292 576h-31l87 176h85z" />
    <glyph glyph-name="uni0302" unicode="&#x302;" horiz-adv-x="0" 
d="M-305 680l-104 -96l-28 31l132 147l132 -147l-28 -31z" />
    <glyph glyph-name="tildecomb" unicode="&#x303;" horiz-adv-x="0" 
d="M-240 629q-30 0 -75 19.5t-53 19.5q-30 0 -55 -45l-38 18q33 80 96 80q33 0 76.5 -19.5t51.5 -19.5q30 0 55 45l35 -18q-14 -30 -39 -55t-54 -25z" />
    <glyph glyph-name="uni0304" unicode="&#x304;" horiz-adv-x="0" 
d="M-183 649h-265v55h265v-55z" />
    <glyph glyph-name="uni0306" unicode="&#x306;" horiz-adv-x="0" 
d="M-311 613q-52 0 -89 34.5t-33 98.5h43q0 -14 4 -29t23.5 -31.5t51.5 -16.5t51.5 16.5t23.5 31.5t4 29h43q0 -66 -34 -99.5t-88 -33.5z" />
    <glyph glyph-name="uni0307" unicode="&#x307;" horiz-adv-x="0" 
d="M-315 623q-21 0 -34.5 13.5t-13.5 36.5t13.5 36.5t34.5 13.5t34.5 -13.5t13.5 -36.5t-13.5 -36.5t-34.5 -13.5z" />
    <glyph glyph-name="uni0308" unicode="&#x308;" horiz-adv-x="0" 
d="M-353 636q0 -22 -13 -35t-33 -13t-33 13t-13 35t13 35t33 13t33 -13t13 -35zM-181 636q0 -22 -13 -35t-33 -13t-33 13t-13 35t13 35t33 13t33 -13t13 -35z" />
    <glyph glyph-name="uni030A" unicode="&#x30a;" horiz-adv-x="0" 
d="M-212 676q0 -43 -27.5 -69.5t-67.5 -26.5t-68 26.5t-28 69.5q0 42 28 68.5t68 26.5t67.5 -27t27.5 -68zM-250 676q0 27 -16 43t-41 16t-41 -16t-16 -43q0 -28 16 -43.5t41 -15.5t41 15.5t16 43.5z" />
    <glyph glyph-name="uni030B" unicode="&#x30b;" horiz-adv-x="0" 
d="M-282 611l118 163l46 -43l-127 -150zM-275 731l-126 -150l-37 30l117 164z" />
    <glyph glyph-name="uni030C" unicode="&#x30c;" horiz-adv-x="0" 
d="M-408 765l104 -96l104 96l28 -31l-132 -147l-132 147z" />
    <glyph glyph-name="uni030D" unicode="&#x30d;" horiz-adv-x="0" 
d="M-336 597v157h59v-157h-59z" />
    <glyph glyph-name="uni030E" unicode="&#x30e;" horiz-adv-x="0" 
d="M-290 597v157h59v-157h-59zM-408 597v157h59v-157h-59z" />
    <glyph glyph-name="uni030F" unicode="&#x30f;" horiz-adv-x="0" 
d="M-469 774l118 -163l-37 -30l-127 150zM-232 581l-126 150l46 44l117 -164z" />
    <glyph glyph-name="uni0310" unicode="&#x310;" horiz-adv-x="0" 
d="M-302 649q52 0 89 34.5t33 98.5h-43q0 -14 -4 -29t-23.5 -31.5t-51.5 -16.5t-51.5 16.5t-23.5 31.5t-4 29h-43q-4 -64 33 -98.5t89 -34.5zM-302 733q-21 0 -34.5 13.5t-13.5 36.5t13.5 36.5t34.5 13.5t34.5 -13.5t13.5 -36.5t-13.5 -36.5t-34.5 -13.5z" />
    <glyph glyph-name="uni0311" unicode="&#x311;" horiz-adv-x="0" 
d="M-322 718q52 0 89 -34.5t33 -98.5h-43q0 14 -4 29t-23.5 31.5t-51.5 16.5t-51.5 -16.5t-23.5 -31.5t-4 -29h-43q-4 64 33 98.5t89 34.5z" />
    <glyph glyph-name="uni0312" unicode="&#x312;" horiz-adv-x="0" 
d="M-314 783l41 -20q-15 -22 -20.5 -32t-11.5 -26t-8 -34q51 -5 51 -49q0 -20 -16 -33.5t-40 -13.5q-32 0 -44 16q-16 21 -14 50q5 70 62 142z" />
    <glyph glyph-name="uni0313" unicode="&#x313;" horiz-adv-x="0" 
d="M-338 506l-29 23q54 43 64 92q-22 1 -34 15t-12 31q0 22 14 36t36 14q61 0 53 -84q-12 -69 -92 -127z" />
    <glyph glyph-name="uni0314" unicode="&#x314;" horiz-adv-x="0" 
d="M-242 529l-29 -23q-80 58 -92 127q-8 84 53 84q22 0 36 -14t14 -36q0 -17 -12 -31t-34 -15q10 -49 64 -92z" />
    <glyph glyph-name="uni0320" unicode="&#x320;" horiz-adv-x="0" 
d="M-535 -97v50h452v-50h-452z" />
    <glyph glyph-name="dotbelowcomb" unicode="&#x323;" horiz-adv-x="0" 
d="M-311 -154q-21 0 -34.5 13.5t-13.5 36.5t13.5 36.5t34.5 13.5t34.5 -13.5t13.5 -36.5t-13.5 -36.5t-34.5 -13.5z" />
    <glyph glyph-name="uni0324" unicode="&#x324;" horiz-adv-x="0" 
d="M-353 -92q0 -22 -13 -35t-33 -13t-33 13t-13 35t13 35t33 13t33 -13t13 -35zM-181 -92q0 -22 -13 -35t-33 -13t-33 13t-13 35t13 35t33 13t33 -13t13 -35z" />
    <glyph glyph-name="uni0325" unicode="&#x325;" horiz-adv-x="0" 
d="M-212 -155q0 -43 -27.5 -69.5t-67.5 -26.5t-68 26.5t-28 69.5q0 42 28 68.5t68 26.5t67.5 -27t27.5 -68zM-250 -155q0 27 -16 43t-41 16t-41 -16t-16 -43q0 -28 16 -43.5t41 -15.5t41 15.5t16 43.5z" />
    <glyph glyph-name="uni0331" unicode="&#x331;" horiz-adv-x="0" 
d="M-169 -112h-265v55h265v-55z" />
    <glyph glyph-name="uni0342" unicode="&#x342;" horiz-adv-x="376" 
d="M251 583q-29 0 -74 19.5t-54 19.5q-30 0 -55 -45l-38 18q13 31 37 55.5t59 24.5q33 0 76.5 -19.5t51.5 -19.5q30 0 55 45l35 -18q-14 -30 -39 -55t-54 -25z" />
    <glyph glyph-name="uni0352" unicode="&#x352;" horiz-adv-x="0" 
d="M-302 833q52 0 89 -34.5t33 -98.5h-43q0 14 -4 29t-23.5 31.5t-51.5 16.5t-51.5 -16.5t-23.5 -31.5t-4 -29h-43q-4 64 33 98.5t89 34.5zM-302 749q-21 0 -34.5 -13.5t-13.5 -36.5t13.5 -36.5t34.5 -13.5t34.5 13.5t13.5 36.5t-13.5 36.5t-34.5 13.5z" />
    <glyph glyph-name="tonos" unicode="&#x384;" horiz-adv-x="276" 
d="M91 597h-31l87 176h85z" />
    <glyph glyph-name="dieresistonos" unicode="&#x385;" horiz-adv-x="433" 
d="M163 589l112 173l57 -39l-129 -163zM142 608q0 -22 -13 -35t-33 -13t-33 13t-13 35t13 35t33 13t33 -13t13 -35zM388 608q0 -22 -13 -35t-33 -13t-33 13t-13 35t13 35t33 13t33 -13t13 -35z" />
    <glyph glyph-name="Alphatonos" unicode="&#x386;" horiz-adv-x="588" 
d="M578 0h-67l-73 212h-294q-42 -112 -74 -212h-62q172 478 259 690h52q56 -136 259 -690zM422 260l-98 273q-8 22 -18 52.5t-14 38.5q-4 -6 -14 -35q-20 -59 -61.5 -172t-56.5 -157h262zM93 556h-31l87 176h85z" />
    <glyph glyph-name="anoteleia" unicode="&#x387;" horiz-adv-x="246" 
d="M191 319q0 -21 -13.5 -35t-35.5 -14t-35.5 14t-13.5 35t14 35t35 14q22 0 35.5 -14t13.5 -35z" />
    <glyph glyph-name="Epsilontonos" unicode="&#x388;" horiz-adv-x="634" 
d="M606 0h-426v693h400v-59h-332v-241h296v-58h-296v-276h358v-59zM36 556h-31l87 176h85z" />
    <glyph glyph-name="Etatonos" unicode="&#x389;" horiz-adv-x="740" 
d="M634 392v301h68v-693h-68v333h-376v-333h-68v693h68v-301h376zM53 556h-31l87 176h85z" />
    <glyph glyph-name="Iotatonos" unicode="&#x38a;" horiz-adv-x="317" 
d="M198 0v693h68v-693h-68zM45 556h-31l87 176h85z" />
    <glyph glyph-name="Omicrontonos" unicode="&#x38c;" horiz-adv-x="791" 
d="M739 347q0 -171 -93 -266.5t-232 -95.5t-232 95.5t-93 266.5t93 266t232 95t232 -95t93 -266zM667 347q0 139 -68.5 219.5t-184.5 80.5t-184.5 -80.5t-68.5 -219.5t68.5 -220t184.5 -81t184.5 81t68.5 220zM46 556h-31l87 176h85z" />
    <glyph glyph-name="Upsilontonos" unicode="&#x38e;" horiz-adv-x="730" 
d="M466 0h-68v285q-128 196 -241 408h79q93 -194 198 -351q107 164 198 351h74q-149 -267 -240 -406v-287zM50 556h-31l87 176h85z" />
    <glyph glyph-name="Omegatonos" unicode="&#x38f;" horiz-adv-x="805" 
d="M415 708q136 0 227 -89.5t91 -251.5q0 -184 -139 -309h155v-58h-254v44q166 124 166 325q0 128 -67.5 203t-178.5 75t-178.5 -75t-67.5 -203q0 -201 166 -325v-44h-254v58h155q-56 49 -97.5 128t-41.5 181q0 162 91 251.5t227 89.5zM20 705l72 -17l-66 -192l-51 12z" />
    <glyph glyph-name="iotadieresistonos" unicode="&#x390;" horiz-adv-x="253" 
d="M224 45l-9 -54q-68 2 -100 32.5t-32 100.5v65v328h65v-391q0 -45 16 -59.5t60 -21.5zM84 632l112 173l57 -39l-129 -163zM63 651q0 -22 -13 -35t-33 -13t-33 13t-13 35t13 35t33 13t33 -13t13 -35zM309 651q0 -22 -13 -35t-33 -13t-33 13t-13 35t13 35t33 13t33 -13
t13 -35z" />
    <glyph glyph-name="Alpha" unicode="&#x391;" horiz-adv-x="641" 
d="M588 0h-67l-73 212h-294q-42 -112 -74 -212h-62q172 478 259 690h52q56 -136 259 -690zM432 260l-98 273q-8 22 -18 52.5t-14 38.5q-4 -6 -14 -35q-20 -59 -61.5 -172t-56.5 -157h262z" />
    <glyph glyph-name="Beta" unicode="&#x392;" horiz-adv-x="630" 
d="M256 -6q-92 0 -166 19v667q69 19 173 19q124 0 201 -42.5t77 -137.5q0 -56 -28 -95.5t-77 -54.5q139 -32 139 -174q0 -201 -319 -201zM302 332h-144v-273q47 -7 106 -7q239 0 239 144q0 77 -50.5 106.5t-150.5 29.5zM158 634v-244h66h48t44 1.5t43 5l35.5 9t32 15
t22.5 22.5t16.5 31.5t4.5 42.5q0 124 -207 124q-65 0 -105 -7z" />
    <glyph glyph-name="Gamma" unicode="&#x393;" horiz-adv-x="482" 
d="M90 693h374v-59h-306v-634h-68v693z" />
    <glyph glyph-name="uni0394" unicode="&#x394;" horiz-adv-x="630" 
d="M100 59h425q-101 302 -212 556q-115 -264 -213 -556zM620 0h-610l57 163q107 297 218 530h60q133 -278 275 -693z" />
    <glyph glyph-name="Epsilon" unicode="&#x395;" horiz-adv-x="555" 
d="M516 0h-426v693h400v-59h-332v-241h296v-58h-296v-276h358v-59z" />
    <glyph glyph-name="Zeta" unicode="&#x396;" horiz-adv-x="560" 
d="M510 693v-62q-80 -94 -202.5 -267.5t-195.5 -304.5h408v-59h-482v51q65 126 189.5 307.5t208.5 275.5h-379v59h453z" />
    <glyph glyph-name="Eta" unicode="&#x397;" horiz-adv-x="692" 
d="M534 392v301h68v-693h-68v333h-376v-333h-68v693h68v-301h376z" />
    <glyph glyph-name="Theta" unicode="&#x398;" horiz-adv-x="774" 
d="M562 334h-354v59h354v-59zM712 347q0 -171 -93 -266.5t-232 -95.5t-232 95.5t-93 266.5t93 266t232 95t232 -95t93 -266zM640 347q0 139 -68.5 219.5t-184.5 80.5t-184.5 -80.5t-68.5 -219.5t68.5 -220t184.5 -81t184.5 81t68.5 220z" />
    <glyph glyph-name="Iota" unicode="&#x399;" horiz-adv-x="248" 
d="M90 0v693h68v-693h-68z" />
    <glyph glyph-name="Kappa" unicode="&#x39a;" horiz-adv-x="599" 
d="M589 0h-38h-38q-68 104 -166 198t-189 145v-343h-68v693h68v-323l180.5 171t145.5 152h82q-169 -180 -330 -326q88 -55 198 -169t155 -198z" />
    <glyph glyph-name="Lambda" unicode="&#x39b;" horiz-adv-x="624" 
d="M614 0h-76q-124 368 -228 613q-101 -234 -228 -613h-72q150 427 270 693h63l40 -91q97 -221 231 -602z" />
    <glyph glyph-name="Mu" unicode="&#x39c;" horiz-adv-x="865" 
d="M462 100h-61q-28 69 -114 249.5t-113 229.5q-20 -193 -34 -579h-67q21 432 49 693h30h30q86 -145 252 -514q166 369 252 514h57q28 -261 49 -693h-69q-14 386 -34 579q-27 -49 -113 -229.5t-114 -249.5z" />
    <glyph glyph-name="Nu" unicode="&#x39d;" horiz-adv-x="709" 
d="M619 0h-29h-28q-59 107 -188.5 294.5t-216.5 289.5v-292v-292h-67v693h54q80 -90 177 -219.5t170 -243.5q30 -46 61 -101v282v282h67v-693z" />
    <glyph glyph-name="Xi" unicode="&#x39e;" horiz-adv-x="551" 
d="M452 334h-354v59h354v-59zM512 0h-473v59h473v-59zM54 693h443v-59h-443v59z" />
    <glyph glyph-name="Omicron" unicode="&#x39f;" horiz-adv-x="774" 
d="M712 347q0 -171 -93 -266.5t-232 -95.5t-232 95.5t-93 266.5t93 266t232 95t232 -95t93 -266zM640 347q0 139 -68.5 219.5t-184.5 80.5t-184.5 -80.5t-68.5 -219.5t68.5 -220t184.5 -81t184.5 81t68.5 220z" />
    <glyph glyph-name="Pi" unicode="&#x3a0;" horiz-adv-x="685" 
d="M90 693h505v-693h-68v634h-369v-634h-68v693z" />
    <glyph glyph-name="Rho" unicode="&#x3a1;" horiz-adv-x="592" 
d="M265 699q145 0 218 -55.5t73 -159.5q0 -114 -78 -165t-226 -51h-94v-268h-68v680q70 19 175 19zM268 640q-52 0 -110 -7v-306h86q121 0 181 33.5t60 124.5q0 155 -217 155z" />
    <glyph glyph-name="Sigma" unicode="&#x3a3;" horiz-adv-x="552" 
d="M356 364l-82 -97.5l-93 -111.5t-71 -96h401v-59h-473v58q34 56 130 172l54 66l54 67l-83 101.5l-88.5 108t-53.5 72.5v48h458v-59h-369q13 -21 48 -64l85 -103.5z" />
    <glyph glyph-name="Tau" unicode="&#x3a4;" horiz-adv-x="548" 
d="M18 693h512v-59h-222v-634h-68v634h-222v59z" />
    <glyph glyph-name="Upsilon" unicode="&#x3a5;" 
d="M319 0h-68v285q-128 196 -241 408h79q93 -194 198 -351q107 164 198 351h74q-149 -267 -240 -406v-287z" />
    <glyph glyph-name="Phi" unicode="&#x3a6;" horiz-adv-x="860" 
d="M463 600v-458q115 0 189 58t74 171t-74 171t-189 58zM397 0v86q-60 0 -117 16t-107 48.5t-80.5 89.5t-30.5 131t30.5 131t80.5 89.5t107 48.5t117 16v82h66v-82q60 0 117 -16t107 -48.5t80.5 -89.5t30.5 -131t-30.5 -131t-80.5 -89.5t-107 -48.5t-117 -16v-86h-66z
M397 142v458q-115 0 -189 -58t-74 -171t74 -171t189 -58z" />
    <glyph glyph-name="Chi" unicode="&#x3a7;" horiz-adv-x="608" 
d="M303 414l187 279h76l-223 -325q172 -244 235 -368h-37h-37q-56 111 -203 318q-147 -207 -203 -318h-71q59 117 234 366l-223 327h78z" />
    <glyph glyph-name="Psi" unicode="&#x3a8;" horiz-adv-x="802" 
d="M435 0h-68v183q-299 0 -299 281v229h67v-222q0 -121 58.5 -174t173.5 -53v449h68v-449q115 0 173.5 53t58.5 174v222h67v-229q0 -281 -299 -281v-183z" />
    <glyph glyph-name="uni03A9" unicode="&#x3a9;" horiz-adv-x="780" 
d="M390 708q136 0 227 -89.5t91 -251.5q0 -184 -139 -309h155v-58h-254v44q166 124 166 325q0 128 -67.5 203t-178.5 75t-178.5 -75t-67.5 -203q0 -201 166 -325v-44h-254v58h155q-56 49 -97.5 128t-41.5 181q0 162 91 251.5t227 89.5z" />
    <glyph glyph-name="Iotadieresis" unicode="&#x3aa;" horiz-adv-x="248" 
d="M90 0v693h68v-693h-68zM84 806q0 -22 -13 -35t-33 -13t-33 13t-13 35t13 35t33 13t33 -13t13 -35zM256 806q0 -22 -13 -35t-33 -13t-33 13t-13 35t13 35t33 13t33 -13t13 -35z" />
    <glyph glyph-name="Upsilondieresis" unicode="&#x3ab;" 
d="M319 0h-68v285q-128 196 -241 408h79q93 -194 198 -351q107 164 198 351h74q-149 -267 -240 -406v-287zM244 806q0 -22 -13 -35t-33 -13t-33 13t-13 35t13 35t33 13t33 -13t13 -35zM416 806q0 -22 -13 -35t-33 -13t-33 13t-13 35t13 35t33 13t33 -13t13 -35z" />
    <glyph glyph-name="alphatonos" unicode="&#x3ac;" horiz-adv-x="598" 
d="M451 41q-64 -52 -154 -52q-117 0 -179.5 75t-62.5 193q0 127 71 198.5t190 71.5q104 0 177 -31v-369q0 -46 17.5 -60.5t62.5 -21.5l-9 -54q-81 3 -113 50zM428 141v310q-51 17 -107 17q-94 0 -145.5 -54.5t-51.5 -156.5q0 -93 40.5 -151t132.5 -58q43 0 80 15t56 31
q-5 25 -5 47zM317 597h-31l87 176h85z" />
    <glyph glyph-name="epsilontonos" unicode="&#x3ad;" horiz-adv-x="498" 
d="M273 47q55 0 102 12.5t64 24.5l21 -57q-20 -13 -72 -26t-116 -13q-103 0 -159.5 38t-56.5 110q0 107 108 139q-61 19 -81 70q-7 17 -7 40q0 71 53 107t153 36q97 0 150 -25l-15 -58q-59 26 -137 26q-29 0 -50 -4q-88 -17 -88 -84q0 -26 13.5 -44t36.5 -26t42.5 -11
t40.5 -3h67v-55h-72q-25 0 -47.5 -4t-46.5 -14t-38.5 -32t-14.5 -53q0 -46 39.5 -70t110.5 -24zM270 597h-31l87 176h85z" />
    <glyph glyph-name="etatonos" unicode="&#x3ae;" horiz-adv-x="568" 
d="M86 0v499q99 28 198 28q112 0 158.5 -61.5t46.5 -176.5v-474h-65v453q0 110 -33 155t-117 45q-87 0 -123 -14v-454h-65zM291 597h-31l87 176h85z" />
    <glyph glyph-name="iotatonos" unicode="&#x3af;" horiz-adv-x="253" 
d="M224 45l-9 -54q-68 2 -100 32.5t-32 100.5v65v328h65v-391q0 -45 16 -59.5t60 -21.5zM130 597h-31l87 176h85z" />
    <glyph glyph-name="upsilondieresistonos" unicode="&#x3b0;" horiz-adv-x="568" 
d="M284 -11q-204 0 -204 231v297h65v-291q0 -94 35 -135.5t104 -41.5t104 41.5t35 135.5v291h65v-297q0 -231 -204 -231zM223 589l112 173l57 -39l-129 -163zM202 608q0 -22 -13 -35t-33 -13t-33 13t-13 35t13 35t33 13t33 -13t13 -35zM448 608q0 -22 -13 -35t-33 -13
t-33 13t-13 35t13 35t33 13t33 -13t13 -35z" />
    <glyph glyph-name="alpha" unicode="&#x3b1;" horiz-adv-x="598" 
d="M451 41q-64 -52 -154 -52q-117 0 -179.5 75t-62.5 193q0 127 71 198.5t190 71.5q104 0 177 -31v-369q0 -46 17.5 -60.5t62.5 -21.5l-9 -54q-81 3 -113 50zM428 141v310q-51 17 -107 17q-94 0 -145.5 -54.5t-51.5 -156.5q0 -93 40.5 -151t132.5 -58q43 0 80 15t56 31
q-5 25 -5 47z" />
    <glyph glyph-name="beta" unicode="&#x3b2;" horiz-adv-x="599" 
d="M151 29v-214h-65v730q0 107 50 169t161 62q86 0 142 -48t56 -139q0 -53 -31 -96.5t-86 -61.5q166 -44 166 -210q0 -107 -63.5 -168t-184.5 -61q-88 0 -145 37zM151 543v-451q12 -12 54.5 -26.5t90.5 -14.5q82 0 130.5 44.5t48.5 124.5q0 175 -210 175h-6v55h9
q72 0 116 38t44 102q0 59 -34 94t-100 35q-143 0 -143 -176z" />
    <glyph glyph-name="gamma" unicode="&#x3b3;" horiz-adv-x="472" 
d="M221 64q54 84 103 218.5t65 234.5h62q-53 -285 -214 -526q10 -60 13 -86q6 -56 8 -90h-62q-3 42 -9 90q-21 150 -74 331.5t-94 280.5h72q30 -75 68 -208t62 -245z" />
    <glyph glyph-name="delta" unicode="&#x3b4;" horiz-adv-x="582" 
d="M304 469q-81 -22 -130.5 -81t-49.5 -141q0 -84 41.5 -142.5t125.5 -58.5q78 0 122.5 56t44.5 138q0 27 -5 51.5t-11.5 42.5t-19.5 36t-21.5 28.5t-26 24t-24.5 18l-25.5 16t-20.5 12.5zM247 504q-69 44 -88 85q-10 23 -10 53q0 64 51.5 99t128.5 35q78 0 146 -34l-18 -56
q-57 34 -124 34q-33 0 -64 -9q-54 -19 -54 -66q0 -32 20.5 -54t92.5 -66q2 -1 25 -15t28 -17.5l26 -18t27.5 -21.5t23.5 -23.5t23.5 -28.5l17.5 -32t15.5 -39t8.5 -44t4 -52q0 -42 -12.5 -83t-39 -79t-74.5 -61.5t-111 -23.5q-116 0 -175.5 76t-59.5 186q0 91 54 159.5
t138 95.5z" />
    <glyph glyph-name="epsilon" unicode="&#x3b5;" horiz-adv-x="498" 
d="M273 47q55 0 102 12.5t64 24.5l21 -57q-20 -13 -72 -26t-116 -13q-103 0 -159.5 38t-56.5 110q0 107 108 139q-61 19 -81 70q-7 17 -7 40q0 71 53 107t153 36q97 0 150 -25l-15 -58q-59 26 -137 26q-29 0 -50 -4q-88 -17 -88 -84q0 -26 13.5 -44t36.5 -26t42.5 -11
t40.5 -3h67v-55h-72q-25 0 -47.5 -4t-46.5 -14t-38.5 -32t-14.5 -53q0 -46 39.5 -70t110.5 -24z" />
    <glyph glyph-name="zeta" unicode="&#x3b6;" horiz-adv-x="423" 
d="M442 -56q0 -35 -16 -72t-34 -60l-54 22q40 53 40 97q0 39 -27.5 55t-106.5 32q-106 22 -147 69t-41 143q0 223 289 484h-257v55h335v-53q-22 -20 -38 -36q-45 -43 -84 -88.5t-82 -106.5t-68.5 -127.5t-25.5 -127.5q0 -77 33.5 -108t123.5 -50q91 -19 125.5 -45t34.5 -83z
" />
    <glyph glyph-name="eta" unicode="&#x3b7;" horiz-adv-x="568" 
d="M86 0v499q99 28 198 28q112 0 158.5 -61.5t46.5 -176.5v-474h-65v453q0 110 -33 155t-117 45q-87 0 -123 -14v-454h-65z" />
    <glyph glyph-name="theta" unicode="&#x3b8;" horiz-adv-x="594" 
d="M297 776q118 0 178 -107t60 -288t-60 -288t-178 -107t-178 107t-60 288t60 288t178 107zM297 45q164 0 170 315h-340q5 -315 170 -315zM297 717q-162 0 -170 -302h339q-8 302 -169 302z" />
    <glyph glyph-name="iota" unicode="&#x3b9;" horiz-adv-x="253" 
d="M224 45l-9 -54q-68 2 -100 32.5t-32 100.5v65v328h65v-391q0 -45 16 -59.5t60 -21.5z" />
    <glyph glyph-name="kappa" unicode="&#x3ba;" horiz-adv-x="506" 
d="M151 0h-65v517h65v-239q161 155 237 239h78q-43 -49 -116 -121.5t-125 -119.5q68 -44 144 -124t119 -152h-77q-46 72 -122.5 145.5t-137.5 109.5v-255z" />
    <glyph glyph-name="lambda" unicode="&#x3bb;" horiz-adv-x="492" 
d="M260 455q-119 -224 -175 -455h-66q25 101 85.5 250.5t128.5 275.5q-5 12 -14.5 37.5t-14.5 36.5q-34 77 -54.5 98.5t-67.5 21.5q-22 0 -38 -7l-11 54q25 9 62 9q63 0 98 -35.5t60 -97.5q129 -321 218 -643h-68q-51 203 -143 455z" />
    <glyph glyph-name="uni03BC" unicode="&#x3bc;" horiz-adv-x="575" 
d="M291 -10q-104 0 -147 56q5 -43 5 -125v-106h-63v702h65v-269q0 -110 34 -154.5t116 -44.5q89 0 123 14v454h65v-499q-99 -28 -198 -28z" />
    <glyph glyph-name="nu" unicode="&#x3bd;" horiz-adv-x="480" 
d="M242 70q42 89 85 214.5t68 232.5h65q-61 -240 -189 -517h-31h-31q-122 255 -189 517h69q24 -105 67 -231t86 -216z" />
    <glyph glyph-name="xi" unicode="&#x3be;" horiz-adv-x="459" 
d="M293 72q91 -19 125.5 -45t34.5 -83q0 -35 -16 -72t-34 -60l-54 22q40 53 40 97q0 39 -27 54t-107 33q-104 21 -151.5 64.5t-47.5 126.5q0 47 17.5 85.5t45.5 62t51.5 37t46.5 21.5q-58 14 -92.5 63.5t-34.5 109.5q0 94 59.5 141t150.5 47q77 0 127 -21l-16 -57
q-34 20 -106 20q-75 0 -111 -36.5t-36 -97.5q0 -69 48 -105.5t133 -36.5h55v-55h-44q-34 0 -70 -8.5t-72.5 -27t-60 -55.5t-23.5 -86q0 -63 38.5 -90.5t130.5 -47.5z" />
    <glyph glyph-name="omicron" unicode="&#x3bf;" horiz-adv-x="582" 
d="M527 258q0 -121 -66 -195.5t-170 -74.5t-170 74.5t-66 195.5t66 196t170 75t170 -75t66 -196zM458 258q0 97 -45 154.5t-122 57.5t-122 -57.5t-45 -154.5t45 -154t122 -57t122 57t45 154z" />
    <glyph glyph-name="pi" unicode="&#x3c0;" horiz-adv-x="571" 
d="M485 517v-517h-65v462h-269v-462h-65v517h399z" />
    <glyph glyph-name="rho" unicode="&#x3c1;" horiz-adv-x="588" 
d="M291 -12q-89 0 -146 42v-215h-65v475q0 111 54.5 174t161.5 63q116 0 176.5 -67.5t60.5 -201.5q0 -120 -63 -195t-179 -75zM145 274v-181q58 -46 141 -46q94 0 136 59.5t42 150.5q0 210 -168 210q-76 0 -113.5 -46.5t-37.5 -146.5z" />
    <glyph glyph-name="sigma1" unicode="&#x3c2;" horiz-adv-x="449" 
d="M124 257q0 -92 40 -131t145 -63q67 -15 94 -41.5t27 -77.5q0 -35 -16 -72t-34 -60l-54 22q40 53 40 97q0 32 -19 48.5t-65 28.5q-130 31 -178.5 86t-48.5 161q0 125 65 199.5t175 74.5q91 0 136 -25l-17 -56q-46 22 -113 22q-84 0 -130.5 -55.5t-46.5 -157.5z" />
    <glyph glyph-name="sigma" unicode="&#x3c3;" horiz-adv-x="607" 
d="M522 236q0 -116 -64 -182t-169 -66q-102 0 -168 68t-66 183q0 75 24 131.5t64.5 87t87 45t99.5 14.5h257v-55h-155q90 -100 90 -226zM454 234q0 67 -26.5 128t-71.5 100h-31q-23 0 -45.5 -4t-52 -18t-51.5 -37t-37 -65.5t-15 -98.5q0 -88 46 -140t119 -52
q78 0 121.5 48.5t43.5 138.5z" />
    <glyph glyph-name="tau" unicode="&#x3c4;" horiz-adv-x="428" 
d="M387 61l6 -57q-30 -11 -79 -11q-88 0 -121.5 47.5t-33.5 146.5v275h-139v55h387v-55h-183v-273q0 -81 25 -110q23 -27 74 -27q33 0 64 9z" />
    <glyph glyph-name="upsilon" unicode="&#x3c5;" horiz-adv-x="568" 
d="M284 -11q-204 0 -204 231v297h65v-291q0 -94 35 -135.5t104 -41.5t104 41.5t35 135.5v291h65v-297q0 -231 -204 -231z" />
    <glyph glyph-name="phi" unicode="&#x3c6;" horiz-adv-x="758" 
d="M379 529q145 0 235 -72.5t90 -196.5q0 -122 -80.5 -193t-212.5 -75v-177h-64v177q-132 4 -212.5 75t-80.5 193q0 124 89.5 196.5t235.5 72.5zM637 260q0 90 -59 149t-167 65v-427q114 8 170 64t56 149zM121 260q0 -93 56 -149t170 -64v427q-108 -6 -167 -65t-59 -149z
" />
    <glyph glyph-name="chi" unicode="&#x3c7;" horiz-adv-x="499" 
d="M248 234q-89 -117 -153 -234h-67q65 121 178 274l-101 146l-67 97h76l134 -198l136 198h71l-165 -239q124 -166 181 -278h-70q-52 96 -153 234z" />
    <glyph glyph-name="psi" unicode="&#x3c8;" horiz-adv-x="760" 
d="M412 -185h-64v176q-135 0 -201.5 69t-66.5 195v262h65v-246q0 -117 52 -168.5t151 -51.5v466h64v-466q99 0 151 51.5t52 168.5v246h65v-262q0 -126 -66.5 -195t-201.5 -69v-176z" />
    <glyph glyph-name="omega" unicode="&#x3c9;" horiz-adv-x="835" 
d="M385 420h65v-149q0 -25 1 -44.5t4.5 -47.5t12 -48t21 -39.5t34 -29.5t49.5 -10q133 0 133 198q0 28 -4 55.5t-11 51t-14.5 43t-17.5 38l-16 29t-14 22.5t-9 13l59 25q17 -21 35 -51t39 -96t21 -132q0 -134 -53.5 -195.5t-146.5 -61.5q-113 0 -156 102q-43 -102 -155 -102
q-93 0 -146.5 61.5t-53.5 195.5q0 66 21 132t39 96t35 51l59 -25q-1 -1 -9 -13t-14 -22.5l-16 -29t-17.5 -38t-14.5 -43t-11 -51t-4 -55.5q0 -198 133 -198q28 0 49.5 10t34 29t21 39.5t12 48.5t4.5 47.5t1 44.5v149z" />
    <glyph glyph-name="iotadieresis" unicode="&#x3ca;" horiz-adv-x="253" 
d="M224 45l-9 -54q-68 2 -100 32.5t-32 100.5v65v328h65v-391q0 -45 16 -59.5t60 -21.5zM73 673q0 -22 -13 -35t-33 -13t-33 13t-13 35t13 35t33 13t33 -13t13 -35zM245 673q0 -22 -13 -35t-33 -13t-33 13t-13 35t13 35t33 13t33 -13t13 -35z" />
    <glyph glyph-name="upsilondieresis" unicode="&#x3cb;" horiz-adv-x="568" 
d="M284 -11q-204 0 -204 231v297h65v-291q0 -94 35 -135.5t104 -41.5t104 41.5t35 135.5v291h65v-297q0 -231 -204 -231zM240 673q0 -22 -13 -35t-33 -13t-33 13t-13 35t13 35t33 13t33 -13t13 -35zM412 673q0 -22 -13 -35t-33 -13t-33 13t-13 35t13 35t33 13t33 -13t13 -35
z" />
    <glyph glyph-name="omicrontonos" unicode="&#x3cc;" horiz-adv-x="582" 
d="M527 258q0 -121 -66 -195.5t-170 -74.5t-170 74.5t-66 195.5t66 196t170 75t170 -75t66 -196zM458 258q0 97 -45 154.5t-122 57.5t-122 -57.5t-45 -154.5t45 -154t122 -57t122 57t45 154zM307 597h-31l87 176h85z" />
    <glyph glyph-name="upsilontonos" unicode="&#x3cd;" horiz-adv-x="568" 
d="M284 -11q-204 0 -204 231v297h65v-291q0 -94 35 -135.5t104 -41.5t104 41.5t35 135.5v291h65v-297q0 -231 -204 -231zM297 597h-31l87 176h85z" />
    <glyph glyph-name="omegatonos" unicode="&#x3ce;" horiz-adv-x="835" 
d="M385 420h65v-149q0 -25 1 -44.5t4.5 -47.5t12 -48t21 -39.5t34 -29.5t49.5 -10q133 0 133 198q0 28 -4 55.5t-11 51t-14.5 43t-17.5 38l-16 29t-14 22.5t-9 13l59 25q17 -21 35 -51t39 -96t21 -132q0 -134 -53.5 -195.5t-146.5 -61.5q-113 0 -156 102q-43 -102 -155 -102
q-93 0 -146.5 61.5t-53.5 195.5q0 66 21 132t39 96t35 51l59 -25q-1 -1 -9 -13t-14 -22.5l-16 -29t-17.5 -38t-14.5 -43t-11 -51t-4 -55.5q0 -198 133 -198q28 0 49.5 10t34 29t21 39.5t12 48.5t4.5 47.5t1 44.5v149zM434 597h-31l87 176h85z" />
    <glyph glyph-name="uni0400" unicode="&#x400;" horiz-adv-x="555" 
d="M451 0h-365v690h352v-49h-289v-256h259v-49h-259v-287h302v-49zM363 746h-31l-141 176h85z" />
    <glyph glyph-name="uni0401" unicode="&#x401;" horiz-adv-x="555" 
d="M451 0h-365v690h352v-49h-289v-256h259v-49h-259v-287h302v-49zM237 806q0 -22 -13 -35t-33 -13t-33 13t-13 35t13 35t33 13t33 -13t13 -35zM409 806q0 -22 -13 -35t-33 -13t-33 13t-13 35t13 35t33 13t33 -13t13 -35z" />
    <glyph glyph-name="uni0403" unicode="&#x403;" horiz-adv-x="482" 
d="M297 949l46 -51l-171 -139l-33 38zM149 641v-641h-63v690h338v-49h-275z" />
    <glyph glyph-name="uni0404" unicode="&#x404;" horiz-adv-x="545" 
d="M379 335h-263q2 -103 38.5 -178t106.5 -103q36 -15 82 -15q78 0 134 33l18 -46q-22 -15 -65 -26.5t-93 -11.5q-129 0 -208 97.5t-79 259.5q0 160 78.5 259t203.5 99q105 0 162 -39l-17 -46q-55 34 -137 34q-101 0 -157.5 -73.5t-64.5 -193.5h261v-50z" />
    <glyph glyph-name="uni0405" unicode="&#x405;" horiz-adv-x="517" 
d="M239 44q171 0 171 125q0 34 -12 59.5t-35 42t-48 29t-59 25.5q-13 4 -19 7q-77 31 -119 61.5t-57 77.5q-8 27 -8 56q0 88 58.5 134.5t164.5 46.5q53 0 103.5 -13.5t77.5 -32.5l-24 -57q-64 44 -160 44q-69 0 -110 -28.5t-41 -88.5q0 -25 9 -45t19.5 -32.5t36.5 -27
t41.5 -21.5t52.5 -22q54 -22 79.5 -35t59 -38t47.5 -58.5t14 -79.5q0 -92 -64.5 -140t-178.5 -48q-128 0 -204 47l22 59q79 -47 183 -47z" />
    <glyph glyph-name="uni0406" unicode="&#x406;" horiz-adv-x="248" 
d="M151 0h-63v690h63v-690z" />
    <glyph glyph-name="uni0407" unicode="&#x407;" horiz-adv-x="248" 
d="M151 0h-63v690h63v-690zM84 806q0 -22 -13 -35t-33 -13t-33 13t-13 35t13 35t33 13t33 -13t13 -35zM256 806q0 -22 -13 -35t-33 -13t-33 13t-13 35t13 35t33 13t33 -13t13 -35z" />
    <glyph glyph-name="uni0408" unicode="&#x408;" horiz-adv-x="487" 
d="M272 118q0 -92 -41 -150t-125 -72q-59 -6 -125 16q10 32 16 48q56 -16 103 -7q55 13 82 53.5t27 115.5v48v520h63v-572z" />
    <glyph glyph-name="uni040A" unicode="&#x40a;" horiz-adv-x="941" 
d="M451 22v313h-338v-335h-63v690h63v-306h338v306h61v-265q48 9 105 9q131 0 202.5 -57t71.5 -167q0 -108 -69 -163t-197 -55q-105 0 -174 30zM826 208q0 87 -54.5 131t-150.5 44q-64 0 -109 -9v-317q52 -15 112 -15q202 0 202 166z" />
    <glyph glyph-name="uni040C" unicode="&#x40c;" horiz-adv-x="599" 
d="M355 949l46 -51l-171 -139l-33 38zM525 0h-36h-35q-137 202 -304 353v-353h-62v690h62v-323q204 219 287 323h71l-291 -324q80 -75 167 -178t141 -188z" />
    <glyph glyph-name="uni040D" unicode="&#x40d;" horiz-adv-x="709" 
d="M147 0h-57v693h67v-564q63 113 185.5 282.5t222.5 281.5h54v-693h-67v584q-86 -97 -216 -286t-189 -298zM216 878l46 51l158 -152l-33 -38z" />
    <glyph glyph-name="uni040E" unicode="&#x40e;" horiz-adv-x="551" 
d="M275 789q-53 0 -88.5 34t-33.5 99h43q0 -14 4 -29t23.5 -31.5t51.5 -16.5t51.5 16.5t23.5 31.5t4 29h43q2 -65 -33.5 -99t-88.5 -34zM64 -1q0 9 0.5 26t0.5 25q34 -6 65 -3q92 7 119 101q-8 12 -20.5 35.5t-15.5 28.5q-97 201 -204 478h67q61 -175 149 -366
q40 -93 52 -125q96 253 165 491h67q-71 -221 -176 -484q-42 -104 -64 -136q-46 -66 -125 -73q-32 -4 -80 2z" />
    <glyph glyph-name="uni0410" unicode="&#x410;" horiz-adv-x="612" 
d="M588 0h-67l-73 212h-294l-74 -212h-62q172 478 259 690h52q56 -136 259 -690zM432 260l-98 273q-8 22 -18 52.5t-14 38.5q-4 -6 -14 -35q-20 -59 -61.5 -172t-56.5 -157h262z" />
    <glyph glyph-name="uni0411" unicode="&#x411;" horiz-adv-x="505" 
d="M36 690h397v-49h-336v-220q55 6 100 6q133 0 207 -54.5t74 -166.5q0 -109 -71 -161.5t-197 -52.5q-105 0 -174 30v668zM413 203q0 86 -58 130.5t-160 44.5q-57 0 -98 -6v-316q47 -15 112 -15q92 0 148 38t56 124z" />
    <glyph glyph-name="uni0412" unicode="&#x412;" horiz-adv-x="511" 
d="M482 189q0 -99 -72 -148t-205 -49q-103 0 -169 28v650q68 28 168 28q112 0 179.5 -44t67.5 -129q0 -63 -34.5 -103t-88.5 -55q63 -12 108.5 -57.5t45.5 -120.5zM388 521q0 131 -185 131q-2 0 -5.5 -0.5t-4.5 -0.5h-10q-51 -1 -86 -11v-256h70q111 0 166 30t55 107z
M417 187q0 88 -59.5 120.5t-186.5 32.5h-74v-287q48 -13 110 -13q210 0 210 147z" />
    <glyph glyph-name="uni0413" unicode="&#x413;" horiz-adv-x="403" 
d="M99 641v-641h-63v690h338v-49h-275z" />
    <glyph glyph-name="uni0414" unicode="&#x414;" horiz-adv-x="695" 
d="M614 0h-537v-149h-57v197h76l222 642h54q34 -87 67 -183l78 -231l77 -228h78v-197h-58v149zM332 582l-174 -534h369l-167 534q-8 25 -12 41h-3q-1 -4 -13 -41z" />
    <glyph glyph-name="uni0415" unicode="&#x415;" horiz-adv-x="555" 
d="M451 0h-365v690h352v-49h-289v-256h259v-49h-259v-287h302v-49z" />
    <glyph glyph-name="uni0416" unicode="&#x416;" horiz-adv-x="847" 
d="M86 0h-71q54 85 141 188t167 178l-291 324h71q83 -104 287 -323v323h62v-323q204 219 287 323h71l-291 -324q80 -75 167 -178t141 -188h-71q-137 202 -304 353v-353h-62v353q-167 -151 -304 -353z" />
    <glyph glyph-name="uni0417" unicode="&#x417;" horiz-adv-x="555" 
d="M457 191q0 -99 -68.5 -151.5t-179.5 -52.5q-116 0 -185 40q1 3 20 49q62 -39 163 -39q86 0 135 38.5t49 115.5q0 157 -219 157h-42v46h48q79 0 130.5 37t51.5 105q0 56 -39.5 86.5t-105.5 30.5q-92 0 -148 -36l-21 46q69 40 172 40q91 0 149.5 -42t58.5 -120
q0 -66 -43 -109.5t-101 -54.5q75 -14 125 -58.5t50 -127.5z" />
    <glyph glyph-name="uni0418" unicode="&#x418;" horiz-adv-x="587" 
d="M529 0h-62v534l3 66q-225 -347 -354 -600h-64v690h62v-527l-3 -70q131 254 356 597h62v-690z" />
    <glyph glyph-name="uni0419" unicode="&#x419;" horiz-adv-x="709" 
d="M422 863l38 -24q-19 -41 -50.5 -62t-88.5 -21q-104 0 -132 88l40 19q25 -59 95 -59t98 59zM561 0h-62v534l3 66q-225 -347 -354 -600h-64v690h62v-527l-3 -70q131 254 356 597h62v-690z" />
    <glyph glyph-name="uni041A" unicode="&#x41a;" horiz-adv-x="599" 
d="M525 0h-36h-35q-137 202 -304 353v-353h-62v690h62v-323q204 219 287 323h71l-291 -324q80 -75 167 -178t141 -188z" />
    <glyph glyph-name="uni041B" unicode="&#x41b;" horiz-adv-x="629" 
d="M499 0q-87 267 -186 540q-8 21 -16.5 48.5t-11.5 34.5q-3 -6 -7 -16.5t-10.5 -29.5l-12.5 -36q-83 -222 -187 -541h-63q138 396 254 690h54q118 -305 253 -690h-67z" />
    <glyph glyph-name="uni041C" unicode="&#x41c;" horiz-adv-x="865" 
d="M740 0h-62q-30 406 -51 616q-1 0 -3.5 -7.5l-7.5 -23t-10 -28.5l-81.5 -220.5t-101.5 -286.5h-56q-19 61 -51 150.5l-73 199l-58 157.5q-4 11 -8.5 26t-7.5 23t-4 10q-36 -384 -53 -616h-59q39 441 68 690h31h32q131 -332 190 -504q5 -14 10 -30t7.5 -25.5t4.5 -13.5
q2 0 5 9.5t8.5 28.5t9.5 31q79 228 191 504h62q29 -249 68 -690z" />
    <glyph glyph-name="uni041D" unicode="&#x41d;" horiz-adv-x="692" 
d="M550 0h-63v335h-338v-335h-63v690h63v-306h338v306h63v-690z" />
    <glyph glyph-name="uni041E" unicode="&#x41e;" horiz-adv-x="664" 
d="M614 345q0 -164 -76 -260.5t-206 -96.5t-206 96.5t-76 260.5q0 163 76 260.5t206 97.5t206 -97.5t76 -260.5zM549 346q0 135 -55 221t-162 86t-162 -86t-55 -221t54.5 -221t162.5 -86q109 0 163 86t54 221z" />
    <glyph glyph-name="uni041F" unicode="&#x41f;" horiz-adv-x="560" 
d="M510 0h-62v641h-335v-641h-63v690h460v-690z" />
    <glyph glyph-name="uni0420" unicode="&#x420;" horiz-adv-x="592" 
d="M506 490q0 -106 -74.5 -160.5t-218.5 -47.5q-11 0 -32.5 0.5t-32.5 0.5v-283h-62v670q68 28 164 28q127 0 191.5 -54.5t64.5 -153.5zM442 491q0 82 -51.5 121t-141.5 39q-51 0 -101 -12v-308q10 0 30 -0.5t30 -0.5q234 -12 234 161z" />
    <glyph glyph-name="uni0421" unicode="&#x421;" horiz-adv-x="552" 
d="M502 28q-20 -15 -66 -27.5t-102 -12.5q-126 0 -205 98t-79 259q0 158 81.5 258t203.5 100q104 0 161 -41l-19 -47q-55 37 -131 37q-135 0 -195 -126q-35 -74 -35 -181q0 -108 36.5 -185t106.5 -106q36 -15 81 -15q82 0 144 35z" />
    <glyph glyph-name="uni0422" unicode="&#x422;" horiz-adv-x="469" 
d="M449 641h-183v-641h-63v641h-183v49h429v-49z" />
    <glyph glyph-name="uni0423" unicode="&#x423;" horiz-adv-x="551" 
d="M64 -1q0 9 0.5 26t0.5 25q34 -6 65 -3q92 7 119 101q-8 12 -20.5 35.5t-15.5 28.5q-97 201 -204 478h67q61 -175 149 -366q40 -93 52 -125l65 179q40 111 100 312h67q-71 -221 -176 -484q-42 -104 -64 -136q-46 -66 -125 -73q-32 -4 -80 2z" />
    <glyph glyph-name="uni0424" unicode="&#x424;" horiz-adv-x="860" 
d="M424 -41h-62v81q-132 -9 -223 76.5t-91 240.5q0 154 91 240.5t223 77.5v70h62v-70q132 9 223 -77t91 -240q0 -156 -91 -241.5t-223 -76.5v-81zM424 628v-539q118 -7 183 65t65 204q0 123 -64.5 197t-183.5 73zM362 89v539q-119 7 -183.5 -67t-64.5 -204q0 -123 65 -196
t183 -72z" />
    <glyph glyph-name="uni0425" unicode="&#x425;" horiz-adv-x="608" 
d="M523 0h-35h-35q-53 108 -178 316q-119 -193 -182 -316h-64q55 106 212 361l-195 329h70l160 -282h1l167 282h64l-197 -325q150 -244 212 -365z" />
    <glyph glyph-name="uni0426" unicode="&#x426;" horiz-adv-x="693" 
d="M546 49h68v-197h-61v148h-467v690h63v-641h335v641h62v-641z" />
    <glyph glyph-name="uni0427" unicode="&#x427;" horiz-adv-x="609" 
d="M488 0h-63v288q-54 -27 -150 -27q-121 0 -169.5 61t-48.5 164v204h62v-204q0 -173 160 -173q103 0 146 31v346h63v-690z" />
    <glyph glyph-name="uni0428" unicode="&#x428;" horiz-adv-x="966" 
d="M803 0h-717v690h63v-641h264v641h63v-641h265v641h62v-690z" />
    <glyph glyph-name="uni0429" unicode="&#x429;" horiz-adv-x="974" 
d="M803 0h-717v690h63v-641h264v641h63v-641h264v641h63v-641h61v-197h-61v148z" />
    <glyph glyph-name="uni042A" unicode="&#x42a;" horiz-adv-x="707" 
d="M-7 690h209v-265q49 9 106 9q131 0 202 -57t71 -167q0 -108 -69 -163t-196 -55q-105 0 -174 30v619h-149v49zM517 208q0 87 -54.5 131t-150.5 44q-65 0 -110 -9v-317q54 -15 113 -15q202 0 202 166z" />
    <glyph glyph-name="uni042B" unicode="&#x42b;" horiz-adv-x="822" 
d="M86 690h61v-265q48 9 103 9q130 0 200.5 -57t70.5 -167q0 -108 -68.5 -163t-194.5 -55q-103 0 -172 30v668zM457 208q0 87 -54.5 131t-148.5 44q-24 0 -58 -2q-34 -4 -49 -7v-317q52 -15 110 -15q200 0 200 166zM668 0h-62v690h62v-690z" />
    <glyph glyph-name="uni042C" unicode="&#x42c;" horiz-adv-x="596" 
d="M86 690h61v-265q48 9 105 9q131 0 202.5 -57t71.5 -167q0 -108 -69 -163t-197 -55q-105 0 -174 30v668zM461 208q0 87 -54.5 131t-150.5 44q-64 0 -109 -9v-317q52 -15 112 -15q202 0 202 166z" />
    <glyph glyph-name="uni042D" unicode="&#x42d;" horiz-adv-x="604" 
d="M423 335h-263v50h261q-8 120 -64.5 193.5t-157.5 73.5q-82 0 -137 -34l-17 46q57 39 162 39q125 0 203.5 -99t78.5 -259q0 -162 -79 -259.5t-208 -97.5q-50 0 -93 11.5t-65 26.5l18 46q56 -33 134 -33q46 0 82 15q70 28 106.5 103t38.5 178z" />
    <glyph glyph-name="uni042E" unicode="&#x42e;" horiz-adv-x="1012" 
d="M818 345q0 -164 -74.5 -260.5t-201.5 -96.5q-125 0 -199 94t-76 253h-118v-335h-63v690h63v-306h119q9 146 82.5 232.5t191.5 86.5q127 0 201.5 -97.5t74.5 -260.5zM753 346q0 135 -53 221t-158 86q-104 0 -157 -86t-53 -221q0 -136 52 -221.5t158 -85.5q72 0 120.5 42.5
t69.5 109.5t21 155z" />
    <glyph glyph-name="uni042F" unicode="&#x42f;" horiz-adv-x="614" 
d="M89 0h-70q99 162 217 318q-20 4 -38 12q-58 10 -97 44t-50 91q-8 39 -2 76q13 75 77 116t169 41q92 0 158 -25v-673h-61v314h-57q-14 -12 -44.5 -32.5t-34.5 -23.5q-79 -106 -167 -258zM107 504q0 -80 52 -112.5t154 -32.5q35 0 79 4v278q-23 6 -41 8q-24 3 -56 3
q-86 0 -137 -35.5t-51 -112.5z" />
    <glyph glyph-name="uni0430" unicode="&#x430;" horiz-adv-x="457" 
d="M407 346v-326q-62 -30 -177 -30q-91 0 -140.5 40t-49.5 117q0 82 59 125t160 51q26 2 38 2q23 0 52 -3q0 87 -26.5 127.5t-101.5 40.5q-74 0 -125 -28l-12 46q55 31 142 31q181 0 181 -193zM349 50v227q-50 4 -94 1q-73 -10 -114 -38.5t-41 -92.5q0 -112 139 -112
q65 0 110 15z" />
    <glyph glyph-name="uni0431" unicode="&#x431;" horiz-adv-x="505" 
d="M403 242q0 87 -39.5 142t-126.5 55q-40 0 -75.5 -16t-55.5 -39l-1 -319q41 -28 128 -28t128.5 55.5t41.5 149.5zM50 29v427q0 50 10.5 89.5t38.5 79.5t85 66.5t140 35.5q100 11 109 14l4 -53l-125 -15q-111 -14 -157.5 -73t-46.5 -161q55 49 142 49q102 0 158.5 -67
t56.5 -180q0 -107 -57.5 -179.5t-173.5 -72.5q-130 0 -184 40z" />
    <glyph glyph-name="uni0432" unicode="&#x432;" horiz-adv-x="485" 
d="M417 563q0 -117 -97 -168q125 -49 125 -196q0 -96 -67 -152.5t-172 -56.5q-92 0 -156 29v526q0 55 15.5 95t41 61t53 30.5t58.5 9.5q99 0 149 -46.5t50 -131.5zM383 199q0 69 -40 118.5t-118 49.5q-74 0 -116 -9v-308q22 -9 60 -12q12 -1 39 -1q82 0 128.5 45t46.5 117z
M109 405q17 0 65 4.5t79 4.5q55 6 79.5 49t24.5 94q0 139 -138 139q-49 0 -79.5 -37t-30.5 -99v-103v-52z" />
    <glyph glyph-name="uni0433" unicode="&#x433;" horiz-adv-x="403" 
d="M40 137q0 58 34.5 94t108.5 64q56 21 83 44t27 63q0 41 -29.5 65t-76.5 24q-63 0 -109 -29l-16 47q46 30 125 30q74 0 119 -39.5t45 -100.5q0 -52 -32.5 -87t-103.5 -63q-66 -26 -90 -48t-24 -66q0 -45 33.5 -70t89.5 -25q85 0 122 31q3 -8 8.5 -24.5t8.5 -24.5
q-50 -32 -141 -32q-81 0 -131.5 41.5t-50.5 105.5z" />
    </font>
</defs>
</svg>
