<?xml version="1.0" standalone="no"?>
<!DOCTYPE svg PUBLIC "-//W3C//DTD SVG 1.1//EN" "http://www.w3.org/Graphics/SVG/1.1/DTD/svg11.dtd" >
<svg>
<metadata>
Created by FontForge 20090622 at Mon Sep  4 15:01:59 2017
 By deploy user
Copyright (c) 2015 by Context Ltd. All rights reserved.
</metadata>
<defs>
<font id="Repo-Bold" horiz-adv-x="580" >
  <font-face 
    font-family="Repo"
    font-weight="700"
    font-stretch="normal"
    units-per-em="1000"
    panose-1="2 0 5 3 4 0 0 2 0 4"
    ascent="800"
    descent="-200"
    x-height="539"
    cap-height="708"
    bbox="-564 -324 1443 1269"
    underline-thickness="120"
    underline-position="-183"
    unicode-range="U+0009-U+FB04"
  />
<missing-glyph horiz-adv-x="538" 
d="M50 0v530h486v-530h-486zM69 74v-2q65 144 202 283q-40 18 -77 25q-72 -123 -125 -306zM348 313q-144 -73 -272 -241q178 125 340 183q-36 38 -68 58zM97 72h420q-9 58 -40 101q-216 -29 -380 -101z" />
    <glyph glyph-name="f_f" unicode="ff" horiz-adv-x="820" 
d="M602 427h-140v-435h-147v404l-39 31l-30 19l40 92l29 12q0 113 36.5 169t131.5 68q63 4 132 -13l-15 -110q-78 15 -107.5 -15t-30.5 -110h140v-112zM529 427h-140v-435h-147v404l-39 31l-30 19l40 92l29 12q0 113 36.5 169t131.5 68q63 4 132 -13l-15 -110
q-78 15 -107.5 -15t-30.5 -110h140v-112z" />
    <glyph glyph-name="f_i" unicode="fi" horiz-adv-x="666" 
d="M288 793q70 0 130 -28l-27 -123q-48 21 -93 21q-55 0 -73.5 -28.5t-18.5 -95.5h194v-127h-194v-429h-146v579q0 111 57.5 171t170.5 60zM606 539v-556h-146v556h146zM620 676q0 -40 -25 -64t-62 -24t-62.5 24t-25.5 64t25.5 64t62.5 24t62 -24t25 -64z" />
    <glyph glyph-name="f_l" unicode="fl" horiz-adv-x="721" 
d="M288 793q70 0 130 -28l-27 -123q-48 21 -93 21q-55 0 -73.5 -28.5t-18.5 -95.5h194v-127h-194v-429h-146v579q0 111 57.5 171t170.5 60zM723 59l-25 -73q-131 4 -178.5 51t-47.5 152v591h148v-553q0 -49 4.5 -78t18.5 -47t30.5 -26t49.5 -17z" />
    <glyph glyph-name="f_f_i" unicode="ffi" horiz-adv-x="1066" 
d="M288 793q74 0 139 -29l-30 -125q-51 24 -99 24q-55 0 -73.5 -28.5t-18.5 -95.5h194v-127h-194v-429h-146v579q0 111 57.5 171t170.5 60zM688 793q70 0 130 -28l-27 -123q-48 21 -93 21q-55 0 -73 -28.5t-19 -95.5h195v-127h-195v-429h-146v579q0 111 57.5 171t170.5 60z
M947 673q67 -93 67 -218q0 -61 -10 -111q-25 -30 -71 -30q-26 0 -47 7q-34 105 -34 210q0 62 10 111q33 31 85 31zM1013 279q-68 -22 -139 -22q-21 105 -21 186q0 83 21 186h118q21 -208 21 -350z" />
    <glyph glyph-name="f_f_l" unicode="ffl" horiz-adv-x="1148" 
d="M288 793q74 0 139 -29l-30 -125q-51 24 -99 24q-55 0 -73.5 -28.5t-18.5 -95.5h194v-127h-194v-429h-146v579q0 111 57.5 171t170.5 60zM688 793q70 0 130 -28l-27 -123q-48 21 -93 21q-55 0 -73 -28.5t-19 -95.5h195v-127h-195v-429h-146v579q0 111 57.5 171t170.5 60z
M1116 59l-25 -73q-131 4 -178.5 51t-47.5 152v591h148v-553q0 -49 4.5 -78t18.5 -47t30.5 -26t49.5 -17z" />
    <glyph glyph-name=".notdef" horiz-adv-x="538" 
d="M50 0v530h486v-530h-486zM69 74v-2q65 144 202 283q-40 18 -77 25q-72 -123 -125 -306zM348 313q-144 -73 -272 -241q178 125 340 183q-36 38 -68 58zM97 72h420q-9 58 -40 101q-216 -29 -380 -101z" />
    <glyph glyph-name=".null" horiz-adv-x="0" 
 />
    <glyph glyph-name=".null" horiz-adv-x="0" 
 />
    <glyph glyph-name="nonmarkingreturn" horiz-adv-x="333" 
 />
    <glyph glyph-name="CR" unicode="&#x9;" horiz-adv-x="235" 
 />
    <glyph glyph-name="space" unicode=" " horiz-adv-x="285" 
 />
    <glyph glyph-name="exclam" unicode="!" horiz-adv-x="265" 
d="M204 771l-3 -285q-1 -56 -11.5 -148.5t-12.5 -115.5h-91q-1 13 -12 110t-12 154l-3 285q32 17 72 17q39 0 73 -17zM215 71q0 -37 -23.5 -59.5t-58.5 -22.5t-59 22.5t-24 58.5t23 59.5t60 23.5q34 0 58 -23t24 -59z" />
    <glyph glyph-name="quotedbl" unicode="&#x22;" horiz-adv-x="442" 
d="M191 771q-13 -166 -32 -291h-78q-18 129 -31 291q34 17 70 17q37 0 71 -17zM392 771q-13 -162 -31 -291h-79q-20 148 -31 291q34 17 70 17q37 0 71 -17z" />
    <glyph glyph-name="numbersign" unicode="#" horiz-adv-x="679" 
d="M585 413h-103l-24 -127h109v-97h-125l-36 -197h-109l36 197h-106l-36 -197h-109l36 196h-84v98h101l25 127h-108v97h125l35 188h108q-25 -131 -34 -188h106q9 51 35 188h107l-34 -188h85v-97zM374 413h-106l-24 -127h106z" />
    <glyph glyph-name="dollar" unicode="$" horiz-adv-x="566" 
d="M498 197q0 -75 -46.5 -128.5t-130.5 -68.5l6 -129h-108q4 84 5 126q-103 5 -171 44l39 112q53 -29 115 -37q21 -3 48 -1q90 6 90 76q0 35 -25 56t-84 44q-74 31 -118.5 70.5t-49.5 107.5q-2 20 -1 30q4 72 47.5 121t122.5 64q-1 20 -2.5 60t-2.5 59h106
q-1 -19 -2.5 -57.5t-2.5 -57.5q79 -7 138 -37l-31 -106q-70 33 -134 33q-44 0 -68.5 -19.5t-24.5 -54.5q0 -25 18 -44.5t37.5 -29t68.5 -31.5q80 -34 120.5 -81.5t40.5 -120.5z" />
    <glyph glyph-name="percent" unicode="%" horiz-adv-x="879" 
d="M833 203q0 -94 -39 -154.5t-113 -60.5q-75 0 -113.5 60.5t-37.5 154.5q0 94 38.5 154.5t112.5 60.5t112.5 -60.5t39.5 -154.5zM666 762l-369 -863l-118 20l369 864zM345 495q0 -94 -38.5 -155t-113.5 -61t-113.5 61t-38.5 155t38.5 155t113.5 61t113.5 -61t38.5 -155z
M740 204q0 141 -59 141q-60 0 -58 -141q0 -142 58 -142q59 0 59 142zM252 496q0 143 -59 143q-60 0 -60 -143q0 -142 60 -142q59 0 59 142z" />
    <glyph glyph-name="ampersand" unicode="&#x26;" horiz-adv-x="684" 
d="M35 187q0 125 136 201q-55 60 -61 122q-1 17 1 45q8 73 57 113t128 40q85 0 133 -45t48 -114q0 -105 -130 -186l123 -126q26 50 38 114l107 -9q-18 -107 -61 -180q78 -87 118 -162h-131q-32 45 -61 74q-94 -83 -209 -83q-122 0 -179 58.5t-57 137.5zM156 195
q0 -40 29.5 -70t88.5 -30q77 0 133 50l-167 172q-84 -46 -84 -122zM364 545q0 28 -18 46t-51 18q-35 0 -54 -20t-19 -55q0 -57 55 -104q87 47 87 115z" />
    <glyph glyph-name="quotesingle" unicode="'" horiz-adv-x="244" 
d="M192 722l-3 -70q-3 -69 -23 -221h-87q-20 132 -24 229q0 22 -2 62q25 16 60 16q44 0 79 -16z" />
    <glyph glyph-name="parenleft" unicode="(" horiz-adv-x="336" 
d="M362 -163l-88 -54q-217 242 -217 509t217 509l88 -53q-155 -214 -155 -456q0 -243 155 -455z" />
    <glyph glyph-name="parenright" unicode=")" horiz-adv-x="336" 
d="M308 292q0 -267 -217 -509l-88 54q155 212 155 455q0 242 -155 456l44 27t44 26q217 -242 217 -509z" />
    <glyph glyph-name="asterisk" unicode="*" horiz-adv-x="489" 
d="M183 693h117q0 -83 -15 -141q91 47 131 56l36 -111q-35 -19 -140 -31q76 -70 96 -105l-93 -70q-33 34 -75 123q-45 -100 -72 -123l-95 70q6 12 19 28t22.5 25l30.5 29l24 23q-99 10 -140 31l35 110q39 -6 132 -56q-18 89 -13 142z" />
    <glyph glyph-name="plus" unicode="+" horiz-adv-x="566" 
d="M506 255h-167v-178h-116v178h-166v116h166v177h116v-177h167v-116z" />
    <glyph glyph-name="comma" unicode="," horiz-adv-x="280" 
d="M226 116q-23 -125 -119 -291l-94 25q36 102 57 239q4 36 4 40q83 22 112 22q18 0 29.5 -9.5t10.5 -25.5z" />
    <glyph glyph-name="hyphen" unicode="-" horiz-adv-x="356" 
d="M316 252h-276v112h276v-112z" />
    <glyph glyph-name="period" unicode="." horiz-adv-x="266" 
d="M220 71q0 -40 -25.5 -64.5t-63.5 -24.5t-64 24.5t-26 63.5t26.5 64.5t63.5 25.5t63 -25.5t26 -63.5z" />
    <glyph glyph-name="slash" unicode="/" horiz-adv-x="403" 
d="M391 799l120 -22l-411 -993l-119 22z" />
    <glyph glyph-name="zero" unicode="0" horiz-adv-x="566" 
d="M525 346q0 -104 -24 -184t-80.5 -131t-139.5 -51t-139.5 51t-80.5 131t-24 184q0 103 24.5 183t81 131t138.5 51q83 0 139.5 -51t80.5 -130.5t24 -183.5zM379 346q0 253 -98 253t-98 -253q0 -252 98 -252t98 252z" />
    <glyph glyph-name="one" unicode="1" horiz-adv-x="566" 
d="M403 -8h-149v529q-58 -36 -153 -52l-22 67l-2 39q150 33 221 123h105v-706z" />
    <glyph glyph-name="two" unicode="2" horiz-adv-x="566" 
d="M501 -8h-460q5 23 21 60q3 28 14.5 56.5t35 62t36.5 50.5t46.5 55.5t37.5 43.5v-1l26 31q62 74 72 126q6 24 1 48q-9 56 -71 64q-18 3 -36 2q-72 -15 -129 -50l-56 100q94 71 212 71q120 0 178.5 -55.5t58.5 -145.5q0 -53 -30 -105t-88 -116q-16 -20 -24 -29
q-65 -69 -80 -102q-17 -20 -31 -40h266v-126z" />
    <glyph glyph-name="three" unicode="3" horiz-adv-x="566" 
d="M502 203q0 -100 -72 -161.5t-199 -61.5q-120 0 -202 41l35 115q67 -36 153 -36q64 0 97 27.5t33 76.5q0 101 -139 107q-17 1 -53 1v103q37 1 74 10q95 17 95 90q0 39 -27 59t-69 20q-69 0 -137 -40l-47 104q94 53 199 53q110 0 169.5 -50t59.5 -135q0 -49 -28 -86
t-69 -57v-1q127 -50 127 -179z" />
    <glyph glyph-name="four" unicode="4" horiz-adv-x="566" 
d="M530 145h-66v-153h-142v153h-290v94q124 240 293 459h139v-450h66v-103zM324 528q-13 -13 -41 -63q-85 -135 -127 -217h166v158q0 24 1 66.5t1 55.5z" />
    <glyph glyph-name="five" unicode="5" horiz-adv-x="566" 
d="M507 205q0 -99 -71.5 -162t-196.5 -63q-123 0 -201 40l34 115q70 -36 152 -36q62 0 95.5 28t33.5 76q0 42 -23 70t-86 42.5t-166 6.5q21 189 34 376h368v-125h-253q-4 -79 -10 -144q146 -1 218 -60.5t72 -163.5z" />
    <glyph glyph-name="six" unicode="6" horiz-adv-x="566" 
d="M526 212q0 -96 -63 -164t-174 -68q-122 0 -183.5 78t-61.5 209q0 105 35.5 189t94.5 135t128.5 79.5t144.5 33.5l11.5 -56.5t11.5 -55.5q-194 -23 -253 -171q37 13 74 13q108 0 171.5 -58.5t63.5 -163.5zM381 215q0 120 -112 120q-37 0 -78 -15q-4 -44 -4 -64
q4 -164 103 -164q47 0 69 35.5t22 87.5z" />
    <glyph glyph-name="seven" unicode="7" horiz-adv-x="566" 
d="M530 699q-10 -39 -44 -161q-19 -22 -34 -48q-144 -294 -168 -498h-116l-49 9q37 142 99.5 295.5t131.5 275.5h-304v127h484z" />
    <glyph glyph-name="eight" unicode="8" horiz-adv-x="566" 
d="M523 180q0 -90 -65.5 -145t-176.5 -55q-115 0 -180 58.5t-59 147.5q3 55 32.5 95t84.5 75q-53 35 -77.5 73.5t-24.5 89.5q0 83 63.5 137.5t160.5 54.5q93 0 151 -44.5t69 -112.5q4 -16 2 -39q-4 -87 -102 -155q122 -73 122 -180zM372 525q0 34 -23.5 58t-65.5 24
q-41 0 -65.5 -24t-24.5 -59q0 -37 22 -62.5t80 -51.5q41 25 59 52t18 63zM382 177q0 43 -27 68.5t-91 56.5q-48 -28 -67.5 -56.5t-19.5 -67.5q0 -38 28.5 -64t74.5 -26q47 0 74.5 25t27.5 64z" />
    <glyph glyph-name="nine" unicode="9" horiz-adv-x="566" 
d="M518 419q0 -105 -34 -188.5t-91.5 -134.5t-128.5 -79t-150 -31q-19 103 -22 112q197 18 255 173q-35 -15 -76 -15q-109 0 -172 57.5t-63 163.5q0 96 63 164.5t173 68.5q123 0 184.5 -78t61.5 -213zM374 427q-2 173 -103 173q-47 0 -69.5 -36t-22.5 -87q0 -119 113 -119
q39 0 78 15q4 34 4 54z" />
    <glyph glyph-name="colon" unicode=":" horiz-adv-x="264" 
d="M220 429q0 -40 -25.5 -65t-63.5 -25t-64 25t-26 64q0 40 26 65t64 25q37 0 63 -25t26 -64zM220 71q0 -40 -25.5 -64.5t-63.5 -24.5t-64 24.5t-26 63.5t26.5 64.5t63.5 25.5t63 -25.5t26 -63.5z" />
    <glyph glyph-name="semicolon" unicode=";" horiz-adv-x="263" 
d="M222 429q-1 -40 -27 -65t-63 -25t-63 25t-26 64q0 40 25.5 65t63.5 25t64 -25t26 -64zM226 116q-23 -125 -119 -291l-94 25q36 102 57 239q4 36 4 40q83 22 112 22q18 0 29.5 -9.5t10.5 -25.5z" />
    <glyph glyph-name="less" unicode="&#x3c;" horiz-adv-x="566" 
d="M488 80l-431 182v103l431 182q9 -55 21 -115l-301 -118l301 -120q-11 -51 -21 -114z" />
    <glyph glyph-name="equal" unicode="=" horiz-adv-x="566" 
d="M506 473v-111l-449 -1v112h449zM506 153h-449v111h449v-111z" />
    <glyph glyph-name="greater" unicode="&#x3e;" horiz-adv-x="566" 
d="M506 262l-431 -182l-21 114l301 120l-301 118l21 115l431 -182v-103z" />
    <glyph glyph-name="question" unicode="?" horiz-adv-x="422" 
d="M396 548q0 -39 -17 -72.5t-41.5 -58.5l-49 -48.5t-41.5 -52.5t-18 -60q0 -8 -0.5 -33t-0.5 -29h-110q-7 44 -7 75q0 33 22 69.5t48.5 63t48.5 58.5t22 56q0 41 -23.5 65.5t-64.5 24.5q-49 0 -104 -32l-33 90q24 15 72 28t90 13q207 0 207 -157zM261 71q0 -37 -23.5 -59.5
t-58.5 -22.5t-59 22.5t-24 58.5t23 59.5t60 23.5q35 0 58.5 -23t23.5 -59z" />
    <glyph glyph-name="at" unicode="@" horiz-adv-x="959" 
d="M850 371q2 -115 -49.5 -206t-126.5 -101q-51 -4 -80 9t-48 50q-28 -31 -75 -46.5t-90 -8.5q-56 10 -87.5 58.5t-31.5 122.5q0 93 57 171t148 78q55 0 81 -42l8 33l71 -13l-31 -283q-5 -32 8 -51.5t40 -19.5q35 0 61 49t36 112.5t4 114.5q-12 100 -80 164.5t-169 64.5
q-137 0 -228.5 -94.5t-106.5 -240.5q-16 -162 62 -263.5t244 -101.5q146 0 232 80l23 -80q-91 -89 -255 -89q-103 0 -185 35.5t-132 96.5t-73.5 140.5t-17.5 169.5q12 199 146 321.5t326 114.5q136 -6 226.5 -101.5t92.5 -243.5zM506 177l18 166q1 28 -21.5 44.5t-54.5 12.5
q-80 -9 -93 -121q-5 -46 10.5 -85.5t51.5 -42.5q46 -7 89 26z" />
    <glyph glyph-name="A" unicode="A" horiz-adv-x="680" 
d="M665 -8h-163q-42 138 -50 160h-242q-40 -118 -53 -160h-147q154 450 257 706h140q93 -231 258 -706zM421 261l-66 203q-7 20 -14 45t-9 29q-5 -8 -16 -50q-6 -21 -75 -227h180z" />
    <glyph glyph-name="B" unicode="B" horiz-adv-x="654" 
d="M589 196q0 -213 -305 -213q-124 0 -218 31v662q95 31 211 31q134 0 209 -49t75 -145q0 -100 -99 -144q55 -20 91 -64.5t36 -108.5zM413 506q0 93 -129 93l-2 -1h-2h-8q-32 0 -57 -6v-183h48q78 0 114 21.5t36 75.5zM435 200q0 60 -41 84.5t-129 24.5h-50v-208
q40 -7 70 -7q150 0 150 106z" />
    <glyph glyph-name="C" unicode="C" horiz-adv-x="608" 
d="M547 28q-68 -48 -194 -48q-147 0 -228.5 100.5t-81.5 264.5q0 161 86 263.5t227 102.5q117 0 187 -49l-39 -111q-59 35 -128 35q-62 0 -103.5 -37t-54.5 -104q-17 -50 -15 -120q4 -84 38 -141.5t98 -69.5q31 -7 57 -4q59 3 112 30z" />
    <glyph glyph-name="D" unicode="D" horiz-adv-x="722" 
d="M627 347q0 -171 -91.5 -267.5t-262.5 -96.5q-115 0 -207 30v664q98 30 205 30q172 0 264 -94t92 -266zM471 348q0 122 -47.5 181.5t-146.5 59.5q-41 0 -58 -5v-475q13 -5 58 -5q99 0 146.5 60t47.5 184z" />
    <glyph glyph-name="E" unicode="E" horiz-adv-x="584" 
d="M489 -8h-423v706h411v-118h-257v-168h227v-117h-227v-185h269v-118z" />
    <glyph glyph-name="F" unicode="F" horiz-adv-x="550" 
d="M474 580h-254v-168h225v-118h-225v-302h-154v706h408v-118z" />
    <glyph glyph-name="G" unicode="G" horiz-adv-x="683" 
d="M590 20q-80 -40 -220 -40q-154 0 -241 97t-87 270q0 167 93 265.5t241 98.5q125 0 209 -50l-47 -110q-53 31 -131 35q-101 5 -155 -56t-54 -185q0 -116 45.5 -180.5t128.5 -64.5q52 0 70 9v170h-71v119h219v-378z" />
    <glyph glyph-name="H" unicode="H" horiz-adv-x="716" 
d="M604 -8h-153v303h-231v-303h-154v706h154v-287h231v287h153v-706z" />
    <glyph glyph-name="I" unicode="I" horiz-adv-x="286" 
d="M221 -8h-154v706h154v-706z" />
    <glyph glyph-name="J" unicode="J" horiz-adv-x="511" 
d="M336 135q0 -228 -210 -251q-74 -6 -151 24l13.5 55l14.5 60q67 -21 110 8q41 21 55.5 63t14.5 119v29v456h153v-563z" />
    <glyph glyph-name="K" unicode="K" horiz-adv-x="647" 
d="M620 -8h-131q-32 2 -46 4q-100 172 -222 314v-318h-154v706h154v-287q74 81 215 287h171l-260 -327q151 -171 273 -379z" />
    <glyph glyph-name="L" unicode="L" horiz-adv-x="536" 
d="M467 -8h-400v706h154v-587h246v-119z" />
    <glyph glyph-name="M" unicode="M" horiz-adv-x="883" 
d="M796 -8h-149q-26 419 -31 474q-1 -1 -16 -44l-138 -384h-95q-24 72 -80.5 226t-57.5 158q-14 43 -15 44q-10 -105 -31 -474h-139q35 450 65 706h145q88 -228 141 -378q24 -73 24 -74q2 0 5.5 11t9 30t9.5 29q82 223 148 382h139q27 -231 66 -706z" />
    <glyph glyph-name="N" unicode="N" horiz-adv-x="735" 
d="M627 -8h-90l-35 4q-107 184 -256 406q-7 10 -17 28l-16 28t-9 10q0 -10 1 -68t1 -89v-319h-140v706h129q124 -165 256 -372q35 -59 38 -63q0 20 -1 93t-1 111v231h140v-706z" />
    <glyph glyph-name="O" unicode="O" horiz-adv-x="706" 
d="M663 345q0 -168 -82.5 -266.5t-227.5 -98.5q-143 0 -226.5 99t-83.5 266q0 166 84 266t226 100q143 0 226.5 -99.5t83.5 -266.5zM506 348q0 108 -38.5 176t-114.5 68t-114.5 -68.5t-38.5 -175.5t38.5 -175t114.5 -68q77 0 115 67.5t38 175.5z" />
    <glyph glyph-name="P" unicode="P" horiz-adv-x="621" 
d="M568 477q0 -115 -78.5 -174.5t-233.5 -56.5h-38v-254h-152v684q95 31 208 31q148 0 221 -59.5t73 -170.5zM416 478q0 118 -139 118q-20 0 -59 -6v-232q6 0 18 -0.5t18 -0.5q84 -2 123 26t39 95z" />
    <glyph glyph-name="Q" unicode="Q" horiz-adv-x="783" 
d="M662 345q0 -122 -48.5 -209t-134.5 -127q32 -48 154 -100l-72 -111q-165 63 -209 187q-35 0 -70 8q-116 17 -178 111.5t-62 240.5q0 167 83.5 266.5t226.5 99.5t226.5 -99.5t83.5 -266.5zM505 349q0 107 -38.5 175t-114.5 68t-115 -68t-39 -175q0 -108 38.5 -176
t115.5 -68q76 0 114.5 68t38.5 176z" />
    <glyph glyph-name="R" unicode="R" horiz-adv-x="654" 
d="M606 -8h-169q-95 180 -164 281h-54v-281h-152v685q96 30 205 30q147 0 222 -58t75 -168q0 -68 -39.5 -118.5t-104.5 -67.5v-1q58 -74 181 -302zM415 478q0 65 -36.5 93t-90.5 28q-41 0 -69 -8v-231h69q57 0 92 29t35 89z" />
    <glyph glyph-name="S" unicode="S" horiz-adv-x="553" 
d="M485 193q0 -98 -67.5 -155.5t-184.5 -57.5q-133 0 -209 49l40 118q73 -42 154 -42q108 0 108 82q0 39 -30.5 62t-108.5 54q-138 62 -148 176q-3 26 0 53q11 81 73.5 130t160.5 49q108 0 188 -47l-41 -111q-65 39 -133 39q-98 0 -98 -76q0 -39 29.5 -60.5t101.5 -50.5
q90 -39 127.5 -88t37.5 -124z" />
    <glyph glyph-name="T" unicode="T" horiz-adv-x="585" 
d="M506 579h-168v-587h-153v587h-168v119h489v-119z" />
    <glyph glyph-name="U" unicode="U" horiz-adv-x="695" 
d="M587 231q0 -115 -68.5 -183.5t-194.5 -68.5q-110 0 -177.5 55t-78.5 149q-5 52 -5 96v419h153v-396q0 -105 23.5 -150.5t88.5 -45.5q46 0 75 27.5t33 82.5q3 40 3 87v395h148v-467z" />
    <glyph glyph-name="V" unicode="V" horiz-adv-x="679" 
d="M624 698q-136 -417 -245 -706h-88l-49 5q-110 289 -244 701h164l120 -402q5 -15 12 -40l12 -41.5t9 -25.5q3 7 35 110q48 149 120 399h154z" />
    <glyph glyph-name="W" unicode="W" horiz-adv-x="936" 
d="M873 698q-80 -391 -168 -706h-137l-106 353q-4 15 -10 41t-9 33q-2 -5 -4.5 -16.5l-6.5 -28.5l-7 -29l-106 -353h-136q-80 280 -168 706h156q40 -224 73 -390q3 -16 8 -39.5t8 -39.5t6 -26q2 3 5.5 16.5l9.5 35l9 32.5l99 372h118q62 -244 98 -368l8 -32.5t8.5 -33.5
t6.5 -21q2 4 4 14.5t5 28l5 28.5q32 150 83 423h148z" />
    <glyph glyph-name="X" unicode="X" horiz-adv-x="650" 
d="M625 -8h-135q-8 1 -21.5 2.5t-20.5 1.5q-50 109 -127 241q-83 -142 -133 -245h-164q73 138 213 365l-200 341h173l117 -219h1l124 219h161l-201 -332q120 -191 213 -374z" />
    <glyph glyph-name="Y" unicode="Y" horiz-adv-x="621" 
d="M583 698q-113 -228 -220 -418v-288h-152v287q-101 181 -220 419h169q61 -144 132 -281q73 142 134 281h157z" />
    <glyph glyph-name="Z" unicode="Z" horiz-adv-x="588" 
d="M502 -8h-484v103q31 68 80 153l111.5 186l88.5 146h-260v118h461v-90q-25 -53 -133.5 -230t-153.5 -268h290v-118z" />
    <glyph glyph-name="bracketleft" unicode="[" horiz-adv-x="344" 
d="M338 -208h-267v1000h267v-103h-131v-793h131v-104z" />
    <glyph glyph-name="backslash" unicode="\" horiz-adv-x="403" 
d="M512 -194l-121 -22l-410 992l119 23z" />
    <glyph glyph-name="bracketright" unicode="]" horiz-adv-x="344" 
d="M282 -208h-267v104h131v793h-131v103h267v-1000z" />
    <glyph glyph-name="asciicircum" unicode="^" horiz-adv-x="566" 
d="M540 400l-91 -58l-155 221l-156 -221l-90 58l166 255q23 32 52 49q47 0 88 -16l45.5 -74.5l44 -68.5l50 -75.5z" />
    <glyph glyph-name="underscore" unicode="_" horiz-adv-x="557" 
d="M557 -210h-557v111h557v-111z" />
    <glyph glyph-name="grave" unicode="`" horiz-adv-x="281" 
d="M268 576h-102l-159 202h178z" />
    <glyph glyph-name="a" unicode="a" horiz-adv-x="534" 
d="M477 15q-83 -33 -218 -33q-230 0 -230 176q0 169 251 185q25 1 55 -1q-2 48 -23 73t-72 25q-74 0 -144 -31l-26 106q86 35 189 35q195 0 215 -168q3 -32 3 -65v-302zM336 92v158q-46 0 -58 -1q-50 -5 -78 -24.5t-28 -62.5q0 -78 96 -78q44 0 68 8z" />
    <glyph glyph-name="b" unicode="b" horiz-adv-x="595" 
d="M543 273q0 -138 -73 -215t-205 -77q-124 0 -205 36v763h147v-254q50 22 105 22q106 0 168.5 -75t62.5 -200zM395 269q0 171 -113 171q-41 0 -75 -19v-323q18 -7 63 -7q61 0 93 46.5t32 131.5z" />
    <glyph glyph-name="c" unicode="c" horiz-adv-x="482" 
d="M433 17q-58 -37 -147 -37q-118 0 -183.5 76.5t-65.5 209.5q0 129 68 206.5t178 77.5q84 0 145 -36q-13 -45 -32 -103q-46 24 -91 24q-59 0 -89 -44t-30 -124q0 -168 123 -168q47 0 96 26z" />
    <glyph glyph-name="d" unicode="d" horiz-adv-x="595" 
d="M520 23q-84 -42 -211 -42t-199.5 74t-72.5 207q0 131 66 208t177 77q51 0 93 -17v250h147v-757zM373 101v324q-34 15 -67 15q-121 0 -121 -173q0 -83 32.5 -129t93.5 -46q37 0 62 9z" />
    <glyph glyph-name="e" unicode="e" horiz-adv-x="568" 
d="M519 237l-333 -23q17 -117 137 -117q81 0 145 31l27 -109q-76 -39 -187 -39q-132 0 -201.5 77t-69.5 208q0 133 69.5 209t179.5 76q102 0 162.5 -59.5t68.5 -172.5q0 -9 1 -35t1 -46zM377 323q-5 119 -94 119q-46 0 -73.5 -36t-28.5 -99z" />
    <glyph glyph-name="f" unicode="f" horiz-adv-x="423" 
d="M368 427h-140v-435h-147v435h-60v112h60v31q0 105 37 158t131 59q63 4 132 -13l-15 -110q-78 15 -107.5 -15t-30.5 -110h140v-112z" />
    <glyph glyph-name="g" unicode="g" horiz-adv-x="585" 
d="M513 22q0 -238 -252 -238q-108 0 -196 37l33 114q56 -26 119 -32q53 -2 85 16q67 18 67 85v20q-42 -21 -100 -21q-105 0 -168.5 69.5t-63.5 193.5q0 130 71.5 206.5t201.5 76.5q122 0 203 -36v-491zM368 128v306q-19 8 -61 8q-61 0 -91.5 -45t-30.5 -127q0 -161 112 -161
q42 0 71 19z" />
    <glyph glyph-name="h" unicode="h" 
d="M518 -8h-147v278q0 39 -1 58t-5.5 44.5t-13.5 36.5t-27 19.5t-44 8.5q-42 0 -72 -14v-431h-148v788h148v-252q42 18 84 18q60 3 103 -10.5t66.5 -35t36.5 -58t16.5 -69.5t3.5 -80v-301z" />
    <glyph glyph-name="i" unicode="i" horiz-adv-x="266" 
d="M219 684q0 -34 -24.5 -56.5t-59.5 -22.5t-59.5 22.5t-24.5 56.5q0 35 24.5 57.5t59.5 22.5t59.5 -22.5t24.5 -57.5zM209 -8h-148v547h148v-547z" />
    <glyph glyph-name="j" unicode="j" horiz-adv-x="266" 
d="M220 684q0 -34 -24.5 -56.5t-59.5 -22.5t-59.5 22.5t-24.5 56.5q0 35 24.5 57.5t59.5 22.5t59.5 -22.5t24.5 -57.5zM210 35q0 -105 -46 -165.5t-132 -73.5q-34 -9 -88 -1l10 91q57 13 82 42.5t26 97.5v513h148v-504z" />
    <glyph glyph-name="k" unicode="k" horiz-adv-x="542" 
d="M548 -8h-167l-46 75t-73 112t-53 59v-246h-147v788h147v-452q112 141 162 211h164l-204 -247q115 -130 217 -300z" />
    <glyph glyph-name="l" unicode="l" horiz-adv-x="341" 
d="M312 59l-25 -73q-131 4 -178.5 51t-47.5 152v591h148v-553q0 -49 4.5 -78t18.5 -47t30.5 -26t49.5 -17z" />
    <glyph glyph-name="m" unicode="m" horiz-adv-x="862" 
d="M811 -8h-148v279q0 39 -0.5 57t-4.5 43.5t-12.5 37t-24.5 20t-40 8.5q-45 0 -77 -26q5 -47 5 -151v-268h-147v280q0 39 -1 59t-5.5 44t-13.5 35t-25.5 19t-41.5 8q-40 0 -67 -9v-436h-148v521q104 37 220 37q104 0 158 -52q72 51 169 51q53 0 91 -14t59.5 -36t34 -57.5
t16 -69t3.5 -79.5v-301z" />
    <glyph glyph-name="n" unicode="n" 
d="M518 -8h-147v279q0 32 -0.5 47.5t-3 39t-8 34.5t-15.5 23.5t-26 17t-39 4.5q-40 0 -71 -9v-436h-148v515q76 42 226 42q51 0 89.5 -8.5t63.5 -26.5t41 -39.5t24 -53t11 -60.5t3 -68v-301z" />
    <glyph glyph-name="o" unicode="o" horiz-adv-x="596" 
d="M537 265q0 -128 -67 -206.5t-183 -78.5q-115 0 -182.5 78.5t-67.5 206.5q0 127 68 206t182 79q115 0 182.5 -78.5t67.5 -206.5zM388 266q0 78 -25 125t-76 47q-52 0 -77 -47t-25 -125t25 -124t77 -46t76.5 46t24.5 124z" />
    <glyph glyph-name="p" unicode="p" horiz-adv-x="595" 
d="M543 267q0 -130 -65 -207t-178 -77q-57 0 -93 17v-208h-147v721q88 36 211 36q126 0 199 -74.5t73 -207.5zM395 265q0 174 -126 174q-42 0 -62 -7v-325q32 -15 67 -15q121 0 121 173z" />
    <glyph glyph-name="q" unicode="q" horiz-adv-x="595" 
d="M520 -208h-147v212q-46 -22 -104 -22q-107 0 -169.5 74.5t-62.5 200.5q0 133 71 212.5t206 79.5q117 0 206 -36v-721zM373 111v321q-23 9 -63 9q-61 0 -93 -46.5t-32 -132.5q0 -170 114 -170q44 0 74 19z" />
    <glyph glyph-name="r" unicode="r" horiz-adv-x="401" 
d="M376 536q-8 -35 -26 -107q-36 9 -70 9q-46 0 -72 -11v-435h-148v516q88 37 197 40q56 2 119 -12z" />
    <glyph glyph-name="s" unicode="s" horiz-adv-x="460" 
d="M411 149q0 -77 -57.5 -123t-157.5 -46q-105 0 -172 39l33 111q64 -35 129 -35q35 0 55.5 14t20.5 38t-21.5 40.5t-78.5 39.5q-65 28 -94.5 65t-29.5 92q0 74 53 120t141 46q89 0 161 -35l-33 -105q-56 29 -109 29q-32 0 -50 -13t-18 -36q0 -24 16.5 -36.5t61.5 -33.5
q12 -5 18 -8q71 -31 101.5 -68.5t30.5 -94.5z" />
    <glyph glyph-name="t" unicode="t" horiz-adv-x="449" 
d="M398 7q-45 -20 -99 -23q-48 -2 -83 9.5t-55.5 30.5t-33.5 50t-17.5 59.5t-6.5 68.5q-2 118 -2 224h-70v111h70v143h148v-141h137v-112h-137v-218q0 -59 11 -83t46 -27q41 -3 80 15z" />
    <glyph glyph-name="u" unicode="u" 
d="M512 25q-68 -44 -226 -44q-125 0 -177 60.5t-52 177.5v320h148v-277q0 -36 1 -56.5t6 -44.5t14 -36t25.5 -20.5t41.5 -8.5q43 0 71 11v432h148v-514z" />
    <glyph glyph-name="v" unicode="v" horiz-adv-x="519" 
d="M516 539q-78 -265 -190 -547h-94q-6 0 -19.5 1.5t-20.5 2.5q-107 267 -189 543h157q37 -150 85 -306q3 -12 7 -29.5l6.5 -28t4.5 -14.5q2 1 5 10.5t7.5 30t7.5 31.5q55 177 88 306h145z" />
    <glyph glyph-name="w" unicode="w" horiz-adv-x="780" 
d="M783 539q-83 -307 -167 -547h-126q-59 192 -81 270q-3 11 -5.5 25.5t-4.5 24.5t-4 14q-54 -208 -94 -334h-127q-86 247 -166 547h151q27 -129 73 -304q3 -12 5.5 -28t4.5 -24.5t4 -12.5l10 40q14 57 44 169l42 160h118q13 -61 42.5 -173t39.5 -154q9 -39 10 -42
q2 1 4 10.5t5 26t6 27.5q37 132 75 305h141z" />
    <glyph glyph-name="x" unicode="x" horiz-adv-x="530" 
d="M523 -8h-162q-47 92 -103 183q-11 -12 -27.5 -38.5t-29 -49.5l-29.5 -55l-21 -40h-151q76 135 177 283l-97 153l-71 111h161l94 -161h1l97 161h149l-169 -257q112 -167 181 -290z" />
    <glyph glyph-name="y" unicode="y" horiz-adv-x="540" 
d="M523 539q-96 -332 -202 -617q-25 -58 -56.5 -84t-83.5 -26q-44 0 -119 29l30 98q39 -18 56 -18q8 0 14.5 2.5t11.5 8.5l9 10.5t7.5 14.5t5.5 15t5 16.5t4 14.5q-109 265 -190 536h156q34 -143 83 -298l23 -85l22 85q30 100 80 298h144z" />
    <glyph glyph-name="z" unicode="z" horiz-adv-x="480" 
d="M432 -8h-410v90q32 57 112 182.5t102 162.5h-198v112h389v-81l-55 -83q-111 -165 -170 -272h230v-111z" />
    <glyph glyph-name="braceleft" unicode="{" horiz-adv-x="348" 
d="M355 -166q-130 0 -183.5 49t-53.5 165v106q0 58 -20 83t-69 26v91q44 10 66.5 31t22.5 66v140q0 108 55.5 153.5t181.5 45.5v-98q-57 0 -80 -18t-24 -66v-157q0 -104 -76 -137q34 -7 55 -48t21 -93v-158q0 -47 24 -64.5t80 -17.5v-99z" />
    <glyph glyph-name="bar" unicode="|" horiz-adv-x="296" 
d="M200 -208h-129v1000h129v-1000z" />
    <glyph glyph-name="braceright" unicode="}" horiz-adv-x="348" 
d="M344 272q-44 -11 -65.5 -32t-21.5 -66v-141q0 -108 -56 -153.5t-182 -45.5v99q60 0 82 20t22 74v146q0 107 77 140l-1 1q-76 33 -76 137v113q0 79 -18 103.5t-86 24.5v98q128 0 183 -45.5t55 -153.5v-140q0 -86 87 -88v-91z" />
    <glyph glyph-name="asciitilde" unicode="~" horiz-adv-x="566" 
d="M542 364q-13 -54 -47.5 -92t-92.5 -40q-46 -3 -111 35.5t-97 36.5q-49 -3 -72 -78l-77 62q38 129 139 133q37 2 75 -17t71.5 -38t60.5 -17q51 4 74 76z" />
    <glyph glyph-name="uni00A0" unicode="&#xa0;" horiz-adv-x="235" 
 />
    <glyph glyph-name="exclamdown" unicode="&#xa1;" horiz-adv-x="281" 
d="M217 4v-203h-153v203q0 133 24 308h18h69h19q23 -182 23 -308zM233 456q0 -42 -24 -67.5t-69 -25.5q-38 0 -65.5 26.5t-27.5 66.5q0 42 27 67t66 25t66 -25t27 -67z" />
    <glyph glyph-name="cent" unicode="&#xa2;" horiz-adv-x="566" 
d="M242 -126v149q-92 23 -139.5 94.5t-47.5 174.5q0 97 50.5 170t136.5 98v149h139v-140q48 -4 109 -29l-35 -124q-48 21 -95 25q-16 2 -44 0q-54 -7 -82.5 -45.5t-28.5 -103.5q0 -134 115 -147q24 -3 48 -2q54 4 106 28l23 -127q-50 -23 -116 -29v-141h-139z" />
    <glyph glyph-name="sterling" unicode="&#xa3;" horiz-adv-x="566" 
d="M266 463v-65h181v-126h-181l-2 -29q0 -68 -10 -131h277v-129h-442q27 139 31 260l1 29h-90v126h91v55q0 149 63 209.5t178 60.5q73 0 157 -37l-39 -124q-60 30 -115 30q-50 0 -75 -28t-25 -101z" />
    <glyph glyph-name="currency" unicode="&#xa4;" horiz-adv-x="566" 
d="M534 166l-73 -72l-73 74q-47 -30 -107 -30q-58 0 -106 30l-74 -73l-72 71l74 72q-31 47 -31 107q0 61 31 107l-74 72l72 71l74 -73q47 29 106 29q61 0 107 -29l74 73l72 -71l-73 -72q29 -46 29 -107t-29 -107zM380 345q0 43 -28.5 72t-70.5 29q-41 0 -69.5 -29t-28.5 -72
q0 -44 28.5 -72.5t69.5 -28.5q42 0 70.5 28.5t28.5 72.5z" />
    <glyph glyph-name="yen" unicode="&#xa5;" horiz-adv-x="566" 
d="M357 -17h-147v113h-154v107h154v66h-154v107h109q-111 186 -180 334h162q75 -166 139 -273q65 117 135 273h164q-67 -139 -184 -334h111v-107h-155v-66h155v-107h-155v-113z" />
    <glyph glyph-name="brokenbar" unicode="&#xa6;" horiz-adv-x="284" 
d="M72 -202v422h140v-422h-140zM72 378v422h140v-422h-140z" />
    <glyph glyph-name="section" unicode="&#xa7;" horiz-adv-x="500" 
d="M487 260q0 -87 -95 -151q57 -49 58 -116q2 -76 -52.5 -121.5t-150.5 -45.5q-108 0 -185 43l33 96q46 -19 121 -26q35 0 58 13q35 11 35 35q0 21 -16 38.5t-60 38.5q-50 28 -79 47.5t-57 46.5t-40 58.5t-12 71.5q0 89 94 157q-43 42 -46 102q-5 71 48 117t144 46t167 -38
l-34 -101q-51 25 -100 29q-28 1 -52 -8q-36 -9 -36 -38q0 -22 14 -38t53 -36q13 -10 14 -11q97 -53 136.5 -95.5t39.5 -113.5zM359 247q0 24 -15.5 45.5t-30.5 33t-49 31.5t-45 28q-44 -30 -51 -68v-19q1 -15 8 -29.5t14.5 -24t25.5 -23t26.5 -18.5l33.5 -19t31 -17
q52 32 52 80z" />
    <glyph glyph-name="dieresis" unicode="&#xa8;" horiz-adv-x="460" 
d="M199 693q0 -37 -23 -59t-57 -22t-57 22t-23 59q0 36 23 58t57 22t57 -22t23 -58zM422 693q0 -36 -23.5 -58.5t-57.5 -22.5q-33 0 -56.5 22.5t-23.5 58.5t23.5 58t56.5 22q34 0 57.5 -22t23.5 -58z" />
    <glyph glyph-name="copyright" unicode="&#xa9;" horiz-adv-x="906" 
d="M855 345q0 -182 -116.5 -296t-284.5 -114t-284.5 114t-116.5 296t116.5 296t284.5 114t284.5 -114t116.5 -296zM755 346q0 149 -87.5 231t-213.5 82t-214 -82t-88 -231q0 -148 86.5 -233t215.5 -89q124 0 212.5 86t88.5 236zM582 233l45 -62q-70 -61 -163 -61
q-98 0 -161.5 66.5t-63.5 169.5q0 102 64.5 166.5t161.5 64.5q90 0 157 -63l-53 -64q-42 41 -104 41q-56 0 -89.5 -41t-33.5 -104t38 -107.5t95 -44.5q22 0 42 6.5t30 11.5t35 21z" />
    <glyph glyph-name="ordfeminine" unicode="&#xaa;" horiz-adv-x="426" 
d="M218 398q30 0 46 3v78q-24 2 -42 2q-64 0 -64 -40q0 -21 13 -32t47 -11zM210 723q98 0 135 -45t37 -132v-224q-92 -20 -168 -20q-177 0 -177 136q0 68 54.5 100.5t135.5 32.5q16 0 37 -3v7q0 25 -21 41.5t-61 15.5q-49 -3 -92 -17l-17 87q65 21 137 21z" />
    <glyph glyph-name="guillemotleft" unicode="&#xab;" horiz-adv-x="533" 
d="M508 119l-96 -52l-161 242l161 241l30.5 -16l35.5 -18.5l30 -16.5l-116 -190zM280 119q-17 -10 -49 -27t-46 -25l-161 242l161 241l95 -51l-115 -190z" />
    <glyph glyph-name="logicalnot" unicode="&#xac;" horiz-adv-x="566" 
d="M506 82h-117v202h-332v112h449v-314z" />
    <glyph glyph-name="uni00AD" unicode="&#xad;" horiz-adv-x="322" 
d="M24 248v111h280v-111h-280z" />
    <glyph glyph-name="registered" unicode="&#xae;" horiz-adv-x="909" 
d="M855 345q0 -182 -116.5 -296t-284.5 -114t-284.5 114t-116.5 296t116.5 296t284.5 114t284.5 -114t116.5 -296zM755 346q0 149 -87.5 231t-213.5 82t-214 -82t-88 -231q0 -148 86.5 -233t215.5 -89q124 0 212.5 86t88.5 236zM643 125h-108q-59 113 -105 179h-34v-179h-97
v437q62 19 131 19q189 0 189 -144q0 -44 -25 -76t-67 -43v-1q35 -44 116 -192zM521 435q0 41 -23.5 59t-57.5 18q-22 0 -44 -5v-147h44q36 0 58.5 18.5t22.5 56.5z" />
    <glyph glyph-name="macron" unicode="&#xaf;" horiz-adv-x="376" 
d="M353 618h-330v115h330v-115z" />
    <glyph glyph-name="degree" unicode="&#xb0;" horiz-adv-x="343" 
d="M350 588q0 -69 -47 -114t-114 -45t-113.5 45t-46.5 114t46.5 114t113.5 45t114 -45t47 -114zM257 588q0 30 -19.5 50t-48.5 20q-28 0 -48 -20t-20 -50t20 -49.5t48 -19.5q29 0 48.5 19.5t19.5 49.5z" />
    <glyph glyph-name="plusminus" unicode="&#xb1;" horiz-adv-x="566" 
d="M506 345h-167v-178h-116v178h-166v116h166v177h116v-177h167v-116zM35 0v125h496v-125h-496z" />
    <glyph glyph-name="twosuperior" unicode="&#xb2;" horiz-adv-x="361" 
d="M316 592q0 -31 -15 -59t-30 -43t-45 -40q-27 -21 -34.5 -31t-10.5 -22h149v-105h-302q-2 21 -2 41q0 53 27.5 93t83.5 89l30.5 26.5t18 21.5t8.5 24q0 28 -32 28q-41 0 -97 -46l-59 88q76 68 161 68q149 0 149 -133z" />
    <glyph glyph-name="threesuperior" unicode="&#xb3;" horiz-adv-x="361" 
d="M148 391q61 0 61 34q0 21 -21 32.5t-53 11.5h-46v78h29q27 0 50 14t23 34q0 13 -17 19q-19 5 -66 -8q-29 -4 -53 -19l-43 91q69 47 146 47q136 0 148 -103q2 -17 -1 -31q-5 -40 -38 -66q51 -28 59 -88q2 -15 0 -32q-6 -55 -48.5 -88t-127.5 -33q-78 0 -140 32l26 103
q67 -28 112 -28z" />
    <glyph glyph-name="acute" unicode="&#xb4;" horiz-adv-x="318" 
d="M134 597h-102l83 202h177z" />
    <glyph glyph-name="mu" unicode="&#xb5;" horiz-adv-x="586" 
d="M518 18q-89 -36 -202 -36q-63 0 -111 28q2 -40 2 -121v-92h-147v742h148v-343q7 -55 24.5 -79.5t63.5 -24.5q44 0 75 11v436h147v-521z" />
    <glyph glyph-name="paragraph" unicode="&#xb6;" horiz-adv-x="669" 
d="M254 696q79 3 164 3h124v-907h-115v813h-87v-813h-115v480q-96 14 -148.5 67.5t-52.5 143.5q0 96 62.5 150t167.5 63z" />
    <glyph glyph-name="periodcentered" unicode="&#xb7;" horiz-adv-x="246" 
d="M219 314q0 -40 -26 -64.5t-64 -24.5q-37 0 -63 24.5t-26 63.5q0 40 26 65t63 25q38 0 64 -25t26 -64z" />
    <glyph glyph-name="cedilla" unicode="&#xb8;" horiz-adv-x="348" 
d="M232 -32q54 -32 54 -86q0 -48 -35 -76.5t-102 -28.5q-47 0 -100 17l21 101q23 -8 56 -12q28 -2 34 11q-11 13 -57 28q18 57 52 115h112q-18 -33 -35 -69z" />
    <glyph glyph-name="onesuperior" unicode="&#xb9;" horiz-adv-x="361" 
d="M67 530l-29 88q84 36 151 99h88v-425h-121v274q-34 -18 -89 -36z" />
    <glyph glyph-name="ordmasculine" unicode="&#xba;" horiz-adv-x="509" 
d="M474 502q0 -103 -61.5 -165.5t-158.5 -62.5q-96 0 -157.5 62.5t-61.5 165.5q0 104 61.5 167t157.5 63q97 0 158.5 -63t61.5 -167zM341 502q0 52 -23 82.5t-64 30.5q-40 0 -63 -30.5t-23 -82.5q0 -51 23 -81t63 -30q41 0 64 30t23 81z" />
    <glyph glyph-name="guillemotright" unicode="&#xbb;" horiz-adv-x="533" 
d="M519 309l-161 -242l-96 52l115 190l-115 190l96 51zM293 309l-161 -242l-96 52l115 190l-115 190l96 51z" />
    <glyph glyph-name="onequarter" unicode="&#xbc;" horiz-adv-x="919" 
d="M839 157h48v-82h-48v-91h-110v91h-187v77q84 150 197 258h100v-253zM183 -17l414 727h144l-413 -727h-145zM628 157h103v141q-55 -58 -103 -141zM73 530l-28 88q84 36 151 99h87v-425h-121v274q-33 -18 -89 -36z" />
    <glyph glyph-name="onehalf" unicode="&#xbd;" horiz-adv-x="959" 
d="M67 530l-29 88q84 36 151 99h88v-425h-121v274q-34 -18 -89 -36zM191 -17l391 727h144l-390 -727h-145zM909 285q0 -31 -14.5 -59t-31 -44t-45.5 -39q-39 -32 -44 -53h149v-105h-303q-2 21 -2 41q0 53 27.5 92.5t84.5 89.5h-1q23 19 31.5 27t17.5 21t9 24q0 28 -33 28
q-41 0 -97 -46l-59 88q76 68 161 68q150 0 150 -133z" />
    <glyph glyph-name="threequarters" unicode="&#xbe;" horiz-adv-x="942" 
d="M212 -17l419 727h144l-418 -727h-145zM204 596q-3 17 -23.5 20.5t-34.5 -0.5q-22 -1 -64 -29l-43 91q69 47 146 47q137 0 148 -105q2 -17 -1 -29q-4 -39 -38 -66q51 -28 59 -88q2 -14 0 -30q-5 -56 -48 -89.5t-129 -33.5q-77 0 -139 32l26 103q67 -28 112 -28q61 0 61 34
q0 39 -100 39h-20v78q34 0 53.5 7t24.5 29q15 9 10 18zM862 157h49v-82h-49v-91h-109v91h-188v77q84 150 197 258h100v-253zM651 157h103v141q-53 -58 -103 -141z" />
    <glyph glyph-name="questiondown" unicode="&#xbf;" horiz-adv-x="422" 
d="M162 -24q0 -55 78 -55q60 0 140 42l44 -118q-89 -54 -196 -54q-61 0 -106 16.5t-68 44t-33.5 56.5t-10.5 60q0 49 26.5 93t58 72t58 64.5t26.5 72.5q0 13 -4 38h38h57h34q7 -26 7 -57q0 -46 -23.5 -88.5t-51 -68.5t-51 -58t-23.5 -60zM332 474q0 -45 -26 -71.5t-67 -26.5
q-42 0 -67.5 26.5t-25.5 71.5q0 42 27 67t66 25t66 -25.5t27 -66.5z" />
    <glyph glyph-name="Agrave" unicode="&#xc0;" horiz-adv-x="686" 
d="M665 -8h-163q-42 138 -50 160h-242q-40 -118 -53 -160h-147q154 450 257 706h140q93 -231 258 -706zM421 261l-66 203q-7 20 -14 45t-9 29q-5 -8 -16 -50q-6 -21 -75 -227h180zM371 758h-102l-159 202h178z" />
    <glyph glyph-name="Aacute" unicode="&#xc1;" horiz-adv-x="686" 
d="M665 -8h-163q-42 138 -50 160h-242q-40 -118 -53 -160h-147q154 450 257 706h140q93 -231 258 -706zM421 261l-66 203q-7 20 -14 45t-9 29q-5 -8 -16 -50q-6 -21 -75 -227h180zM370 778h-102l83 202h177z" />
    <glyph glyph-name="Acircumflex" unicode="&#xc2;" horiz-adv-x="686" 
d="M665 -8h-163q-42 138 -50 160h-242q-40 -118 -53 -160h-147q154 450 257 706h140q93 -231 258 -706zM421 261l-66 203q-7 20 -14 45t-9 29q-5 -8 -16 -50q-6 -21 -75 -227h180zM318 838l-104 -88l-66 75l170 163l168 -163l-63 -75z" />
    <glyph glyph-name="Atilde" unicode="&#xc3;" horiz-adv-x="686" 
d="M665 -8h-163q-42 138 -50 160h-242q-40 -118 -53 -160h-147q154 450 257 706h140q93 -231 258 -706zM421 261l-66 203q-7 20 -14 45t-9 29q-5 -8 -16 -50q-6 -21 -75 -227h180zM391 769q-28 0 -70.5 18.5t-56.5 18.5q-22 0 -47 -52l-85 53q17 45 50 80.5t79 35.5
q29 0 70.5 -18.5t55.5 -18.5q21 0 48 52l86 -55q-64 -114 -130 -114z" />
    <glyph glyph-name="Adieresis" unicode="&#xc4;" horiz-adv-x="686" 
d="M665 -8h-163q-42 138 -50 160h-242q-40 -118 -53 -160h-147q154 450 257 706h140q93 -231 258 -706zM421 261l-66 203q-7 20 -14 45t-9 29q-5 -8 -16 -50q-6 -21 -75 -227h180zM284 861q0 -37 -23 -59t-57 -22t-57 22t-23 59q0 36 23 58t57 22t57 -22t23 -58zM507 861
q0 -36 -23.5 -58.5t-57.5 -22.5q-33 0 -56.5 22.5t-23.5 58.5t23.5 58t56.5 22q34 0 57.5 -22t23.5 -58z" />
    <glyph glyph-name="Aring" unicode="&#xc5;" horiz-adv-x="686" 
d="M665 -8h-163q-42 138 -50 160h-242q-40 -118 -53 -160h-147q154 450 257 706h140q93 -231 258 -706zM421 261l-66 203q-7 20 -14 45t-9 29q-5 -8 -16 -50q-6 -21 -75 -227h180zM442 879q0 -57 -36 -90.5t-89 -33.5q-52 0 -88.5 33.5t-36.5 90.5q0 56 36.5 89.5t88.5 33.5
q53 0 89 -33t36 -90zM351 879q0 16 -10 25.5t-24 9.5q-15 0 -24.5 -9.5t-9.5 -25.5q0 -17 9.5 -26.5t24.5 -9.5q14 0 24 9.5t10 26.5z" />
    <glyph glyph-name="AE" unicode="&#xc6;" horiz-adv-x="959" 
d="M939 -17h-477v176h-223q-66 -117 -94 -176h-165q222 418 446 727h489v-133h-305v-149h270v-131h-270v-181h329v-133zM462 287v240q-68 -96 -118 -180l-36 -60h154z" />
    <glyph glyph-name="Ccedilla" unicode="&#xc7;" horiz-adv-x="631" 
d="M444 -85q25 -30 20 -64q-25 -74 -131 -74q-46 0 -100 17l21 101q42 -14 72 -14q14 0 11 14q-7 12 -49 27q9 30 20 55q-128 22 -199 117.5t-71 252.5q0 176 101.5 277t254.5 101q126 0 226 -59l-46 -127q-90 49 -175 49q-93 0 -149 -63t-56 -177q0 -111 51.5 -176.5
t153.5 -65.5q93 0 185 45l43 -126q-29 -19 -83 -35t-115 -18q17 -25 15 -57z" />
    <glyph glyph-name="Egrave" unicode="&#xc8;" horiz-adv-x="584" 
d="M489 -8h-423v706h411v-118h-257v-168h227v-117h-227v-185h269v-118zM328 758h-102l-159 202h178z" />
    <glyph glyph-name="Eacute" unicode="&#xc9;" horiz-adv-x="584" 
d="M489 -8h-423v706h411v-118h-257v-168h227v-117h-227v-185h269v-118zM327 778h-102l83 202h177z" />
    <glyph glyph-name="Ecircumflex" unicode="&#xca;" horiz-adv-x="584" 
d="M489 -8h-423v706h411v-118h-257v-168h227v-117h-227v-185h269v-118zM275 838l-104 -88l-66 75l170 163l168 -163l-63 -75z" />
    <glyph glyph-name="Edieresis" unicode="&#xcb;" horiz-adv-x="584" 
d="M489 -8h-423v706h411v-118h-257v-168h227v-117h-227v-185h269v-118zM242 861q0 -37 -23 -59t-57 -22t-57 22t-23 59q0 36 23 58t57 22t57 -22t23 -58zM465 861q0 -36 -23.5 -58.5t-57.5 -22.5q-33 0 -56.5 22.5t-23.5 58.5t23.5 58t56.5 22q34 0 57.5 -22t23.5 -58z" />
    <glyph glyph-name="Igrave" unicode="&#xcc;" horiz-adv-x="286" 
d="M221 -8h-154v706h154v-706zM196 758h-102l-159 202h178z" />
    <glyph glyph-name="Iacute" unicode="&#xcd;" horiz-adv-x="286" 
d="M221 -8h-154v706h154v-706zM195 778h-102l83 202h177z" />
    <glyph glyph-name="Icircumflex" unicode="&#xce;" horiz-adv-x="286" 
d="M221 -8h-154v706h154v-706zM143 838l-104 -88l-66 75l170 163l168 -163l-63 -75z" />
    <glyph glyph-name="Idieresis" unicode="&#xcf;" horiz-adv-x="286" 
d="M221 -8h-154v706h154v-706zM109 861q0 -37 -23 -59t-57 -22t-57 22t-23 59q0 36 23 58t57 22t57 -22t23 -58zM332 861q0 -36 -23.5 -58.5t-57.5 -22.5q-33 0 -56.5 22.5t-23.5 58.5t23.5 58t56.5 22q34 0 57.5 -22t23.5 -58z" />
    <glyph glyph-name="Eth" unicode="&#xd0;" horiz-adv-x="734" 
d="M695 347q0 -182 -109 -276.5t-298 -94.5q-117 0 -208 21v303h-81v122h81v274q102 21 210 21q189 0 297 -92t108 -278zM231 300v-187q1 0 21.5 -1.5t43.5 -1.5q120 0 182 62.5t62 174.5q0 114 -60.5 175t-181.5 61q-22 0 -43.5 -1.5t-23.5 -1.5v-158h128v-122h-128z" />
    <glyph glyph-name="Ntilde" unicode="&#xd1;" horiz-adv-x="735" 
d="M627 -8h-90l-35 4q-107 184 -256 406q-7 10 -17 28l-16 28t-9 10q0 -10 1 -68t1 -89v-319h-140v706h129q124 -165 256 -372q35 -59 38 -63q0 20 -1 93t-1 111v231h140v-706zM432 768q-28 0 -70 18.5t-56 18.5q-23 0 -48 -52l-85 53q17 44 50 79.5t79 35.5q29 0 70.5 -18
t55.5 -18q21 0 48 51l86 -54q-64 -114 -130 -114z" />
    <glyph glyph-name="Ograve" unicode="&#xd2;" horiz-adv-x="706" 
d="M663 345q0 -168 -82.5 -266.5t-227.5 -98.5q-143 0 -226.5 99t-83.5 266q0 166 84 266t226 100q143 0 226.5 -99.5t83.5 -266.5zM506 348q0 108 -38.5 176t-114.5 68t-114.5 -68.5t-38.5 -175.5t38.5 -175t114.5 -68q77 0 115 67.5t38 175.5zM406 777h-102l-159 202h178z
" />
    <glyph glyph-name="Oacute" unicode="&#xd3;" horiz-adv-x="706" 
d="M663 345q0 -168 -82.5 -266.5t-227.5 -98.5q-143 0 -226.5 99t-83.5 266q0 166 84 266t226 100q143 0 226.5 -99.5t83.5 -266.5zM506 348q0 108 -38.5 176t-114.5 68t-114.5 -68.5t-38.5 -175.5t38.5 -175t114.5 -68q77 0 115 67.5t38 175.5zM405 797h-102l83 202h177z
" />
    <glyph glyph-name="Ocircumflex" unicode="&#xd4;" horiz-adv-x="706" 
d="M663 345q0 -168 -82.5 -266.5t-227.5 -98.5q-143 0 -226.5 99t-83.5 266q0 166 84 266t226 100q143 0 226.5 -99.5t83.5 -266.5zM506 348q0 108 -38.5 176t-114.5 68t-114.5 -68.5t-38.5 -175.5t38.5 -175t114.5 -68q77 0 115 67.5t38 175.5zM353 857l-104 -88l-66 75
l170 163l168 -163l-63 -75z" />
    <glyph glyph-name="Otilde" unicode="&#xd5;" horiz-adv-x="706" 
d="M663 345q0 -168 -82.5 -266.5t-227.5 -98.5q-143 0 -226.5 99t-83.5 266q0 166 84 266t226 100q143 0 226.5 -99.5t83.5 -266.5zM506 348q0 108 -38.5 176t-114.5 68t-114.5 -68.5t-38.5 -175.5t38.5 -175t114.5 -68q77 0 115 67.5t38 175.5zM411 788q-28 0 -70.5 18.5
t-56.5 18.5q-22 0 -47 -52l-85 53q17 45 50 80.5t79 35.5q29 0 70.5 -18.5t55.5 -18.5q21 0 48 52l86 -55q-64 -114 -130 -114z" />
    <glyph glyph-name="Odieresis" unicode="&#xd6;" horiz-adv-x="706" 
d="M663 345q0 -168 -82.5 -266.5t-227.5 -98.5q-143 0 -226.5 99t-83.5 266q0 166 84 266t226 100q143 0 226.5 -99.5t83.5 -266.5zM506 348q0 108 -38.5 176t-114.5 68t-114.5 -68.5t-38.5 -175.5t38.5 -175t114.5 -68q77 0 115 67.5t38 175.5zM319 880q0 -37 -23 -59
t-57 -22t-57 22t-23 59q0 36 23 58t57 22t57 -22t23 -58zM542 880q0 -36 -23.5 -58.5t-57.5 -22.5q-33 0 -56.5 22.5t-23.5 58.5t23.5 58t56.5 22q34 0 57.5 -22t23.5 -58z" />
    <glyph glyph-name="multiply" unicode="&#xd7;" horiz-adv-x="566" 
d="M51 440l89 90l143 -144l144 144l89 -90l-144 -143l144 -143l-89 -90l-144 144l-143 -144l-89 90l144 143z" />
    <glyph glyph-name="Oslash" unicode="&#xd8;" horiz-adv-x="783" 
d="M744 347q0 -180 -99.5 -279t-253.5 -99q-105 0 -181 46l-60 -79l-96 72l65 83q-81 95 -81 256q0 178 101.5 278t251.5 100q101 0 181 -48l61 80l96 -71l-65 -84q80 -99 80 -255zM194 347q0 -72 28 -123l261 339q-38 25 -92 25q-91 0 -144 -65t-53 -176zM589 347
q0 71 -27 122l-263 -338q39 -25 92 -25q92 0 145 65t53 176z" />
    <glyph glyph-name="Ugrave" unicode="&#xd9;" horiz-adv-x="695" 
d="M587 231q0 -115 -68.5 -183.5t-194.5 -68.5q-110 0 -177.5 55t-78.5 149q-5 52 -5 96v419h153v-396q0 -105 23.5 -150.5t88.5 -45.5q46 0 75 27.5t33 82.5q3 40 3 87v395h148v-467zM383 758h-102l-159 202h178z" />
    <glyph glyph-name="Uacute" unicode="&#xda;" horiz-adv-x="695" 
d="M587 231q0 -115 -68.5 -183.5t-194.5 -68.5q-110 0 -177.5 55t-78.5 149q-5 52 -5 96v419h153v-396q0 -105 23.5 -150.5t88.5 -45.5q46 0 75 27.5t33 82.5q3 40 3 87v395h148v-467zM381 778h-102l83 202h177z" />
    <glyph glyph-name="Ucircumflex" unicode="&#xdb;" horiz-adv-x="695" 
d="M587 231q0 -115 -68.5 -183.5t-194.5 -68.5q-110 0 -177.5 55t-78.5 149q-5 52 -5 96v419h153v-396q0 -105 23.5 -150.5t88.5 -45.5q46 0 75 27.5t33 82.5q3 40 3 87v395h148v-467zM329 838l-104 -88l-66 75l170 163l168 -163l-63 -75z" />
    <glyph glyph-name="Udieresis" unicode="&#xdc;" horiz-adv-x="695" 
d="M587 231q0 -115 -68.5 -183.5t-194.5 -68.5q-110 0 -177.5 55t-78.5 149q-5 52 -5 96v419h153v-396q0 -105 23.5 -150.5t88.5 -45.5q46 0 75 27.5t33 82.5q3 40 3 87v395h148v-467zM296 861q0 -37 -23 -59t-57 -22t-57 22t-23 59q0 36 23 58t57 22t57 -22t23 -58z
M519 861q0 -36 -23.5 -58.5t-57.5 -22.5q-33 0 -56.5 22.5t-23.5 58.5t23.5 58t56.5 22q34 0 57.5 -22t23.5 -58z" />
    <glyph glyph-name="Yacute" unicode="&#xdd;" horiz-adv-x="621" 
d="M583 698q-113 -228 -220 -418v-288h-152v287q-101 181 -220 419h169q61 -144 132 -281q73 142 134 281h157zM345 778h-102l83 202h177z" />
    <glyph glyph-name="Thorn" unicode="&#xde;" horiz-adv-x="622" 
d="M218 710v-109q31 3 70 3q151 0 232.5 -59.5t81.5 -181.5q0 -128 -84 -186t-248 -58h-52v-136h-150v727h150zM284 471q-34 0 -66 -4v-214h49q92 0 136 24t44 87q0 107 -163 107z" />
    <glyph glyph-name="germandbls" unicode="&#xdf;" horiz-adv-x="631" 
d="M521 614q0 -73 -59 -138v1l-27.5 -31t-15.5 -23.5t-7 -25.5q0 -17 16 -30t49 -30q5 -3 8 -4q33 -19 50.5 -31t38 -33t29.5 -48.5t9 -63.5q0 -186 -220 -186q-62 0 -145 35l8 41l18 85q52 -27 100 -30q26 -4 50 1q43 12 43 53q0 26 -20.5 44.5t-68.5 42.5q-65 31 -87 62
t-22 78q0 39 17 67.5t52 65.5q34 39 40 57q4 12 4 27q0 30 -20.5 47t-56.5 17q-100 0 -100 -117v-564h-144v536q0 33 3 64q9 97 70 153.5t165 56.5q112 0 167.5 -49.5t55.5 -129.5z" />
    <glyph glyph-name="agrave" unicode="&#xe0;" horiz-adv-x="534" 
d="M477 15q-83 -33 -218 -33q-230 0 -230 176q0 169 251 185q25 1 55 -1q-2 48 -23 73t-72 25q-74 0 -144 -31l-26 106q86 35 189 35q195 0 215 -168q3 -32 3 -65v-302zM336 92v158q-46 0 -58 -1q-50 -5 -78 -24.5t-28 -62.5q0 -78 96 -78q44 0 68 8zM322 597h-102l-159 202
h178z" />
    <glyph glyph-name="aacute" unicode="&#xe1;" horiz-adv-x="534" 
d="M477 15q-83 -33 -218 -33q-230 0 -230 176q0 169 251 185q25 1 55 -1q-2 48 -23 73t-72 25q-74 0 -144 -31l-26 106q86 35 189 35q195 0 215 -168q3 -32 3 -65v-302zM336 92v158q-46 0 -58 -1q-50 -5 -78 -24.5t-28 -62.5q0 -78 96 -78q44 0 68 8zM298 621h-102l83 202
h177z" />
    <glyph glyph-name="acircumflex" unicode="&#xe2;" horiz-adv-x="534" 
d="M477 15q-83 -33 -218 -33q-230 0 -230 176q0 169 251 185q25 1 55 -1q-2 48 -23 73t-72 25q-74 0 -144 -31l-26 106q86 35 189 35q195 0 215 -168q3 -32 3 -65v-302zM336 92v158q-46 0 -58 -1q-50 -5 -78 -24.5t-28 -62.5q0 -78 96 -78q44 0 68 8zM269 677l-104 -88
l-66 75l170 163l168 -163l-63 -75z" />
    <glyph glyph-name="atilde" unicode="&#xe3;" horiz-adv-x="534" 
d="M477 15q-83 -33 -218 -33q-230 0 -230 176q0 169 251 185q25 1 55 -1q-2 48 -23 73t-72 25q-74 0 -144 -31l-26 106q86 35 189 35q195 0 215 -168q3 -32 3 -65v-302zM336 92v158q-46 0 -58 -1q-50 -5 -78 -24.5t-28 -62.5q0 -78 96 -78q44 0 68 8zM328 609
q-28 0 -70.5 18.5t-56.5 18.5q-22 0 -47 -52l-85 53q17 45 50 80.5t79 35.5q29 0 70.5 -18.5t55.5 -18.5q21 0 48 52l86 -55q-64 -114 -130 -114z" />
    <glyph glyph-name="adieresis" unicode="&#xe4;" horiz-adv-x="534" 
d="M477 15q-83 -33 -218 -33q-230 0 -230 176q0 169 251 185q25 1 55 -1q-2 48 -23 73t-72 25q-74 0 -144 -31l-26 106q86 35 189 35q195 0 215 -168q3 -32 3 -65v-302zM336 92v158q-46 0 -58 -1q-50 -5 -78 -24.5t-28 -62.5q0 -78 96 -78q44 0 68 8zM236 700q0 -37 -23 -59
t-57 -22t-57 22t-23 59q0 36 23 58t57 22t57 -22t23 -58zM459 700q0 -36 -23.5 -58.5t-57.5 -22.5q-33 0 -56.5 22.5t-23.5 58.5t23.5 58t56.5 22q34 0 57.5 -22t23.5 -58z" />
    <glyph glyph-name="aring" unicode="&#xe5;" horiz-adv-x="534" 
d="M477 15q-83 -33 -218 -33q-230 0 -230 176q0 169 251 185q25 1 55 -1q-2 48 -23 73t-72 25q-74 0 -144 -31l-26 106q86 35 189 35q195 0 215 -168q3 -32 3 -65v-302zM336 92v158q-46 0 -58 -1q-50 -5 -78 -24.5t-28 -62.5q0 -78 96 -78q44 0 68 8zM394 718
q0 -57 -36 -90.5t-89 -33.5q-52 0 -88.5 33.5t-36.5 90.5q0 56 36.5 89.5t88.5 33.5q53 0 89 -33t36 -90zM303 718q0 16 -10 25.5t-24 9.5q-15 0 -24.5 -9.5t-9.5 -25.5q0 -17 9.5 -26.5t24.5 -9.5q14 0 24 9.5t10 26.5z" />
    <glyph glyph-name="ae" unicode="&#xe6;" horiz-adv-x="865" 
d="M485 326h198q-5 46 -29 72t-66 26t-69.5 -28t-33.5 -70zM257 -28q-233 0 -233 185q0 93 65.5 136t171.5 43q39 0 74 -8q-2 21 -6 35t-13 29.5t-28 23t-47 7.5q-77 0 -148 -26l-19 126q83 29 178 29q119 0 168 -75q61 64 149 72q29 3 54 0q98 -10 153 -80t55 -196
q0 -10 -1.5 -31.5t-1.5 -30.5h-342q19 -109 140 -109q77 0 151 33l22 -126q-61 -30 -151 -36q-27 -3 -58 -1q-94 4 -155 48q-81 -48 -178 -48zM339 214q-30 8 -64 8q-105 0 -105 -63t93 -63q55 0 99 22q-20 43 -23 96z" />
    <glyph glyph-name="ccedilla" unicode="&#xe7;" horiz-adv-x="482" 
d="M347 -27q17 -25 14 -58q26 -26 23 -59q-21 -79 -133 -79q-47 0 -100 17l21 101q42 -14 72 -14q14 0 11 14q-9 13 -49 27q7 32 21 59q-96 22 -145 96t-49 183q0 128 74 210t199 82q87 0 160 -34l-33 -124q-65 27 -118 27q-65 0 -99 -42.5t-34 -118.5q0 -158 142 -158
q59 0 126 30l25 -127q-58 -26 -128 -32z" />
    <glyph glyph-name="egrave" unicode="&#xe8;" horiz-adv-x="568" 
d="M519 237l-333 -23q17 -117 137 -117q81 0 145 31l27 -109q-76 -39 -187 -39q-132 0 -201.5 77t-69.5 208q0 133 69.5 209t179.5 76q102 0 162.5 -59.5t68.5 -172.5q0 -9 1 -35t1 -46zM377 323q-5 119 -94 119q-46 0 -73.5 -36t-28.5 -99zM331 594h-102l-159 202h178z" />
    <glyph glyph-name="eacute" unicode="&#xe9;" horiz-adv-x="568" 
d="M519 237l-333 -23q17 -117 137 -117q81 0 145 31l27 -109q-76 -39 -187 -39q-132 0 -201.5 77t-69.5 208q0 133 69.5 209t179.5 76q102 0 162.5 -59.5t68.5 -172.5q0 -9 1 -35t1 -46zM377 323q-5 119 -94 119q-46 0 -73.5 -36t-28.5 -99zM330 614h-102l83 202h177z" />
    <glyph glyph-name="ecircumflex" unicode="&#xea;" horiz-adv-x="568" 
d="M519 237l-333 -23q17 -117 137 -117q81 0 145 31l27 -109q-76 -39 -187 -39q-132 0 -201.5 77t-69.5 208q0 133 69.5 209t179.5 76q102 0 162.5 -59.5t68.5 -172.5q0 -9 1 -35t1 -46zM377 323q-5 119 -94 119q-46 0 -73.5 -36t-28.5 -99zM278 673l-104 -88l-66 75
l170 163l168 -163l-63 -75z" />
    <glyph glyph-name="edieresis" unicode="&#xeb;" horiz-adv-x="568" 
d="M519 237l-333 -23q17 -117 137 -117q81 0 145 31l27 -109q-76 -39 -187 -39q-132 0 -201.5 77t-69.5 208q0 133 69.5 209t179.5 76q102 0 162.5 -59.5t68.5 -172.5q0 -9 1 -35t1 -46zM377 323q-5 119 -94 119q-46 0 -73.5 -36t-28.5 -99zM244 697q0 -37 -23 -59t-57 -22
t-57 22t-23 59q0 36 23 58t57 22t57 -22t23 -58zM467 697q0 -36 -23.5 -58.5t-57.5 -22.5q-33 0 -56.5 22.5t-23.5 58.5t23.5 58t56.5 22q34 0 57.5 -22t23.5 -58z" />
    <glyph glyph-name="igrave" unicode="&#xec;" horiz-adv-x="266" 
d="M206 539v-556h-146v556h146zM186 594h-102l-159 202h178z" />
    <glyph glyph-name="iacute" unicode="&#xed;" horiz-adv-x="266" 
d="M206 539v-556h-146v556h146zM185 614h-102l83 202h177z" />
    <glyph glyph-name="icircumflex" unicode="&#xee;" horiz-adv-x="266" 
d="M206 539v-556h-146v556h146zM133 673l-104 -88l-66 75l170 163l168 -163l-63 -75z" />
    <glyph glyph-name="idieresis" unicode="&#xef;" horiz-adv-x="266" 
d="M206 539v-556h-146v556h146zM100 697q0 -37 -23 -59t-57 -22t-57 22t-23 59q0 36 23 58t57 22t57 -22t23 -58zM323 697q0 -36 -23.5 -58.5t-57.5 -22.5q-33 0 -56.5 22.5t-23.5 58.5t23.5 58t56.5 22q34 0 57.5 -22t23.5 -58z" />
    <glyph glyph-name="eth" unicode="&#xf0;" horiz-adv-x="591" 
d="M33 239q0 125 71 193t193 68q47 0 94 -26q-10 52 -38 98l-106 -28l-39 75l76 30q-33 33 -79 62l88 89q75 -44 129 -104l123 42l34 -98l-94 -33q72 -125 72 -280q0 -75 -14 -137t-44.5 -113t-84 -79t-126.5 -28q-120 0 -187.5 77t-67.5 192zM408 336q-43 39 -108 39
q-62 0 -91 -37t-29 -98t28 -99.5t80 -38.5q114 0 120 195q2 19 0 39z" />
    <glyph glyph-name="ntilde" unicode="&#xf1;" 
d="M518 -8h-147v279q0 32 -0.5 47.5t-3 39t-8 34.5t-15.5 23.5t-26 17t-39 4.5q-40 0 -71 -9v-436h-148v515q76 42 226 42q51 0 89.5 -8.5t63.5 -26.5t41 -39.5t24 -53t11 -60.5t3 -68v-301zM354 620q-28 0 -70 18.5t-56 18.5q-23 0 -48 -52l-85 53q17 44 50 79.5t79 35.5
q29 0 70.5 -18t55.5 -18q21 0 48 51l86 -54q-64 -114 -130 -114z" />
    <glyph glyph-name="ograve" unicode="&#xf2;" horiz-adv-x="596" 
d="M537 265q0 -128 -67 -206.5t-183 -78.5q-115 0 -182.5 78.5t-67.5 206.5q0 127 68 206t182 79q115 0 182.5 -78.5t67.5 -206.5zM388 266q0 78 -25 125t-76 47q-52 0 -77 -47t-25 -125t25 -124t77 -46t76.5 46t24.5 124zM340 594h-102l-159 202h178z" />
    <glyph glyph-name="oacute" unicode="&#xf3;" horiz-adv-x="596" 
d="M537 265q0 -128 -67 -206.5t-183 -78.5q-115 0 -182.5 78.5t-67.5 206.5q0 127 68 206t182 79q115 0 182.5 -78.5t67.5 -206.5zM388 266q0 78 -25 125t-76 47q-52 0 -77 -47t-25 -125t25 -124t77 -46t76.5 46t24.5 124zM339 614h-102l83 202h177z" />
    <glyph glyph-name="ocircumflex" unicode="&#xf4;" horiz-adv-x="596" 
d="M537 265q0 -128 -67 -206.5t-183 -78.5q-115 0 -182.5 78.5t-67.5 206.5q0 127 68 206t182 79q115 0 182.5 -78.5t67.5 -206.5zM388 266q0 78 -25 125t-76 47q-52 0 -77 -47t-25 -125t25 -124t77 -46t76.5 46t24.5 124zM287 673l-104 -88l-66 75l170 163l168 -163
l-63 -75z" />
    <glyph glyph-name="otilde" unicode="&#xf5;" horiz-adv-x="596" 
d="M537 265q0 -128 -67 -206.5t-183 -78.5q-115 0 -182.5 78.5t-67.5 206.5q0 127 68 206t182 79q115 0 182.5 -78.5t67.5 -206.5zM388 266q0 78 -25 125t-76 47q-52 0 -77 -47t-25 -125t25 -124t77 -46t76.5 46t24.5 124zM346 605q-28 0 -70.5 18.5t-56.5 18.5
q-22 0 -47 -52l-85 53q17 45 50 80.5t79 35.5q29 0 70.5 -18.5t55.5 -18.5q21 0 48 52l86 -55q-64 -114 -130 -114z" />
    <glyph glyph-name="odieresis" unicode="&#xf6;" horiz-adv-x="596" 
d="M537 265q0 -128 -67 -206.5t-183 -78.5q-115 0 -182.5 78.5t-67.5 206.5q0 127 68 206t182 79q115 0 182.5 -78.5t67.5 -206.5zM388 266q0 78 -25 125t-76 47q-52 0 -77 -47t-25 -125t25 -124t77 -46t76.5 46t24.5 124zM254 697q0 -37 -23 -59t-57 -22t-57 22t-23 59
q0 36 23 58t57 22t57 -22t23 -58zM477 697q0 -36 -23.5 -58.5t-57.5 -22.5q-33 0 -56.5 22.5t-23.5 58.5t23.5 58t56.5 22q34 0 57.5 -22t23.5 -58z" />
    <glyph glyph-name="divide" unicode="&#xf7;" horiz-adv-x="566" 
d="M372 522q0 -40 -26 -65t-64 -25q-37 0 -63 25t-26 64t26 64.5t63 25.5t63.5 -25.5t26.5 -63.5zM372 101q0 -39 -26 -63.5t-64 -24.5q-37 0 -63 24.5t-26 63.5t26 64.5t63 25.5t63.5 -25.5t26.5 -64.5zM531 247h-496v124h496v-124z" />
    <glyph glyph-name="oslash" unicode="&#xf8;" horiz-adv-x="596" 
d="M563 261q0 -131 -73 -211t-192 -80q-75 0 -131 34l-49 -64l-85 64l55 70q-55 73 -55 187q0 130 74.5 210.5t190.5 80.5q73 0 131 -35l50 65l84 -64l-54 -71q54 -72 54 -186zM177 268q6 -31 24 -47l144 187q-28 17 -62 14q-49 -5 -77 -46.5t-29 -107.5zM419 255
q-6 29 -24 45l-145 -188q30 -17 64 -12q48 5 76 46.5t29 108.5z" />
    <glyph glyph-name="ugrave" unicode="&#xf9;" 
d="M512 25q-68 -44 -226 -44q-125 0 -177 60.5t-52 177.5v320h148v-277q0 -36 1 -56.5t6 -44.5t14 -36t25.5 -20.5t41.5 -8.5q43 0 71 11v432h148v-514zM344 594h-102l-159 202h178z" />
    <glyph glyph-name="uacute" unicode="&#xfa;" 
d="M512 25q-68 -44 -226 -44q-125 0 -177 60.5t-52 177.5v320h148v-277q0 -36 1 -56.5t6 -44.5t14 -36t25.5 -20.5t41.5 -8.5q43 0 71 11v432h148v-514zM343 614h-102l83 202h177z" />
    <glyph glyph-name="ucircumflex" unicode="&#xfb;" 
d="M512 25q-68 -44 -226 -44q-125 0 -177 60.5t-52 177.5v320h148v-277q0 -36 1 -56.5t6 -44.5t14 -36t25.5 -20.5t41.5 -8.5q43 0 71 11v432h148v-514zM291 673l-104 -88l-66 75l170 163l168 -163l-63 -75z" />
    <glyph glyph-name="udieresis" unicode="&#xfc;" 
d="M512 25q-68 -44 -226 -44q-125 0 -177 60.5t-52 177.5v320h148v-277q0 -36 1 -56.5t6 -44.5t14 -36t25.5 -20.5t41.5 -8.5q43 0 71 11v432h148v-514zM257 697q0 -37 -23 -59t-57 -22t-57 22t-23 59q0 36 23 58t57 22t57 -22t23 -58zM480 697q0 -36 -23.5 -58.5
t-57.5 -22.5q-33 0 -56.5 22.5t-23.5 58.5t23.5 58t56.5 22q34 0 57.5 -22t23.5 -58z" />
    <glyph glyph-name="yacute" unicode="&#xfd;" horiz-adv-x="540" 
d="M523 539q-96 -332 -202 -617q-25 -58 -56.5 -84t-83.5 -26q-44 0 -119 29l30 98q39 -18 56 -18q8 0 14.5 2.5t11.5 8.5l9 10.5t7.5 14.5t5.5 15t5 16.5t4 14.5q-109 265 -190 536h156q34 -143 83 -298l23 -85l22 85q30 100 80 298h144zM322 614h-102l83 202h177z" />
    <glyph glyph-name="thorn" unicode="&#xfe;" horiz-adv-x="595" 
d="M60 772l146 24v-259q40 13 81 13q125 0 200 -78.5t75 -211.5q0 -130 -65.5 -209t-182.5 -79q-58 0 -108 24v-198h-146v974zM206 408v-280q39 -26 89 -26q118 0 118 156q0 75 -35 118t-96 43q-40 0 -76 -11z" />
    <glyph glyph-name="ydieresis" unicode="&#xff;" horiz-adv-x="540" 
d="M523 539q-96 -332 -202 -617q-25 -58 -56.5 -84t-83.5 -26q-44 0 -119 29l30 98q39 -18 56 -18q8 0 14.5 2.5t11.5 8.5l9 10.5t7.5 14.5t5.5 15t5 16.5t4 14.5q-109 265 -190 536h156q34 -143 83 -298l23 -85l22 85q30 100 80 298h144zM237 697q0 -37 -23 -59t-57 -22
t-57 22t-23 59q0 36 23 58t57 22t57 -22t23 -58zM460 697q0 -36 -23.5 -58.5t-57.5 -22.5q-33 0 -56.5 22.5t-23.5 58.5t23.5 58t56.5 22q34 0 57.5 -22t23.5 -58z" />
    <glyph glyph-name="Amacron" unicode="&#x100;" horiz-adv-x="686" 
d="M665 -8h-163q-42 138 -50 160h-242q-40 -118 -53 -160h-147q154 450 257 706h140q93 -231 258 -706zM421 261l-66 203q-7 20 -14 45t-9 29q-5 -8 -16 -50q-6 -21 -75 -227h180zM483 786h-330v115h330v-115z" />
    <glyph glyph-name="amacron" unicode="&#x101;" horiz-adv-x="534" 
d="M477 15q-83 -33 -218 -33q-230 0 -230 176q0 169 251 185q25 1 55 -1q-2 48 -23 73t-72 25q-74 0 -144 -31l-26 106q86 35 189 35q195 0 215 -168q3 -32 3 -65v-302zM336 92v158q-46 0 -58 -1q-50 -5 -78 -24.5t-28 -62.5q0 -78 96 -78q44 0 68 8zM435 626h-330v115h330
v-115z" />
    <glyph glyph-name="Abreve" unicode="&#x102;" horiz-adv-x="686" 
d="M665 -8h-163q-42 138 -50 160h-242q-40 -118 -53 -160h-147q154 450 257 706h140q93 -231 258 -706zM421 261l-66 203q-7 20 -14 45t-9 29q-5 -8 -16 -50q-6 -21 -75 -227h180zM318 767q-78 0 -120.5 48t-41.5 137h108q3 -35 14.5 -54.5t39.5 -19.5q49 0 53 74h108
q0 -90 -41.5 -137.5t-119.5 -47.5z" />
    <glyph glyph-name="abreve" unicode="&#x103;" horiz-adv-x="534" 
d="M477 15q-83 -33 -218 -33q-230 0 -230 176q0 169 251 185q25 1 55 -1q-2 48 -23 73t-72 25q-74 0 -144 -31l-26 106q86 35 189 35q195 0 215 -168q3 -32 3 -65v-302zM336 92v158q-46 0 -58 -1q-50 -5 -78 -24.5t-28 -62.5q0 -78 96 -78q44 0 68 8zM270 607
q-78 0 -120.5 48t-41.5 137h108q3 -35 14.5 -54.5t39.5 -19.5q49 0 53 74h108q0 -90 -41.5 -137.5t-119.5 -47.5z" />
    <glyph glyph-name="Aogonek" unicode="&#x104;" horiz-adv-x="686" 
d="M665 -8h-163q-42 138 -50 160h-242q-40 -118 -53 -160h-147q154 450 257 706h140q93 -231 258 -706zM421 261l-66 203q-7 20 -14 45t-9 29q-5 -8 -16 -50q-6 -21 -75 -227h180zM548 -222q-129 0 -129 98q0 78 107 153h109l-16 -49q-2 -1 -5.5 -3t-5.5 -3q2 0 4 2
q-1 -1 -9.5 -9t-14.5 -14.5l-14 -15t-12.5 -16t-5.5 -12.5q2 -16 25 -14q22 2 52 12l13 -110q-44 -19 -98 -19z" />
    <glyph glyph-name="aogonek" unicode="&#x105;" horiz-adv-x="534" 
d="M252 552q128 0 177.5 -61.5t49.5 -177.5v-310q-14 -10 -35 -28q2 0 4 2l-12 -12l-15 -15l-13.5 -14t-11.5 -15t-5 -12q5 -16 31 -13q17 1 47 11l13 -110q-31 -13 -76 -18q-26 -2 -42 1q-75 6 -97 55q-12 30 -2 70q8 35 40 70q-48 -3 -54 -3q-227 0 -227 185
q0 93 65.5 136t171.5 43q38 0 73 -8q-6 25 -38 32q-14 63 -77 62q-64 -2 -126 -25l-19 126q83 29 178 29zM261 96q55 0 76 4v114q-13 4 -41 7q-9 1 -31 1q-95 -4 -95 -63q0 -63 91 -63z" />
    <glyph glyph-name="Cacute" unicode="&#x106;" horiz-adv-x="631" 
d="M547 28q-68 -48 -194 -48q-147 0 -228.5 100.5t-81.5 264.5q0 161 86 263.5t227 102.5q117 0 187 -49l-39 -111q-59 35 -128 35q-62 0 -103.5 -37t-54.5 -104q-17 -50 -15 -120q4 -84 38 -141.5t98 -69.5q31 -7 57 -4q59 3 112 30zM390 778h-102l83 202h177z" />
    <glyph glyph-name="cacute" unicode="&#x107;" horiz-adv-x="482" 
d="M433 17q-58 -37 -147 -37q-118 0 -183.5 76.5t-65.5 209.5q0 129 68 206.5t178 77.5q84 0 145 -36q-13 -45 -32 -103q-46 24 -91 24q-59 0 -89 -44t-30 -124q0 -168 123 -168q47 0 96 26zM322 626h-102l83 202h177z" />
    <glyph glyph-name="Ccircumflex" unicode="&#x108;" horiz-adv-x="631" 
d="M547 28q-68 -48 -194 -48q-147 0 -228.5 100.5t-81.5 264.5q0 161 86 263.5t227 102.5q117 0 187 -49l-39 -111q-59 35 -128 35q-62 0 -103.5 -37t-54.5 -104q-17 -50 -15 -120q4 -84 38 -141.5t98 -69.5q31 -7 57 -4q59 3 112 30zM338 838l-104 -88l-66 75l170 163
l168 -163l-63 -75z" />
    <glyph glyph-name="ccircumflex" unicode="&#x109;" horiz-adv-x="482" 
d="M433 17q-58 -37 -147 -37q-118 0 -183.5 76.5t-65.5 209.5q0 129 68 206.5t178 77.5q84 0 145 -36q-13 -45 -32 -103q-46 24 -91 24q-59 0 -89 -44t-30 -124q0 -168 123 -168q47 0 96 26zM270 686l-104 -88l-66 75l170 163l168 -163l-63 -75z" />
    <glyph glyph-name="Cdotaccent" unicode="&#x10a;" horiz-adv-x="631" 
d="M547 28q-68 -48 -194 -48q-147 0 -228.5 100.5t-81.5 264.5q0 161 86 263.5t227 102.5q117 0 187 -49l-39 -111q-59 35 -128 35q-62 0 -103.5 -37t-54.5 -104q-17 -50 -15 -120q4 -84 38 -141.5t98 -69.5q31 -7 57 -4q59 3 112 30zM337 761q-35 0 -59 23t-24 60t24 59.5
t59 22.5t58.5 -22.5t23.5 -59.5t-23.5 -60t-58.5 -23z" />
    <glyph glyph-name="cdotaccent" unicode="&#x10b;" horiz-adv-x="482" 
d="M433 17q-58 -37 -147 -37q-118 0 -183.5 76.5t-65.5 209.5q0 129 68 206.5t178 77.5q84 0 145 -36q-13 -45 -32 -103q-46 24 -91 24q-59 0 -89 -44t-30 -124q0 -168 123 -168q47 0 96 26zM269 609q-35 0 -59 23t-24 60t24 59.5t59 22.5t58.5 -22.5t23.5 -59.5t-23.5 -60
t-58.5 -23z" />
    <glyph glyph-name="Ccaron" unicode="&#x10c;" horiz-adv-x="631" 
d="M547 28q-68 -48 -194 -48q-147 0 -228.5 100.5t-81.5 264.5q0 161 86 263.5t227 102.5q117 0 187 -49l-39 -111q-59 35 -128 35q-62 0 -103.5 -37t-54.5 -104q-17 -50 -15 -120q4 -84 38 -141.5t98 -69.5q31 -7 57 -4q59 3 112 30zM233 1001l105 -87l104 87l66 -75
l-170 -162l-168 162z" />
    <glyph glyph-name="ccaron" unicode="&#x10d;" horiz-adv-x="482" 
d="M433 17q-58 -37 -147 -37q-118 0 -183.5 76.5t-65.5 209.5q0 129 68 206.5t178 77.5q84 0 145 -36q-13 -45 -32 -103q-46 24 -91 24q-59 0 -89 -44t-30 -124q0 -168 123 -168q47 0 96 26zM165 849l105 -87l104 87l66 -75l-170 -162l-168 162z" />
    <glyph glyph-name="Dcaron" unicode="&#x10e;" horiz-adv-x="722" 
d="M627 347q0 -171 -91.5 -267.5t-262.5 -96.5q-115 0 -207 30v664q98 30 205 30q172 0 264 -94t92 -266zM471 348q0 122 -47.5 181.5t-146.5 59.5q-41 0 -58 -5v-475q13 -5 58 -5q99 0 146.5 60t47.5 184zM209 1001l105 -87l104 87l66 -75l-170 -162l-168 162z" />
    <glyph glyph-name="dcaron" unicode="&#x10f;" horiz-adv-x="716" 
d="M535 788v-768q-91 -40 -219 -40q-129 0 -204 74t-75 208q0 128 66 205t178 77q59 0 105 -23v253q104 10 149 14zM386 104v304q-37 23 -80 23q-118 0 -118 -165q0 -82 34 -125.5t95 -43.5q45 0 69 7zM586 793h135l-34 -266h-101v266z" />
    <glyph glyph-name="Dcroat" unicode="&#x110;" horiz-adv-x="734" 
d="M695 347q0 -182 -109 -276.5t-298 -94.5q-117 0 -208 21v303h-81v122h81v274q102 21 210 21q189 0 297 -92t108 -278zM231 300v-187q1 0 21.5 -1.5t43.5 -1.5q120 0 182 62.5t62 174.5q0 114 -60.5 175t-181.5 61q-22 0 -43.5 -1.5t-23.5 -1.5v-158h128v-122h-128z" />
    <glyph glyph-name="dcroat" unicode="&#x111;" horiz-adv-x="596" 
d="M535 796v-94h69v-109h-69v-589q-107 -33 -220 -33q-130 0 -206 77t-76 207t67 208.5t184 78.5q57 0 105 -24v75h-160v109h160v70zM389 108v279q-43 25 -90 25q-117 0 -117 -153q0 -73 36 -115.5t98 -42.5q47 0 73 7z" />
    <glyph glyph-name="Emacron" unicode="&#x112;" horiz-adv-x="584" 
d="M489 -8h-423v706h411v-118h-257v-168h227v-117h-227v-185h269v-118zM441 786h-330v115h330v-115z" />
    <glyph glyph-name="emacron" unicode="&#x113;" horiz-adv-x="568" 
d="M519 237l-333 -23q17 -117 137 -117q81 0 145 31l27 -109q-76 -39 -187 -39q-132 0 -201.5 77t-69.5 208q0 133 69.5 209t179.5 76q102 0 162.5 -59.5t68.5 -172.5q0 -9 1 -35t1 -46zM377 323q-5 119 -94 119q-46 0 -73.5 -36t-28.5 -99zM443 622h-330v115h330v-115z" />
    <glyph glyph-name="Ebreve" unicode="&#x114;" horiz-adv-x="584" 
d="M489 -8h-423v706h411v-118h-257v-168h227v-117h-227v-185h269v-118zM275 767q-78 0 -120.5 48t-41.5 137h108q3 -35 14.5 -54.5t39.5 -19.5q49 0 53 74h108q0 -90 -41.5 -137.5t-119.5 -47.5z" />
    <glyph glyph-name="ebreve" unicode="&#x115;" horiz-adv-x="568" 
d="M519 237l-333 -23q17 -117 137 -117q81 0 145 31l27 -109q-76 -39 -187 -39q-132 0 -201.5 77t-69.5 208q0 133 69.5 209t179.5 76q102 0 162.5 -59.5t68.5 -172.5q0 -9 1 -35t1 -46zM377 323q-5 119 -94 119q-46 0 -73.5 -36t-28.5 -99zM278 603q-78 0 -120.5 48
t-41.5 137h108q3 -35 14.5 -54.5t39.5 -19.5q49 0 53 74h108q0 -90 -41.5 -137.5t-119.5 -47.5z" />
    <glyph glyph-name="Edotaccent" unicode="&#x116;" horiz-adv-x="584" 
d="M489 -8h-423v706h411v-118h-257v-168h227v-117h-227v-185h269v-118zM274 761q-35 0 -59 23t-24 60t24 59.5t59 22.5t58.5 -22.5t23.5 -59.5t-23.5 -60t-58.5 -23z" />
    <glyph glyph-name="edotaccent" unicode="&#x117;" horiz-adv-x="568" 
d="M519 237l-333 -23q17 -117 137 -117q81 0 145 31l27 -109q-76 -39 -187 -39q-132 0 -201.5 77t-69.5 208q0 133 69.5 209t179.5 76q102 0 162.5 -59.5t68.5 -172.5q0 -9 1 -35t1 -46zM377 323q-5 119 -94 119q-46 0 -73.5 -36t-28.5 -99zM277 597q-35 0 -59 23t-24 60
t24 59.5t59 22.5t58.5 -22.5t23.5 -59.5t-23.5 -60t-58.5 -23z" />
    <glyph glyph-name="Eogonek" unicode="&#x118;" horiz-adv-x="584" 
d="M407 -17h-53h-286v727h471v-133h-321v-149h286v-131h-286v-181h346v-123q-74 -59 -76 -84q3 -16 31 -13q15 1 47 11l13 -110q-45 -19 -98 -19q-130 0 -130 98q0 55 56 107z" />
    <glyph glyph-name="eogonek" unicode="&#x119;" horiz-adv-x="568" 
d="M33 259q0 138 76 215.5t181 77.5q114 0 179 -71t65 -208q0 -10 -1.5 -31.5t-1.5 -30.5h-342q17 -96 118 -107q19 -3 45 -1q68 5 128 32l22 -124q-96 -67 -102 -102q5 -16 31 -13q17 1 47 11l13 -110q-45 -19 -98 -19q-109 0 -125 70q-5 25 1 48q9 42 44 78q-27 0 -57 5
q-112 15 -167.5 90t-55.5 190zM188 326h198q-5 46 -29 72t-65 26q-42 0 -69.5 -28t-34.5 -70z" />
    <glyph glyph-name="Ecaron" unicode="&#x11a;" horiz-adv-x="584" 
d="M489 -8h-423v706h411v-118h-257v-168h227v-117h-227v-185h269v-118zM170 1001l105 -87l104 87l66 -75l-170 -162l-168 162z" />
    <glyph glyph-name="ecaron" unicode="&#x11b;" horiz-adv-x="568" 
d="M519 237l-333 -23q17 -117 137 -117q81 0 145 31l27 -109q-76 -39 -187 -39q-132 0 -201.5 77t-69.5 208q0 133 69.5 209t179.5 76q102 0 162.5 -59.5t68.5 -172.5q0 -9 1 -35t1 -46zM377 323q-5 119 -94 119q-46 0 -73.5 -36t-28.5 -99zM173 837l105 -87l104 87l66 -75
l-170 -162l-168 162z" />
    <glyph glyph-name="Gcircumflex" unicode="&#x11c;" horiz-adv-x="683" 
d="M590 20q-80 -40 -220 -40q-154 0 -241 97t-87 270q0 167 93 265.5t241 98.5q125 0 209 -50l-47 -110q-53 31 -131 35q-101 5 -155 -56t-54 -185q0 -116 45.5 -180.5t128.5 -64.5q52 0 70 9v170h-71v119h219v-378zM369 838l-104 -88l-66 75l170 163l168 -163l-63 -75z" />
    <glyph glyph-name="gcircumflex" unicode="&#x11d;" horiz-adv-x="585" 
d="M513 22q0 -238 -252 -238q-108 0 -196 37l33 114q56 -26 119 -32q53 -2 85 16q67 18 67 85v20q-42 -21 -100 -21q-105 0 -168.5 69.5t-63.5 193.5q0 130 71.5 206.5t201.5 76.5q122 0 203 -36v-491zM368 128v306q-19 8 -61 8q-61 0 -91.5 -45t-30.5 -127q0 -161 112 -161
q42 0 71 19zM302 673l-104 -88l-66 75l170 163l168 -163l-63 -75z" />
    <glyph glyph-name="Gbreve" unicode="&#x11e;" horiz-adv-x="683" 
d="M590 20q-80 -40 -220 -40q-154 0 -241 97t-87 270q0 167 93 265.5t241 98.5q125 0 209 -50l-47 -110q-53 31 -131 35q-101 5 -155 -56t-54 -185q0 -116 45.5 -180.5t128.5 -64.5q52 0 70 9v170h-71v119h219v-378zM369 767q-78 0 -120.5 48t-41.5 137h108
q3 -35 14.5 -54.5t39.5 -19.5q49 0 53 74h108q0 -90 -41.5 -137.5t-119.5 -47.5z" />
    <glyph glyph-name="gbreve" unicode="&#x11f;" horiz-adv-x="585" 
d="M513 22q0 -238 -252 -238q-108 0 -196 37l33 114q56 -26 119 -32q53 -2 85 16q67 18 67 85v20q-42 -21 -100 -21q-105 0 -168.5 69.5t-63.5 193.5q0 130 71.5 206.5t201.5 76.5q122 0 203 -36v-491zM368 128v306q-19 8 -61 8q-61 0 -91.5 -45t-30.5 -127q0 -161 112 -161
q42 0 71 19zM303 603q-78 0 -120.5 48t-41.5 137h108q3 -35 14.5 -54.5t39.5 -19.5q49 0 53 74h108q0 -90 -41.5 -137.5t-119.5 -47.5z" />
    <glyph glyph-name="Gdotaccent" unicode="&#x120;" horiz-adv-x="683" 
d="M590 20q-80 -40 -220 -40q-154 0 -241 97t-87 270q0 167 93 265.5t241 98.5q125 0 209 -50l-47 -110q-53 31 -131 35q-101 5 -155 -56t-54 -185q0 -116 45.5 -180.5t128.5 -64.5q52 0 70 9v170h-71v119h219v-378zM368 761q-35 0 -59 23t-24 60t24 59.5t59 22.5
t58.5 -22.5t23.5 -59.5t-23.5 -60t-58.5 -23z" />
    <glyph glyph-name="gdotaccent" unicode="&#x121;" horiz-adv-x="585" 
d="M513 22q0 -238 -252 -238q-108 0 -196 37l33 114q56 -26 119 -32q53 -2 85 16q67 18 67 85v20q-42 -21 -100 -21q-105 0 -168.5 69.5t-63.5 193.5q0 130 71.5 206.5t201.5 76.5q122 0 203 -36v-491zM368 128v306q-19 8 -61 8q-61 0 -91.5 -45t-30.5 -127q0 -161 112 -161
q42 0 71 19zM301 597q-35 0 -59 23t-24 60t24 59.5t59 22.5t58.5 -22.5t23.5 -59.5t-23.5 -60t-58.5 -23z" />
    <glyph glyph-name="Gcommaaccent" unicode="&#x122;" horiz-adv-x="683" 
d="M446 112q10 80 13 115l-6.5 16.5t-6.5 17.5v112h164v-355q-87 -39 -230 -39q-160 0 -249 98t-89 269q0 167 95.5 267.5t249.5 100.5q129 0 221 -53l-48 -116q-57 35 -143 39q-102 5 -159 -56t-57 -182q0 -115 46.5 -178.5t135.5 -63.5q42 0 63 8zM325 -67v30h125
q0 -2 5 -34q0 -16 -1 -21q-2 -64 -39 -95.5t-94 -33.5h-25q-29 4 -44 9v95q38 0 55.5 11t17.5 39z" />
    <glyph glyph-name="gcommaaccent" unicode="&#x123;" horiz-adv-x="585" 
d="M378 11q-4 3 -11 10t-10 9q-30 -21 -83 -21q-105 0 -171 67t-66 192q0 126 73 201t204 75q123 0 212 -34v-479q0 -124 -66.5 -181.5t-196.5 -57.5q-107 0 -198 35l31 118q56 -25 125 -30q56 -3 90 13q62 15 67 83zM378 143v282q-25 7 -67 7q-60 0 -91.5 -42t-31.5 -118
q0 -77 30.5 -114t80.5 -37t79 22zM239 597q-6 88 33 139.5t108 69.5l54 -79q-34 -21 -50 -44t-16 -64v-30h-129v8z" />
    <glyph glyph-name="Hcircumflex" unicode="&#x124;" horiz-adv-x="716" 
d="M604 -8h-153v303h-231v-303h-154v706h154v-287h231v287h153v-706zM334 838l-104 -88l-66 75l170 163l168 -163l-63 -75z" />
    <glyph glyph-name="hcircumflex" unicode="&#x125;" 
d="M518 -8h-147v278q0 39 -1 58t-5.5 44.5t-13.5 36.5t-27 19.5t-44 8.5q-42 0 -72 -14v-431h-148v788h148v-252q42 18 84 18q60 3 103 -10.5t66.5 -35t36.5 -58t16.5 -69.5t3.5 -80v-301zM291 883l-105 -87l-65 75l170 162l168 -162l-63 -75z" />
    <glyph glyph-name="Hbar" unicode="&#x126;" horiz-adv-x="740" 
d="M741 498h-81v-515h-151v306h-278v-306h-151v515h-81v119h81v93h151v-93h278v93h151v-93h81v-119zM509 423v75h-278v-75h278z" />
    <glyph glyph-name="hbar" unicode="&#x127;" horiz-adv-x="586" 
d="M211 -17h-145v610h-70v109h70v70l145 24v-94h163v-109h-163v-65q45 14 88 14q128 0 180 -66.5t52 -190.5v-302h-146v283q0 81 -21 113t-77 32q-40 0 -76 -12v-416z" />
    <glyph glyph-name="Itilde" unicode="&#x128;" horiz-adv-x="286" 
d="M221 -8h-154v706h154v-706zM201 769q-28 0 -70.5 18.5t-56.5 18.5q-22 0 -47 -52l-85 53q17 45 50 80.5t79 35.5q29 0 70.5 -18.5t55.5 -18.5q21 0 48 52l86 -55q-64 -114 -130 -114z" />
    <glyph glyph-name="itilde" unicode="&#x129;" horiz-adv-x="266" 
d="M206 539v-556h-146v556h146zM192 588q-28 0 -70.5 18.5t-56.5 18.5q-22 0 -47 -52l-85 53q17 45 50 80.5t79 35.5q29 0 70.5 -18.5t55.5 -18.5q21 0 48 52l86 -55q-64 -114 -130 -114z" />
    <glyph glyph-name="Imacron" unicode="&#x12a;" horiz-adv-x="286" 
d="M221 -8h-154v706h154v-706zM309 786h-330v115h330v-115z" />
    <glyph glyph-name="imacron" unicode="&#x12b;" horiz-adv-x="266" 
d="M206 539v-556h-146v556h146zM299 622h-330v115h330v-115z" />
    <glyph glyph-name="Ibreve" unicode="&#x12c;" horiz-adv-x="286" 
d="M221 -8h-154v706h154v-706zM143 767q-78 0 -120.5 48t-41.5 137h108q3 -35 14.5 -54.5t39.5 -19.5q49 0 53 74h108q0 -90 -41.5 -137.5t-119.5 -47.5z" />
    <glyph glyph-name="ibreve" unicode="&#x12d;" horiz-adv-x="266" 
d="M206 539v-556h-146v556h146zM134 603q-78 0 -120.5 48t-41.5 137h108q3 -35 14.5 -54.5t39.5 -19.5q49 0 53 74h108q0 -90 -41.5 -137.5t-119.5 -47.5z" />
    <glyph glyph-name="Iogonek" unicode="&#x12e;" horiz-adv-x="286" 
d="M218 710v-718q-71 -61 -73 -83q3 -16 31 -13q16 1 46 11l13 -110q-44 -19 -97 -19q-130 0 -130 98q0 61 60 112v722h150z" />
    <glyph glyph-name="iogonek" unicode="&#x12f;" horiz-adv-x="266" 
d="M206 539v-547q-4 -4 -14 -12.5t-14.5 -13l-12.5 -12t-12.5 -12.5t-9.5 -11.5t-7 -11.5t-3 -10q5 -16 31 -13q17 1 47 11l13 -110q-45 -19 -98 -19q-130 0 -130 98q0 53 64 117v546h146zM220 676q0 -40 -25 -64t-62 -24t-62.5 24t-25.5 64t25.5 64t62.5 24t62 -24t25 -64z
" />
    <glyph glyph-name="Idotaccent" unicode="&#x130;" horiz-adv-x="286" 
d="M68 -8v708h156v-708h-156zM143 752q-35 0 -58.5 22.5t-23.5 59.5t23.5 60t58.5 23t58.5 -23t23.5 -60t-23.5 -59.5t-58.5 -22.5z" />
    <glyph glyph-name="dotlessi" unicode="&#x131;" horiz-adv-x="266" 
d="M206 539v-556h-146v556h146z" />
    <glyph glyph-name="IJ" unicode="&#x132;" horiz-adv-x="794" 
d="M68 -8v708h156v-708h-156zM677 700v-521q0 -245 -231 -256q-92 -2 -175 43l35 118q73 -35 127 -12q46 15 67 54t21 111v463h156z" />
    <glyph glyph-name="ij" unicode="&#x133;" horiz-adv-x="531" 
d="M484 684q0 -34 -24.5 -56.5t-59.5 -22.5t-59.5 22.5t-24.5 56.5q0 35 24.5 57.5t59.5 22.5t59.5 -22.5t24.5 -57.5zM474 35q0 -105 -46 -165.5t-132 -73.5q-34 -9 -88 -1l10 91q57 13 82 42.5t26 97.5v513h148v-504zM219 684q0 -34 -24.5 -56.5t-59.5 -22.5t-59.5 22.5
t-24.5 56.5q0 35 24.5 57.5t59.5 22.5t59.5 -22.5t24.5 -57.5zM209 -8h-148v547h148v-547z" />
    <glyph glyph-name="Jcircumflex" unicode="&#x134;" horiz-adv-x="511" 
d="M336 135q0 -228 -210 -251q-74 -6 -151 24l13.5 55l14.5 60q67 -21 110 8q41 21 55.5 63t14.5 119v29v456h153v-563zM260 838l-104 -88l-66 75l170 163l168 -163l-63 -75z" />
    <glyph glyph-name="jcircumflex" unicode="&#x135;" horiz-adv-x="266" 
d="M7 -203q-44 0 -94 18l20 125q36 -13 66 -13q35 0 48 20.5t13 66.5v525h146v-526q0 -110 -49 -163t-150 -53zM132 673l-104 -88l-66 75l170 163l168 -163l-63 -75z" />
    <glyph glyph-name="Kcommaaccent" unicode="&#x136;" horiz-adv-x="647" 
d="M648 -8h-132q-32 2 -47 4q-48 83 -113.5 166.5t-131.5 143.5v-314h-156v708h156v-287q105 104 233 287h175q-108 -140 -276 -329q76 -72 157.5 -177t134.5 -202zM286 -67v30h124q5 -25 5 -34v-21q-2 -64 -39.5 -95.5t-94.5 -33.5h-24q-31 4 -44 9v95q38 0 55.5 11
t17.5 39z" />
    <glyph glyph-name="kcommaaccent" unicode="&#x137;" horiz-adv-x="542" 
d="M228 -67v30h124q5 -25 5 -34v-21q-2 -64 -39.5 -95.5t-94.5 -33.5h-24q-31 4 -44 9v95q38 0 55.5 11t17.5 39zM548 -8h-167l-46 75t-73 112t-53 59v-246h-147v788h147v-452q112 141 162 211h164l-204 -247q115 -130 217 -300z" />
    <glyph glyph-name="kgreenlandic" unicode="&#x138;" horiz-adv-x="549" 
d="M206 -17h-146v556h146v-189q123 129 173 189h177q-122 -144 -239 -256q64 -54 133.5 -138.5t112.5 -161.5h-167q-84 133 -190 215v-215z" />
    <glyph glyph-name="Lacute" unicode="&#x139;" horiz-adv-x="536" 
d="M467 -8h-400v706h154v-587h246v-119zM196 778h-102l83 202h177z" />
    <glyph glyph-name="lacute" unicode="&#x13a;" horiz-adv-x="341" 
d="M312 59l-25 -73q-131 4 -178.5 51t-47.5 152v591h148v-553q0 -49 4.5 -78t18.5 -47t30.5 -26t49.5 -17zM187 857h-102l83 202h177z" />
    <glyph glyph-name="Lcommaaccent" unicode="&#x13b;" horiz-adv-x="536" 
d="M224 115h269v-123h-425v708h156v-585zM253 -67v30h125q4 -30 4 -34q1 -14 0 -21q-2 -64 -39.5 -95.5t-94.5 -33.5h-24q-29 4 -44 9v95q38 0 55.5 11t17.5 39z" />
    <glyph glyph-name="lcommaaccent" unicode="&#x13c;" horiz-adv-x="289" 
d="M100 -67v30h124q5 -25 5 -34v-21q-2 -64 -39.5 -95.5t-94.5 -33.5h-24q-31 4 -44 9v95q38 0 55.5 11t17.5 39zM312 59l-25 -73q-131 4 -178.5 51t-47.5 152v591h148v-553q0 -49 4.5 -78t18.5 -47t30.5 -26t49.5 -17z" />
    <glyph glyph-name="Lcaron" unicode="&#x13d;" horiz-adv-x="536" 
d="M224 115h269v-123h-425v708h156v-585zM285 711h136l-34 -265h-102v265z" />
    <glyph glyph-name="lcaron" unicode="&#x13e;" horiz-adv-x="429" 
d="M268 789h136l-34 -266h-102v266zM312 59l-25 -73q-131 4 -178.5 51t-47.5 152v591h148v-553q0 -49 4.5 -78t18.5 -47t30.5 -26t49.5 -17z" />
    <glyph glyph-name="Ldot" unicode="&#x13f;" horiz-adv-x="536" 
d="M224 115h269v-123h-425v708h156v-585zM419 304q-37 0 -63 25t-26 65t26 65t63 25q38 0 64 -25t26 -65t-26 -65t-64 -25z" />
    <glyph glyph-name="ldot" unicode="&#x140;" horiz-adv-x="341" 
d="M312 59l-25 -73q-131 4 -178.5 51t-47.5 152v591h148v-553q0 -49 4.5 -78t18.5 -47t30.5 -26t49.5 -17zM135 840q-35 0 -59 23t-24 60t24 59.5t59 22.5t58.5 -22.5t23.5 -59.5t-23.5 -60t-58.5 -23z" />
    <glyph glyph-name="Lslash" unicode="&#x141;" horiz-adv-x="560" 
d="M242 455q13 6 35.5 18l40.5 21.5t33 16.5l52 -108l-161 -83v-202h315v-135h-466v262l-60 -30l-53 108l113 57v330h151v-255z" />
    <glyph glyph-name="lslash" unicode="&#x142;" horiz-adv-x="316" 
d="M223 512l63 32l50 -103l-113 -57v-215q0 -36 17 -51t65 -20l-21 -125q-94 3 -140.5 32t-57.5 91q-9 41 -9 104v110q-30 -16 -49 -24l-50 102l99 50v342h146v-268z" />
    <glyph glyph-name="Nacute" unicode="&#x143;" horiz-adv-x="735" 
d="M627 -8h-90l-35 4q-107 184 -256 406q-7 10 -17 28l-16 28t-9 10q0 -10 1 -68t1 -89v-319h-140v706h129q124 -165 256 -372q35 -59 38 -63q0 20 -1 93t-1 111v231h140v-706zM404 778h-102l83 202h177z" />
    <glyph glyph-name="nacute" unicode="&#x144;" 
d="M518 -8h-147v279q0 32 -0.5 47.5t-3 39t-8 34.5t-15.5 23.5t-26 17t-39 4.5q-40 0 -71 -9v-436h-148v515q76 42 226 42q51 0 89.5 -8.5t63.5 -26.5t41 -39.5t24 -53t11 -60.5t3 -68v-301zM333 614h-102l83 202h177z" />
    <glyph glyph-name="Ncommaaccent" unicode="&#x145;" horiz-adv-x="735" 
d="M640 -8h-90l-35 4q-59 103 -161.5 259t-142.5 199q0 -24 0.5 -81.5t0.5 -88.5v-292h-144v708h125q129 -151 255 -344q12 -18 29.5 -47t19.5 -32q0 27 -1 87t-1 93v243h145v-708zM314 -67v30h125q1 -9 3 -21t2 -13q0 -16 -1 -21q-2 -64 -39.5 -95.5t-94.5 -33.5h-24
q-29 4 -44 9v95q38 0 55.5 11t17.5 39z" />
    <glyph glyph-name="ncommaaccent" unicode="&#x146;" 
d="M62 -8v512q80 40 229 40q73 0 121 -17t73.5 -53t35 -79.5t9.5 -107.5v-295h-149v269q0 93 -18.5 130t-77.5 37q-47 0 -73 -8v-428h-150zM231 -67v30h124q1 -2 5 -34v-21q-2 -64 -39.5 -95.5t-94.5 -33.5h-24q-31 4 -44 9v95q38 0 55.5 11t17.5 39z" />
    <glyph glyph-name="Ncaron" unicode="&#x147;" horiz-adv-x="735" 
d="M627 -8h-90l-35 4q-107 184 -256 406q-7 10 -17 28l-16 28t-9 10q0 -10 1 -68t1 -89v-319h-140v706h129q124 -165 256 -372q35 -59 38 -63q0 20 -1 93t-1 111v231h140v-706zM247 1001l105 -87l104 87l66 -75l-170 -162l-168 162z" />
    <glyph glyph-name="ncaron" unicode="&#x148;" 
d="M518 -8h-147v279q0 32 -0.5 47.5t-3 39t-8 34.5t-15.5 23.5t-26 17t-39 4.5q-40 0 -71 -9v-436h-148v515q76 42 226 42q51 0 89.5 -8.5t63.5 -26.5t41 -39.5t24 -53t11 -60.5t3 -68v-301zM176 837l105 -87l104 87l66 -75l-170 -162l-168 162z" />
    <glyph glyph-name="napostrophe" unicode="&#x149;" horiz-adv-x="597" 
d="M79 -8v512q80 40 229 40q73 0 121 -17t73.5 -53t35 -79.5t9.5 -107.5v-295h-149v269q0 93 -19 130t-78 37q-46 0 -72 -8v-428h-150zM17 793h126q3 -5 5.5 -10.5l5.5 -12t5 -9.5q-1 -66 -19 -117t-56 -111l-105 33q45 98 45 169q0 30 -7 58z" />
    <glyph glyph-name="Eng" unicode="&#x14a;" horiz-adv-x="735" 
d="M518 -5v32q-57 99 -144 225.5t-157 211.5v-481h-149v727h118q76 -82 170.5 -207.5t161.5 -231.5v439h150v-712q0 -86 -28.5 -134.5t-97.5 -59.5q-27 -8 -71 -6q-33 0 -78 15l20 125q36 -13 60 -13q25 0 35 17t10 53z" />
    <glyph glyph-name="eng" unicode="&#x14b;" 
d="M380 -17v291q0 80 -22 112.5t-78 32.5q-46 0 -74 -7v-429h-146v534q117 33 230 33q129 0 182 -66.5t53 -190.5v-303q0 -86 -28 -132.5t-101 -55.5q-28 -4 -61 -3q-32 0 -73 15l19 115q37 -10 55 -10q24 0 34 15.5t10 48.5z" />
    <glyph glyph-name="Omacron" unicode="&#x14c;" horiz-adv-x="783" 
d="M663 345q0 -168 -82.5 -266.5t-227.5 -98.5q-143 0 -226.5 99t-83.5 266q0 166 84 266t226 100q143 0 226.5 -99.5t83.5 -266.5zM506 348q0 108 -38.5 176t-114.5 68t-114.5 -68.5t-38.5 -175.5t38.5 -175t114.5 -68q77 0 115 67.5t38 175.5zM518 805h-330v115h330v-115z
" />
    <glyph glyph-name="omacron" unicode="&#x14d;" horiz-adv-x="596" 
d="M537 265q0 -128 -67 -206.5t-183 -78.5q-115 0 -182.5 78.5t-67.5 206.5q0 127 68 206t182 79q115 0 182.5 -78.5t67.5 -206.5zM388 266q0 78 -25 125t-76 47q-52 0 -77 -47t-25 -125t25 -124t77 -46t76.5 46t24.5 124zM453 622h-330v115h330v-115z" />
    <glyph glyph-name="Obreve" unicode="&#x14e;" horiz-adv-x="783" 
d="M663 345q0 -168 -82.5 -266.5t-227.5 -98.5q-143 0 -226.5 99t-83.5 266q0 166 84 266t226 100q143 0 226.5 -99.5t83.5 -266.5zM506 348q0 108 -38.5 176t-114.5 68t-114.5 -68.5t-38.5 -175.5t38.5 -175t114.5 -68q77 0 115 67.5t38 175.5zM353 786q-78 0 -120.5 48
t-41.5 137h108q3 -35 14.5 -54.5t39.5 -19.5q49 0 53 74h108q0 -90 -41.5 -137.5t-119.5 -47.5z" />
    <glyph glyph-name="obreve" unicode="&#x14f;" horiz-adv-x="596" 
d="M537 265q0 -128 -67 -206.5t-183 -78.5q-115 0 -182.5 78.5t-67.5 206.5q0 127 68 206t182 79q115 0 182.5 -78.5t67.5 -206.5zM388 266q0 78 -25 125t-76 47q-52 0 -77 -47t-25 -125t25 -124t77 -46t76.5 46t24.5 124zM288 603q-78 0 -120.5 48t-41.5 137h108
q3 -35 14.5 -54.5t39.5 -19.5q49 0 53 74h108q0 -90 -41.5 -137.5t-119.5 -47.5z" />
    <glyph glyph-name="Ohungarumlaut" unicode="&#x150;" horiz-adv-x="783" 
d="M700 346q0 -171 -90.5 -269.5t-238.5 -98.5q-147 0 -238 99t-91 269t91.5 269t237.5 99q147 0 238 -99t91 -269zM540 349q0 108 -45 174t-124 66t-124 -66t-45 -174q0 -109 44.5 -175t124.5 -66t124.5 66t44.5 175zM367 972l93 -77l-153 -179l-79 61zM549 972l97 -81
l-157 -175l-79 61z" />
    <glyph glyph-name="ohungarumlaut" unicode="&#x151;" horiz-adv-x="596" 
d="M554 263q0 -127 -71 -205t-188 -78q-116 0 -187 78t-71 205q0 126 71.5 204.5t186.5 78.5q116 0 187.5 -78.5t71.5 -204.5zM403 264q0 77 -28.5 121t-79.5 44t-79 -44.5t-28 -120.5t28 -120t79 -44t79.5 44t28.5 120zM269 823l93 -76l-152 -179l-80 60zM457 823l97 -80
l-157 -175l-79 60z" />
    <glyph glyph-name="OE" unicode="&#x152;" horiz-adv-x="994" 
d="M496 114v465q-21 3 -59 3q-120 0 -181 -61t-61 -174t61 -174.5t181 -61.5q8 0 59 3zM974 -17h-428q-48 -6 -104 -6q-186 0 -294 93.5t-108 276.5t108 276t294 93q56 0 103 -6h405v-133h-305v-149h269v-131h-269v-181h329v-133z" />
    <glyph glyph-name="oe" unicode="&#x153;" horiz-adv-x="940" 
d="M296 552q120 0 188 -96q58 80 152 92q37 5 70 -1q94 -12 147 -81.5t53 -192.5q0 -10 -1.5 -31.5t-1.5 -30.5h-342q17 -91 110 -106q28 -3 61 0q60 3 120 30l22 -126q-54 -28 -139 -35q-44 -3 -81 0q-114 12 -174 90q-69 -94 -184 -94q-118 0 -190.5 80t-72.5 211t73 211
t190 80zM414 261q0 74 -31 117t-85 43t-85 -43t-31 -117t31 -117t85 -43t85 43t31 117zM560 326h198q-5 46 -29 72t-66 26t-69.5 -28t-33.5 -70z" />
    <glyph glyph-name="Racute" unicode="&#x154;" horiz-adv-x="654" 
d="M606 -8h-169q-95 180 -164 281h-54v-281h-152v685q96 30 205 30q147 0 222 -58t75 -168q0 -68 -39.5 -118.5t-104.5 -67.5v-1q58 -74 181 -302zM415 478q0 65 -36.5 93t-90.5 28q-41 0 -69 -8v-231h69q57 0 92 29t35 89zM346 778h-102l83 202h177z" />
    <glyph glyph-name="racute" unicode="&#x155;" horiz-adv-x="401" 
d="M376 536q-8 -35 -26 -107q-36 9 -70 9q-46 0 -72 -11v-435h-148v516q88 37 197 40q56 2 119 -12zM261 614h-102l83 202h177z" />
    <glyph glyph-name="Rcommaaccent" unicode="&#x156;" horiz-adv-x="645" 
d="M590 478q0 -64 -35.5 -112t-93.5 -73q82 -104 173 -301h-170q-48 95 -137 241l-22 16t-23 16h-59v-273h-155v689q94 26 210 26q155 0 233.5 -58.5t78.5 -170.5zM285 591q-34 0 -62 -4v-227q7 0 23.5 -0.5t24.5 -0.5q79 0 120.5 25.5t41.5 90.5q0 116 -148 116zM280 -67
v30h124q5 -25 5 -34v-21q-2 -64 -39.5 -95.5t-94.5 -33.5h-24q-31 4 -44 9v95q38 0 55.5 11t17.5 39z" />
    <glyph glyph-name="rcommaaccent" unicode="&#x157;" horiz-adv-x="401" 
d="M274 544q63 0 120 -16q-18 -81 -25 -109q-28 6 -65 4q-18 5 -27 5q-40 0 -65 -9v-427h-150v512q94 40 212 40zM70 -67v30h124q0 -2 5 -34v-21q-2 -64 -39.5 -95.5t-94.5 -33.5h-24q-31 4 -44 9v95q38 0 55.5 11t17.5 39z" />
    <glyph glyph-name="Rcaron" unicode="&#x158;" horiz-adv-x="654" 
d="M606 -8h-169q-95 180 -164 281h-54v-281h-152v685q96 30 205 30q147 0 222 -58t75 -168q0 -68 -39.5 -118.5t-104.5 -67.5v-1q58 -74 181 -302zM415 478q0 65 -36.5 93t-90.5 28q-41 0 -69 -8v-231h69q57 0 92 29t35 89zM189 1001l105 -87l104 87l66 -75l-170 -162
l-168 162z" />
    <glyph glyph-name="rcaron" unicode="&#x159;" horiz-adv-x="401" 
d="M274 544q63 0 120 -16q-18 -81 -25 -109q-28 6 -65 4q-18 5 -27 5q-40 0 -65 -9v-427h-150v512q94 40 212 40zM133 801l105 -87l104 87l66 -75l-170 -162l-168 162z" />
    <glyph glyph-name="Sacute" unicode="&#x15a;" horiz-adv-x="553" 
d="M485 193q0 -98 -67.5 -155.5t-184.5 -57.5q-133 0 -209 49l40 118q73 -42 154 -42q108 0 108 82q0 39 -30.5 62t-108.5 54q-138 62 -148 176q-3 26 0 53q11 81 73.5 130t160.5 49q108 0 188 -47l-41 -111q-65 39 -133 39q-98 0 -98 -76q0 -39 29.5 -60.5t101.5 -50.5
q90 -39 127.5 -88t37.5 -124zM295 778h-102l83 202h177z" />
    <glyph glyph-name="sacute" unicode="&#x15b;" horiz-adv-x="460" 
d="M411 149q0 -77 -57.5 -123t-157.5 -46q-105 0 -172 39l33 111q64 -35 129 -35q35 0 55.5 14t20.5 38t-21.5 40.5t-78.5 39.5q-65 28 -94.5 65t-29.5 92q0 74 53 120t141 46q89 0 161 -35l-33 -105q-56 29 -109 29q-32 0 -50 -13t-18 -36q0 -24 16.5 -36.5t61.5 -33.5
q12 -5 18 -8q71 -31 101.5 -68.5t30.5 -94.5zM256 614h-102l83 202h177z" />
    <glyph glyph-name="Scircumflex" unicode="&#x15c;" horiz-adv-x="553" 
d="M485 193q0 -98 -67.5 -155.5t-184.5 -57.5q-133 0 -209 49l40 118q73 -42 154 -42q108 0 108 82q0 39 -30.5 62t-108.5 54q-138 62 -148 176q-3 26 0 53q11 81 73.5 130t160.5 49q108 0 188 -47l-41 -111q-65 39 -133 39q-98 0 -98 -76q0 -39 29.5 -60.5t101.5 -50.5
q90 -39 127.5 -88t37.5 -124zM244 838l-104 -88l-66 75l170 163l168 -163l-63 -75z" />
    <glyph glyph-name="scircumflex" unicode="&#x15d;" horiz-adv-x="460" 
d="M411 149q0 -77 -57.5 -123t-157.5 -46q-105 0 -172 39l33 111q64 -35 129 -35q35 0 55.5 14t20.5 38t-21.5 40.5t-78.5 39.5q-65 28 -94.5 65t-29.5 92q0 74 53 120t141 46q89 0 161 -35l-33 -105q-56 29 -109 29q-32 0 -50 -13t-18 -36q0 -24 16.5 -36.5t61.5 -33.5
q12 -5 18 -8q71 -31 101.5 -68.5t30.5 -94.5zM204 673l-104 -88l-66 75l170 163l168 -163l-63 -75z" />
    <glyph glyph-name="Scedilla" unicode="&#x15e;" horiz-adv-x="553" 
d="M328 -25q20 -22 18 -60q26 -26 22 -59q-19 -79 -133 -79q-46 0 -100 17l21 101q45 -14 73 -14q15 0 10 14q-8 12 -50 27q5 16 19 50q-119 9 -192 56l44 128q95 -53 196 -53q121 0 121 78q0 42 -32.5 64.5t-111.5 50.5q-47 17 -78 33t-61 41t-45 60.5t-15 81.5
q0 100 69 156.5t189 56.5q122 0 215 -56l-48 -125q-83 47 -163 47q-108 0 -108 -70q0 -15 7 -28.5t15.5 -21.5t29 -19t32 -15.5l41.5 -16.5q47 -18 76.5 -31.5t59.5 -33.5t46 -42.5t26.5 -55t10.5 -74.5q0 -89 -52 -141.5t-152 -66.5z" />
    <glyph glyph-name="scedilla" unicode="&#x15f;" horiz-adv-x="460" 
d="M298 -85q26 -35 15 -73q-27 -65 -126 -65q-46 0 -100 17l21 101q45 -14 73 -14q15 0 10 14q-8 12 -50 27q3 10 20 51q-81 6 -141 34l29 127q77 -33 142 -36q1 0 18.5 -0.5t17.5 0.5q63 6 63 40q0 20 -18.5 32t-76.5 36q-82 32 -121.5 69t-39.5 109q0 78 56 123t154 45
q88 0 170 -32l-28 -123q-76 29 -137 29q-70 0 -70 -39q0 -20 18 -32.5t68 -32.5q93 -35 132 -74t39 -110q0 -66 -40.5 -107t-114.5 -54q19 -25 17 -62z" />
    <glyph glyph-name="Scaron" unicode="&#x160;" horiz-adv-x="553" 
d="M485 193q0 -98 -67.5 -155.5t-184.5 -57.5q-133 0 -209 49l40 118q73 -42 154 -42q108 0 108 82q0 39 -30.5 62t-108.5 54q-138 62 -148 176q-3 26 0 53q11 81 73.5 130t160.5 49q108 0 188 -47l-41 -111q-65 39 -133 39q-98 0 -98 -76q0 -39 29.5 -60.5t101.5 -50.5
q90 -39 127.5 -88t37.5 -124zM139 1001l105 -87l104 87l66 -75l-170 -162l-168 162z" />
    <glyph glyph-name="scaron" unicode="&#x161;" horiz-adv-x="460" 
d="M411 149q0 -77 -57.5 -123t-157.5 -46q-105 0 -172 39l33 111q64 -35 129 -35q35 0 55.5 14t20.5 38t-21.5 40.5t-78.5 39.5q-65 28 -94.5 65t-29.5 92q0 74 53 120t141 46q89 0 161 -35l-33 -105q-56 29 -109 29q-32 0 -50 -13t-18 -36q0 -24 16.5 -36.5t61.5 -33.5
q12 -5 18 -8q71 -31 101.5 -68.5t30.5 -94.5zM99 837l105 -87l104 87l66 -75l-170 -162l-168 162z" />
    <glyph glyph-name="uni0162" unicode="&#x162;" horiz-adv-x="585" 
d="M359 -85q26 -29 21 -64q-25 -74 -131 -74q-46 0 -100 17l21 101q42 -14 72 -14q14 0 11 14q-7 12 -51 27q17 45 25 61h-10v593h-215v134h581v-134h-215v-593h-27q22 -25 18 -68z" />
    <glyph glyph-name="uni0163" unicode="&#x163;" horiz-adv-x="419" 
d="M326 -85q26 -35 15 -73q-27 -65 -125 -65q-47 0 -101 17l21 101q27 -8 57 -12q28 -2 34 11q-2 8 -19 16l-38 12q3 11 22 58q-79 18 -107.5 75t-28.5 167v458h145v-141h191v-127h-191v-208q0 -52 15 -75.5t49 -25.5q12 -1 27 0q44 2 99 26l25 -121q-51 -27 -108 -32
q20 -24 18 -61z" />
    <glyph glyph-name="Tcaron" unicode="&#x164;" horiz-adv-x="585" 
d="M506 579h-168v-587h-153v587h-168v119h489v-119zM154 1001l105 -87l104 87l66 -75l-170 -162l-168 162z" />
    <glyph glyph-name="tcaron" unicode="&#x165;" horiz-adv-x="468" 
d="M218 696v-162h161v-117h-161v-210q0 -61 16.5 -84t54.5 -23q47 0 91 23q8 -64 16 -112q-55 -27 -120 -30q-56 -2 -95 12t-61 36.5t-34 62t-15 75t-3 88.5h-15v133l15 117v161zM268 823h135l-36 -226h-99v226z" />
    <glyph glyph-name="Tbar" unicode="&#x166;" horiz-adv-x="585" 
d="M2 710h581v-134h-215v-180h133v-119h-133v-294h-151v294h-133v119h133v180h-215v134z" />
    <glyph glyph-name="tbar" unicode="&#x167;" horiz-adv-x="419" 
d="M201 701v-162h191v-127h-191v-84h189v-109h-189q3 -46 30 -56q4 -36 20 -48.5t46 -11.5q40 3 94 26l25 -122q-74 -35 -153 -35q-116 0 -161.5 57.5t-45.5 175.5v472z" />
    <glyph glyph-name="Utilde" unicode="&#x168;" horiz-adv-x="695" 
d="M587 231q0 -115 -68.5 -183.5t-194.5 -68.5q-110 0 -177.5 55t-78.5 149q-5 52 -5 96v419h153v-396q0 -105 23.5 -150.5t88.5 -45.5q46 0 75 27.5t33 82.5q3 40 3 87v395h148v-467zM388 769q-28 0 -70.5 18.5t-56.5 18.5q-22 0 -47 -52l-85 53q17 45 50 80.5t79 35.5
q29 0 70.5 -18.5t55.5 -18.5q21 0 48 52l86 -55q-64 -114 -130 -114z" />
    <glyph glyph-name="utilde" unicode="&#x169;" 
d="M512 25q-68 -44 -226 -44q-125 0 -177 60.5t-52 177.5v320h148v-277q0 -36 1 -56.5t6 -44.5t14 -36t25.5 -20.5t41.5 -8.5q43 0 71 11v432h148v-514zM349 605q-28 0 -70.5 18.5t-56.5 18.5q-22 0 -47 -52l-85 53q17 45 50 80.5t79 35.5q29 0 70.5 -18.5t55.5 -18.5
q21 0 48 52l86 -55q-64 -114 -130 -114z" />
    <glyph glyph-name="Umacron" unicode="&#x16a;" horiz-adv-x="695" 
d="M587 231q0 -115 -68.5 -183.5t-194.5 -68.5q-110 0 -177.5 55t-78.5 149q-5 52 -5 96v419h153v-396q0 -105 23.5 -150.5t88.5 -45.5q46 0 75 27.5t33 82.5q3 40 3 87v395h148v-467zM495 786h-330v115h330v-115z" />
    <glyph glyph-name="umacron" unicode="&#x16b;" 
d="M512 25q-68 -44 -226 -44q-125 0 -177 60.5t-52 177.5v320h148v-277q0 -36 1 -56.5t6 -44.5t14 -36t25.5 -20.5t41.5 -8.5q43 0 71 11v432h148v-514zM456 622h-330v115h330v-115z" />
    <glyph glyph-name="Ubreve" unicode="&#x16c;" horiz-adv-x="695" 
d="M587 231q0 -115 -68.5 -183.5t-194.5 -68.5q-110 0 -177.5 55t-78.5 149q-5 52 -5 96v419h153v-396q0 -105 23.5 -150.5t88.5 -45.5q46 0 75 27.5t33 82.5q3 40 3 87v395h148v-467zM330 767q-78 0 -120.5 48t-41.5 137h108q3 -35 14.5 -54.5t39.5 -19.5q49 0 53 74h108
q0 -90 -41.5 -137.5t-119.5 -47.5z" />
    <glyph glyph-name="ubreve" unicode="&#x16d;" 
d="M512 25q-68 -44 -226 -44q-125 0 -177 60.5t-52 177.5v320h148v-277q0 -36 1 -56.5t6 -44.5t14 -36t25.5 -20.5t41.5 -8.5q43 0 71 11v432h148v-514zM291 603q-78 0 -120.5 48t-41.5 137h108q3 -35 14.5 -54.5t39.5 -19.5q49 0 53 74h108q0 -90 -41.5 -137.5
t-119.5 -47.5z" />
    <glyph glyph-name="Uring" unicode="&#x16e;" horiz-adv-x="695" 
d="M587 231q0 -115 -68.5 -183.5t-194.5 -68.5q-110 0 -177.5 55t-78.5 149q-5 52 -5 96v419h153v-396q0 -105 23.5 -150.5t88.5 -45.5q46 0 75 27.5t33 82.5q3 40 3 87v395h148v-467zM454 879q0 -57 -36 -90.5t-89 -33.5q-52 0 -88.5 33.5t-36.5 90.5q0 56 36.5 89.5
t88.5 33.5q53 0 89 -33t36 -90zM363 879q0 16 -10 25.5t-24 9.5q-15 0 -24.5 -9.5t-9.5 -25.5q0 -17 9.5 -26.5t24.5 -9.5q14 0 24 9.5t10 26.5z" />
    <glyph glyph-name="uring" unicode="&#x16f;" 
d="M512 25q-68 -44 -226 -44q-125 0 -177 60.5t-52 177.5v320h148v-277q0 -36 1 -56.5t6 -44.5t14 -36t25.5 -20.5t41.5 -8.5q43 0 71 11v432h148v-514zM416 714q0 -57 -36 -90.5t-89 -33.5q-52 0 -88.5 33.5t-36.5 90.5q0 56 36.5 89.5t88.5 33.5q53 0 89 -33t36 -90z
M325 714q0 16 -10 25.5t-24 9.5q-15 0 -24.5 -9.5t-9.5 -25.5q0 -17 9.5 -26.5t24.5 -9.5q14 0 24 9.5t10 26.5z" />
    <glyph glyph-name="Uhungarumlaut" unicode="&#x170;" horiz-adv-x="695" 
d="M587 231q0 -115 -68.5 -183.5t-194.5 -68.5q-110 0 -177.5 55t-78.5 149q-5 52 -5 96v419h153v-396q0 -105 23.5 -150.5t88.5 -45.5q46 0 75 27.5t33 82.5q3 40 3 87v395h148v-467zM361 788l139 196l97 -81l-157 -176zM399 906l-152 -179l-79 61l139 196z" />
    <glyph glyph-name="uhungarumlaut" unicode="&#x171;" 
d="M512 25q-68 -44 -226 -44q-125 0 -177 60.5t-52 177.5v320h148v-277q0 -36 1 -56.5t6 -44.5t14 -36t25.5 -20.5t41.5 -8.5q43 0 71 11v432h148v-514zM294 646l139 196l97 -81l-157 -176zM332 764l-152 -179l-79 61l139 196z" />
    <glyph glyph-name="Uogonek" unicode="&#x172;" horiz-adv-x="695" 
d="M316 -28q-25 3 -46 9q-107 18 -158 92t-51 187v450h151v-439q0 -85 36 -125.5t99 -40.5q64 0 100.5 41t36.5 125v439h150v-450q0 -180 -122 -252q-37 -22 -68.5 -50t-34.5 -49q3 -16 31 -13q15 1 47 11l12 -110q-44 -19 -97 -19q-130 0 -130 98q0 49 44 96z" />
    <glyph glyph-name="uogonek" unicode="&#x173;" 
d="M347 -23q-37 -5 -56 -5q-128 0 -182 67t-54 191v309h145v-289q0 -81 22.5 -114t77.5 -33q38 0 74 6v430h146v-533q-7 -5 -19.5 -16t-15.5 -14q1 1 4 3l-12 -12l-15 -15l-13.5 -14t-11.5 -15t-5 -12q3 -16 31 -14q28 5 47 12l13 -111q-49 -19 -98 -19q-108 0 -125 71
q-4 24 0 48q8 38 47 79z" />
    <glyph glyph-name="Wcircumflex" unicode="&#x174;" horiz-adv-x="936" 
d="M873 698q-80 -391 -168 -706h-137l-106 353q-4 15 -10 41t-9 33q-2 -5 -4.5 -16.5l-6.5 -28.5l-7 -29l-106 -353h-136q-80 280 -168 706h156q40 -224 73 -390q3 -16 8 -39.5t8 -39.5t6 -26q2 3 5.5 16.5l9.5 35l9 32.5l99 372h118q62 -244 98 -368l8 -32.5t8.5 -33.5
t6.5 -21q2 4 4 14.5t5 28l5 28.5q32 150 83 423h148zM445 838l-104 -88l-66 75l170 163l168 -163l-63 -75z" />
    <glyph glyph-name="wcircumflex" unicode="&#x175;" horiz-adv-x="780" 
d="M783 539q-83 -307 -167 -547h-126q-59 192 -81 270q-3 11 -5.5 25.5t-4.5 24.5t-4 14q-54 -208 -94 -334h-127q-86 247 -166 547h151q27 -129 73 -304q3 -12 5.5 -28t4.5 -24.5t4 -12.5l10 40q14 57 44 169l42 160h118q13 -61 42.5 -173t39.5 -154q9 -39 10 -42
q2 1 4 10.5t5 26t6 27.5q37 132 75 305h141zM395 673l-104 -88l-66 75l170 163l168 -163l-63 -75z" />
    <glyph glyph-name="Ycircumflex" unicode="&#x176;" horiz-adv-x="621" 
d="M583 698q-113 -228 -220 -418v-288h-152v287q-101 181 -220 419h169q61 -144 132 -281q73 142 134 281h157zM293 838l-104 -88l-66 75l170 163l168 -163l-63 -75z" />
    <glyph glyph-name="ycircumflex" unicode="&#x177;" horiz-adv-x="540" 
d="M523 539q-96 -332 -202 -617q-25 -58 -56.5 -84t-83.5 -26q-44 0 -119 29l30 98q39 -18 56 -18q8 0 14.5 2.5t11.5 8.5l9 10.5t7.5 14.5t5.5 15t5 16.5t4 14.5q-109 265 -190 536h156q34 -143 83 -298l23 -85l22 85q30 100 80 298h144zM271 673l-104 -88l-66 75l170 163
l168 -163l-63 -75z" />
    <glyph glyph-name="Ydieresis" unicode="&#x178;" horiz-adv-x="621" 
d="M583 698q-113 -228 -220 -418v-288h-152v287q-101 181 -220 419h169q61 -144 132 -281q73 142 134 281h157zM260 861q0 -37 -23 -59t-57 -22t-57 22t-23 59q0 36 23 58t57 22t57 -22t23 -58zM483 861q0 -36 -23.5 -58.5t-57.5 -22.5q-33 0 -56.5 22.5t-23.5 58.5t23.5 58
t56.5 22q34 0 57.5 -22t23.5 -58z" />
    <glyph glyph-name="Zacute" unicode="&#x179;" horiz-adv-x="588" 
d="M502 -8h-484v103q31 68 80 153l111.5 186l88.5 146h-260v118h461v-90q-25 -53 -133.5 -230t-153.5 -268h290v-118zM328 778h-102l83 202h177z" />
    <glyph glyph-name="zacute" unicode="&#x17a;" horiz-adv-x="480" 
d="M432 -8h-410v90q32 57 112 182.5t102 162.5h-198v112h389v-81l-55 -83q-111 -165 -170 -272h230v-111zM291 614h-102l83 202h177z" />
    <glyph glyph-name="Zdotaccent" unicode="&#x17b;" horiz-adv-x="588" 
d="M502 -8h-484v103q31 68 80 153l111.5 186l88.5 146h-260v118h461v-90q-25 -53 -133.5 -230t-153.5 -268h290v-118zM275 761q-35 0 -59 23t-24 60t24 59.5t59 22.5t58.5 -22.5t23.5 -59.5t-23.5 -60t-58.5 -23z" />
    <glyph glyph-name="zdotaccent" unicode="&#x17c;" horiz-adv-x="480" 
d="M432 -8h-410v90q32 57 112 182.5t102 162.5h-198v112h389v-81l-55 -83q-111 -165 -170 -272h230v-111zM238 597q-35 0 -59 23t-24 60t24 59.5t59 22.5t58.5 -22.5t23.5 -59.5t-23.5 -60t-58.5 -23z" />
    <glyph glyph-name="Zcaron" unicode="&#x17d;" horiz-adv-x="588" 
d="M502 -8h-484v103q31 68 80 153l111.5 186l88.5 146h-260v118h461v-90q-25 -53 -133.5 -230t-153.5 -268h290v-118zM171 1001l105 -87l104 87l66 -75l-170 -162l-168 162z" />
    <glyph glyph-name="zcaron" unicode="&#x17e;" horiz-adv-x="480" 
d="M432 -8h-410v90q32 57 112 182.5t102 162.5h-198v112h389v-81l-55 -83q-111 -165 -170 -272h230v-111zM134 837l105 -87l104 87l66 -75l-170 -162l-168 162z" />
    <glyph glyph-name="longs" unicode="&#x17f;" horiz-adv-x="293" 
d="M206 560v-577h-146v579q0 111 57.5 171t170.5 60q74 0 139 -29l-30 -125q-51 24 -99 24q-50 0 -71 -25t-21 -78z" />
    <glyph glyph-name="uni0180" unicode="&#x180;" horiz-adv-x="595" 
d="M206 796v-94h165v-109h-165v-75q50 24 108 24q117 0 182.5 -78.5t65.5 -206.5q0 -131 -76 -208.5t-206 -77.5q-115 0 -220 33v589h-70v109h70v70zM206 387v-279q24 -7 73 -7q62 0 98 42.5t36 115.5q0 153 -118 153q-48 0 -89 -25z" />
    <glyph glyph-name="uni0181" unicode="&#x181;" horiz-adv-x="767" 
d="M381 717q286 0 314 -163q6 -35 0 -72q-11 -68 -69 -106q109 -46 109 -173q0 -227 -334 -227q-122 0 -219 22v577q-52 -6 -52 -56q0 -20 8 -54l-124 -16q-14 51 -14 83q0 42 14.5 73.5t43.5 51t62 32.5t80.5 18.5t87 7.5t93.5 2zM432 298h-102v-188q36 -4 75 -4
q176 0 176 100q0 51 -37.5 71.5t-111.5 20.5zM407 587q-60 0 -77 -2v-161h65q80 0 118 16.5t38 66.5q0 80 -144 80z" />
    <glyph glyph-name="uni0182" unicode="&#x182;" horiz-adv-x="633" 
d="M261 322h-46v-208q25 -3 66 -3q169 0 169 104q0 62 -46.5 84.5t-142.5 22.5zM215 454h53q165 0 250.5 -56.5t85.5 -181.5q0 -239 -329 -239q-111 0 -207 24v709h472v-134h-325v-122z" />
    <glyph glyph-name="uni0183" unicode="&#x183;" horiz-adv-x="595" 
d="M206 660v-141q50 24 108 24q117 0 182.5 -78.5t65.5 -207.5q0 -131 -76 -208.5t-206 -77.5q-115 0 -220 33v783h447v-127h-301zM206 388v-280q24 -7 73 -7q63 0 98.5 42.5t35.5 116.5q0 153 -118 153q-48 0 -89 -25z" />
    <glyph glyph-name="uni0184" unicode="&#x184;" horiz-adv-x="595" 
d="M206 798v-272q50 24 108 24q117 0 182.5 -79t65.5 -210q0 -134 -76 -212t-206 -78q-115 0 -220 33v608l-86 91q114 65 232 95zM206 394v-286q24 -7 73 -7q63 0 98.5 43t35.5 119q0 157 -118 157q-50 0 -89 -26z" />
    <glyph glyph-name="uni0185" unicode="&#x185;" horiz-adv-x="625" 
d="M272 329q-36 0 -55 -3v-213q45 -4 83 -3q151 5 151 109q0 110 -179 110zM217 723v-265q19 3 54 3q334 0 334 -242t-329 -242q-110 0 -206 24v535l-87 92q115 63 234 95z" />
    <glyph glyph-name="uni0186" unicode="&#x186;" horiz-adv-x="629" 
d="M231 106q95 0 149 62t54 178q0 111 -51.5 176.5t-152.5 65.5q-97 0 -184 -46l-42 127q37 23 99.5 39.5t137.5 16.5q163 0 256 -99t93 -279q0 -177 -99 -277.5t-258 -100.5q-121 0 -224 57l45 127q88 -47 177 -47z" />
    <glyph glyph-name="uni0187" unicode="&#x187;" horiz-adv-x="683" 
d="M399 588q-94 0 -149.5 -62.5t-55.5 -177.5q0 -111 51.5 -176.5t153.5 -65.5q93 0 185 45l43 -126q-35 -22 -99 -39t-140 -17q-163 0 -256.5 99t-93.5 279q0 176 101.5 277t254.5 101q64 0 109 -15q37 92 144 92q51 0 101 -25l-35 -119q-37 16 -58 16q-39 0 -55 -51
l-25 -82q-92 47 -176 47z" />
    <glyph glyph-name="uni0188" unicode="&#x188;" horiz-adv-x="522" 
d="M358 548q33 80 115 89q24 2 45 -1q42 -5 70 -19l-33 -116q-32 16 -55 16q-12 0 -22 -6.5t-16 -14.5t-11 -23.5t-7.5 -25.5t-6 -28t-4.5 -24q-67 26 -118 26q-65 0 -99 -42.5t-34 -118.5q0 -158 142 -158q63 0 126 30l25 -127q-72 -34 -164 -34q-138 0 -208 79t-70 210
q0 128 74 210t199 82q32 0 52 -4z" />
    <glyph glyph-name="uni0189" unicode="&#x189;" horiz-adv-x="734" 
d="M695 347q0 -182 -109 -276.5t-298 -94.5q-117 0 -208 21v303h-81v122h81v274q102 21 210 21q189 0 297 -92t108 -278zM231 300v-187q1 0 21.5 -1.5t43.5 -1.5q120 0 182 62.5t62 174.5q0 114 -60.5 175t-181.5 61q-22 0 -43.5 -1.5t-23.5 -1.5v-158h128v-122h-128z" />
    <glyph glyph-name="uni018A" unicode="&#x18a;" horiz-adv-x="836" 
d="M392 717q188 0 296.5 -92t108.5 -278q0 -182 -109 -276.5t-299 -94.5q-111 0 -207 21v578q-52 -6 -52 -56q0 -20 8 -54l-124 -16q-14 51 -14 83q0 37 13 66t33 48.5t53 33t63 20.5t75 11t76.5 5t78.5 1zM398 583q-49 0 -66 -1v-469q2 0 22.5 -1.5t42.5 -1.5
q121 0 183 62.5t62 174.5q0 114 -61 175t-183 61z" />
    <glyph glyph-name="uni018B" unicode="&#x18b;" horiz-adv-x="633" 
d="M419 322h-28q-108 0 -158 -20.5t-50 -86.5q0 -98 148 -104q52 -2 88 2v209zM365 454h54v122h-326v134h473v-709q-100 -25 -208 -25q-328 0 -328 240q0 126 85 182t250 56z" />
    <glyph glyph-name="uni018C" unicode="&#x18c;" horiz-adv-x="595" 
d="M389 519v141h-301v127h447v-783q-107 -33 -220 -33q-130 0 -206 77.5t-76 208.5q0 129 65.5 207.5t182.5 78.5q58 0 108 -24zM389 108v280q-43 25 -90 25q-117 0 -117 -153q0 -74 35.5 -116.5t98.5 -42.5q48 0 73 7z" />
    <glyph glyph-name="uni018D" unicode="&#x18d;" horiz-adv-x="584" 
d="M553 296q0 -72 -40 -134t-105 -98q28 -20 42 -42t18 -54q4 -24 -1 -54q-9 -59 -64.5 -88t-140.5 -29q-98 0 -185 35l33 121q58 -25 119 -28q29 -3 54 0q43 6 43 26q0 18 -18.5 31.5t-70.5 38.5q-103 53 -154.5 111.5t-51.5 155.5q0 115 69 189.5t192 74.5t192 -73
t69 -183zM299 138q46 23 75.5 63.5t29.5 89.5q0 58 -28.5 94t-83.5 36q-54 0 -83.5 -34t-29.5 -97q0 -56 30.5 -89t89.5 -63z" />
    <glyph glyph-name="uni018E" unicode="&#x18e;" horiz-adv-x="584" 
d="M516 -17h-496v133h345v181h-285v131h285v149h-321v133h472v-727z" />
    <glyph glyph-name="uni018F" unicode="&#x18f;" horiz-adv-x="714" 
d="M512 267h-316q6 -76 44 -120t105 -44q75 0 116.5 47t50.5 117zM46 397h470q-17 192 -204 192q-102 0 -191 -51l-43 124q37 23 101 43t139 20q174 0 266 -101t92 -274q0 -184 -92.5 -282.5t-240.5 -98.5q-144 0 -224.5 93t-80.5 271q0 28 8 64z" />
    <glyph glyph-name="uni0190" unicode="&#x190;" horiz-adv-x="587" 
d="M328 591q-76 0 -93 -36q-15 -42 37 -68q0 -31 25 -45t59 -14h102v-130h-90q-87 0 -133.5 -21.5t-46.5 -79.5q0 -82 123 -92q31 -2 58 1q81 7 163 48l47 -125q-43 -24 -109.5 -42.5t-135.5 -18.5q-301 0 -301 226q0 129 124 180q-78 41 -90 123q-5 29 0 57
q12 84 81.5 127.5t178.5 43.5q132 0 228 -62l-51 -125q-84 53 -176 53z" />
    <glyph glyph-name="uni0191" unicode="&#x191;" horiz-adv-x="550" 
d="M218 289v-228q0 -50 -3.5 -86.5t-15 -72t-31 -57.5t-53 -35.5t-80.5 -13.5q-41 0 -92 17l20 125q36 -13 60 -13q30 0 37.5 23t7.5 83v679h467v-133h-317v-155h282v-133h-282z" />
    <glyph glyph-name="florin" unicode="&#x192;" horiz-adv-x="402" 
d="M206 412v-371q0 -117 -40.5 -175t-131.5 -66q-21 -3 -56 0q-37 4 -65 15l20 125q36 -13 66 -13q35 0 48 20.5t13 66.5v521q0 32 3 62q19 196 225 196q74 0 139 -29l-30 -125q-51 24 -99 24q-55 0 -73.5 -28.5t-18.5 -95.5h194v-127h-194z" />
    <glyph glyph-name="uni0193" unicode="&#x193;" horiz-adv-x="700" 
d="M393 725q61 0 119 -16q19 51 53 71.5t92 20.5q53 0 101 -24l-35 -119q-37 16 -59 16q-38 0 -55 -52l1 1q-2 -7 -6.5 -20.5t-6.5 -20.5l-30 -32q-71 39 -160 39q-102 0 -157.5 -63t-55.5 -179q0 -112 52.5 -177.5t151.5 -65.5q56 0 84 8v254h151v-356q-99 -40 -246 -40
q-158 0 -253.5 100t-95.5 277q0 176 101 277t254 101z" />
    <glyph glyph-name="uni0194" unicode="&#x194;" horiz-adv-x="678" 
d="M339 59q-36 -63 -36 -96q0 -38 36 -38q37 0 37 38q0 36 -37 96zM424 167l15 -24h-1q73 -121 73 -188q0 -66 -43 -111t-128 -45q-84 0 -127.5 45.5t-44.5 110.5q0 71 74 189l-1 -1l14 22q-117 208 -272 545h166q97 -223 192 -408q89 169 191 408h163q-116 -266 -271 -543z
" />
    <glyph glyph-name="uni0195" unicode="&#x195;" horiz-adv-x="882" 
d="M514 293v-56q0 -73 19.5 -104t64.5 -31t64.5 31t19.5 104v302h146v-315q0 -126 -54.5 -189.5t-175.5 -63.5q-120 0 -175 63.5t-55 189.5v49q0 82 -18 114t-70 32q-41 0 -74 -12v-424h-146v789l146 24v-260q45 14 87 14q125 0 173 -65.5t48 -191.5z" />
    <glyph glyph-name="uni0196" unicode="&#x196;" horiz-adv-x="403" 
d="M67 191v519h151v-518q0 -51 16.5 -71t54.5 -20q43 0 90 19l26 -124q-67 -27 -133 -27q-112 0 -158.5 53.5t-46.5 168.5z" />
    <glyph glyph-name="uni0197" unicode="&#x197;" horiz-adv-x="338" 
d="M245 -17h-151v317h-99v119h99v291h151v-291h98v-119h-98v-317z" />
    <glyph glyph-name="uni0198" unicode="&#x198;" horiz-adv-x="675" 
d="M377 632q28 30 45 46t50.5 31t71.5 15q42 0 72.5 -15.5t65.5 -49.5l-70 -108q-38 38 -65 38q-26 0 -62 -38q-57 -60 -156 -176q84 -63 178.5 -173t159.5 -219h-167q-13 14 -76 88.5t-112 124.5t-94 83v-296h-150v727h150v-261q79 96 128 148z" />
    <glyph glyph-name="uni0199" unicode="&#x199;" horiz-adv-x="542" 
d="M60 -17v617q0 98 39 145.5t138 47.5q43 0 87 -17l-20 -115q-33 11 -54 11q-29 0 -36.5 -20.5t-7.5 -73.5v-221q101 105 168 182h178q-141 -156 -235 -250q60 -52 129 -141t111 -165h-167q-83 134 -184 221v-221h-146z" />
    <glyph glyph-name="uni019A" unicode="&#x19a;" horiz-adv-x="307" 
d="M303 98l-21 -125q-94 3 -141 32t-58 91q-8 37 -8 92v158h-79v110h79v316l146 24v-340h91v-110h-91v-177q0 -36 16.5 -51t65.5 -20z" />
    <glyph glyph-name="uni019B" unicode="&#x19b;" horiz-adv-x="523" 
d="M271 351q-80 -174 -129 -368h-150q71 256 198 507q2 38 2 53q-87 -32 -108 -38l-36 99l21.5 7.5l24.5 8.5q-27 75 -60 101q-18 19 -24 30q40 28 75 38q8 4 27 4q110 0 172 -104l125 44l37 -101l-116 -41q110 -266 204 -608h-154q-56 222 -109 368z" />
    <glyph glyph-name="uni019C" unicode="&#x19c;" horiz-adv-x="975" 
d="M492 24q-92 -55 -182 -55q-75 0 -125 21t-76.5 62.5t-37 91t-10.5 118.5v448h151v-422q0 -101 22 -142.5t85 -41.5q53 0 103 34q-14 53 -14 126v446h151v-427q0 -97 22.5 -138t84.5 -41q45 0 90 9v597h151v-704q-126 -37 -249 -37q-105 0 -166 55z" />
    <glyph glyph-name="uni019D" unicode="&#x19d;" horiz-adv-x="735" 
d="M217 465v-422q0 -60 -7 -101.5t-25.5 -76.5t-56 -52t-93.5 -17q-41 0 -92 17l20 125q36 -13 60 -13q45 0 45 70v715h118q76 -82 170.5 -207.5t161.5 -231.5v439h150v-727h-116q-10 13 -32 39q-144 248 -303 443z" />
    <glyph glyph-name="uni019E" unicode="&#x19e;" horiz-adv-x="594" 
d="M60 -17v521q52 46 230 46q129 0 182 -66.5t53 -190.5v-495h-145v476q0 80 -22 112.5t-78 32.5q-46 0 -74 -7v-429h-146z" />
    <glyph glyph-name="uni019F" unicode="&#x19f;" horiz-adv-x="783" 
d="M744 347q0 -180 -99.5 -279t-253.5 -99q-152 0 -252.5 99.5t-100.5 278.5q0 178 101.5 278t251.5 100q152 0 252.5 -99.5t100.5 -278.5zM391 106q78 0 129 49t62 134h-382q11 -86 62 -134.5t129 -48.5zM391 588q-78 0 -127.5 -47t-62.5 -131h380q-12 84 -62 131t-128 47z
" />
    <glyph glyph-name="Ohorn" unicode="&#x1a0;" horiz-adv-x="783" 
d="M744 347q0 -180 -99.5 -279t-253.5 -99q-152 0 -252.5 99.5t-100.5 278.5q0 178 101.5 278t251.5 100q108 0 185 -51q26 32 26 84q0 11 -4 59h139q5 -31 5 -59q0 -108 -67 -171q69 -96 69 -240zM589 347q0 111 -53 176t-145 65q-91 0 -144 -65t-53 -176t53 -176t144 -65
q92 0 145 65t53 176z" />
    <glyph glyph-name="ohorn" unicode="&#x1a1;" horiz-adv-x="598" 
d="M563 261q0 -131 -73 -211t-192 -80q-118 0 -191.5 80.5t-73.5 210.5t74.5 210.5t190.5 80.5q83 0 146 -46q26 33 26 82q0 19 -4 58h130q6 -28 6 -45q1 -15 -1 -39q-4 -83 -72 -148q34 -66 34 -153zM414 261q0 74 -31 117t-85 43t-85 -43t-31 -117t31 -117t85 -43t85 43
t31 117z" />
    <glyph glyph-name="uni01A2" unicode="&#x1a2;" horiz-adv-x="1042" 
d="M378 725q113 0 196 -61q84 61 173 61q70 0 116.5 -19.5t70 -60t32.5 -88t9 -117.5v-457h-151v453q0 86 -19 119.5t-70 33.5q-33 0 -72 -26q55 -88 55 -216q0 -179 -97 -278.5t-243 -99.5q-143 0 -241.5 100t-98.5 278q0 177 99.5 277.5t240.5 100.5zM378 106
q84 0 134.5 65.5t50.5 175.5q0 111 -50.5 176t-134.5 65q-83 0 -133.5 -65.5t-50.5 -175.5t50.5 -175.5t133.5 -65.5z" />
    <glyph glyph-name="uni01A3" unicode="&#x1a3;" horiz-adv-x="838" 
d="M551 261q0 -130 -71.5 -210.5t-187.5 -80.5q-115 0 -187 80.5t-72 210.5t73 210.5t186 80.5q85 0 146 -45q65 43 140 43q64 0 105.5 -18.5t62.5 -55.5t29 -80t8 -104v-494h-145v485q0 73 -14 105t-53 32q-28 0 -52 -16q32 -61 32 -143zM402 261q0 74 -29.5 117t-80.5 43
q-53 0 -81.5 -42.5t-28.5 -117.5q0 -74 29.5 -117t80.5 -43t80.5 43t29.5 117z" />
    <glyph glyph-name="uni01A4" unicode="&#x1a4;" horiz-adv-x="735" 
d="M389 717q327 0 327 -242q0 -128 -84 -186t-248 -58h-52v-248h-150v592q-52 -7 -52 -56q0 -20 8 -54l-124 -16q-14 51 -14 83q0 37 13 66t32.5 48t52 33t62.5 21t74 11t76.5 5t78.5 1zM397 583q-49 0 -65 -2v-216h49q92 0 136 24t44 87q0 107 -164 107z" />
    <glyph glyph-name="uni01A5" unicode="&#x1a5;" horiz-adv-x="595" 
d="M206 608v-71q40 13 81 13q125 0 200 -78.5t75 -211.5q0 -130 -65.5 -209t-182.5 -79q-58 0 -108 24v-198h-146v802q0 86 28.5 132.5t101.5 55.5q22 5 60 3q35 0 74 -15l-20 -115q-33 11 -54 11q-44 0 -44 -64zM206 408v-280q39 -26 89 -26q118 0 118 156q0 75 -35 118
t-96 43q-46 0 -76 -11z" />
    <glyph glyph-name="uni01A6" unicode="&#x1a6;" horiz-adv-x="645" 
d="M68 793h150v-81q24 3 63 3q156 0 236.5 -60t80.5 -177q0 -142 -129 -196q49 -66 118 -184t115 -223h-167q-47 104 -111 209.5t-110 164.5q-6 0 -18.5 -0.5t-18.5 -0.5h-59v-265h-150v810zM281 582q-33 0 -63 -4v-201h29q40 0 66 1.5t53 7.5t42.5 17t25 30t9.5 46
q0 57 -42.5 80t-119.5 23z" />
    <glyph glyph-name="uni01A7" unicode="&#x1a7;" horiz-adv-x="553" 
d="M298 103q102 0 195 53l45 -128q-102 -59 -241 -59q-135 0 -205.5 55t-70.5 159q0 51 14 88.5t46 64.5t66 44.5t93 39.5q29 11 41.5 16.5t33 16t29 18.5t15.5 21.5t7 28.5q0 70 -109 70q-80 0 -163 -47l-47 125q94 56 216 56q120 0 188 -56t68 -157q0 -46 -15 -81.5
t-45 -60.5t-61 -41t-78 -33q-42 -15 -61.5 -23.5t-42.5 -22.5t-31.5 -30.5t-8.5 -38.5q0 -78 122 -78z" />
    <glyph glyph-name="uni01A8" unicode="&#x1a8;" horiz-adv-x="460" 
d="M251 97q74 0 160 37l28 -126q-82 -38 -188 -38q-111 0 -169.5 42.5t-58.5 125.5q0 71 40 109.5t133 74.5q49 20 66.5 32.5t17.5 32.5q0 39 -70 39q-59 0 -137 -29l-28 123q82 32 171 32q98 0 153.5 -45t55.5 -123q0 -72 -39.5 -109t-120.5 -69q-32 -13 -44.5 -18.5
t-27.5 -14.5t-19.5 -16.5t-4.5 -18.5q0 -41 82 -41z" />
    <glyph glyph-name="uni01A9" unicode="&#x1a9;" horiz-adv-x="576" 
d="M415 355q-14 -17 -95 -108.5t-109 -130.5h341v-133h-535v109q42 57 150 179q1 2 9.5 13t13.5 16l48 57q-33 42 -108 130.5t-99 121.5v101h521v-133h-313q21 -28 84 -106z" />
    <glyph glyph-name="uni01AA" unicode="&#x1aa;" horiz-adv-x="365" 
d="M159 -26v500q-29 -20 -67 -20q-66 0 -112.5 45.5t-46.5 122.5q0 82 51.5 127.5t128.5 45.5q59 0 98.5 -19.5t59 -58t27 -81t7.5 -103.5v-541q0 -36 17 -51t66 -20q-2 -9 -5.5 -32t-6 -36t-9 -29.5t-16.5 -27.5q-107 3 -149.5 45.5t-42.5 132.5zM110 575q24 0 49 25v13
q0 62 -49 62q-23 0 -34 -14t-11 -35q0 -22 11.5 -36.5t33.5 -14.5z" />
    <glyph glyph-name="uni01AB" unicode="&#x1ab;" horiz-adv-x="419" 
d="M278 102q67 0 122 20q12 -87 12 -146q0 -89 -39.5 -134t-126.5 -45q-44 0 -92 17l20 115q32 -12 61 -12q36 0 37 42q5 16 5 17q-35 -2 -61 1q-93 11 -126.5 70.5t-33.5 178.5v451l145 24v-162h191v-127h-191v-208q0 -56 18 -79t59 -23z" />
    <glyph glyph-name="uni01AC" unicode="&#x1ac;" horiz-adv-x="614" 
d="M246 576h-48q-67 0 -67 -60q0 -20 8 -53l-125 -17q-14 51 -14 83q0 38 10.5 67.5t25 48t43 32t49.5 20t61.5 9.5t62 3.5t66.5 0.5h20h274v-134h-215v-593h-151v593z" />
    <glyph glyph-name="uni01AD" unicode="&#x1ad;" horiz-adv-x="419" 
d="M201 539h195v-127h-195v-208q0 -88 53 -98q16 -4 44 -2q49 4 95 26l25 -122q-76 -36 -154 -36q-115 0 -161.5 58t-46.5 175v357q0 111 57 171t170 60q79 0 137 -29l-30 -124q-49 23 -98 23q-55 0 -72.5 -28.5t-18.5 -95.5z" />
    <glyph glyph-name="uni01AE" unicode="&#x1ae;" horiz-adv-x="585" 
d="M368 576v-581q0 -36 10 -53t34 -17q25 0 60 13l20 -125q-51 -17 -91 -17q-99 0 -141.5 50.5t-42.5 151.5v578h-215v134h581v-134h-215z" />
    <glyph glyph-name="Uhorn" unicode="&#x1af;" horiz-adv-x="723" 
d="M484 710h76q58 0 58 50q0 8 -1 28.5t-1 29.5h135q5 -32 5 -59q0 -133 -122 -156v-343q0 -134 -70.5 -212.5t-217.5 -78.5q-145 0 -215 79t-70 212v450h151v-397q0 -111 31.5 -159.5t103.5 -48.5q64 0 100.5 40.5t36.5 125.5v439z" />
    <glyph glyph-name="uhorn" unicode="&#x1b0;" horiz-adv-x="608" 
d="M520 436v-431q-114 -33 -229 -33q-128 0 -182 67t-54 191v309h145v-289q0 -81 22.5 -114t77.5 -33q38 0 74 6v430h89q47 0 47 50q0 14 -5 57h129q6 -33 6 -63q0 -52 -29 -93.5t-91 -53.5z" />
    <glyph glyph-name="uni01B1" unicode="&#x1b1;" horiz-adv-x="776" 
d="M388 -31q-150 0 -247.5 92.5t-97.5 258.5q0 145 100 258h-116v132h315v-109q-143 -116 -143 -279q0 -102 51 -159.5t138 -57.5t138.5 57.5t51.5 159.5q0 162 -144 279v109h315v-132h-116q100 -116 100 -258q0 -166 -97 -258.5t-248 -92.5z" />
    <glyph glyph-name="uni01B2" unicode="&#x1b2;" horiz-adv-x="705" 
d="M661 352q0 -81 -18 -148.5t-55 -121t-99.5 -83.5t-145.5 -30q-141 0 -211.5 79.5t-70.5 214.5v447h151v-436q0 -86 35.5 -127.5t93.5 -41.5q166 0 166 242q0 121 -26.5 178t-91.5 57q-17 0 -55 -10l-13 131q50 12 86 12q254 0 254 -363z" />
    <glyph glyph-name="uni01B3" unicode="&#x1b3;" horiz-adv-x="688" 
d="M312 415l74 142q44 83 67 109q40 45 94 50q30 4 54 0q61 -8 116 -65l-69 -106q-40 40 -64 40q-14 0 -22.5 -6.5t-19.5 -25.5q-62 -103 -125 -225h1l-32 -83v-262h-151v285q-139 215 -255 442h174q63 -139 158 -295z" />
    <glyph glyph-name="uni01B4" unicode="&#x1b4;" horiz-adv-x="583" 
d="M467 379q-92 -293 -122 -376q-40 -101 -89.5 -149t-130.5 -54q-26 -3 -56 0q-47 4 -85 23l27 121q53 -20 84 -20q38 0 62 19t41 63q-130 253 -206 533h154q42 -175 123 -360q5 16 63 213q23 83 54 119.5t104 36.5q52 0 109 -25l-33 -117q-37 17 -57 17q-17 0 -26 -10
t-16 -35v1z" />
    <glyph glyph-name="uni01B5" unicode="&#x1b5;" horiz-adv-x="588" 
d="M560 710v-111q-57 -63 -146 -181h129v-119h-219q-76 -107 -118 -183h364v-133h-550v95q50 96 134 221h-99v119h183q75 106 121 159h-322v133h523z" />
    <glyph glyph-name="uni01B6" unicode="&#x1b6;" horiz-adv-x="480" 
d="M456 539v-104l-97 -112h84v-106h-172q-39 -52 -73 -109h265v-125h-443v89q27 49 92 145h-62v106h145q37 50 71 91h-233v125h423z" />
    <glyph glyph-name="uni01B7" unicode="&#x1b7;" horiz-adv-x="584" 
d="M548 198q0 -117 -81 -173.5t-222 -56.5q-73 0 -137.5 20t-104.5 43l47 127q102 -56 195 -56q148 0 148 97q0 106 -181 106h-48v74l5 21q77 77 159 177h-288v133h492v-93q-56 -77 -180 -210q196 -39 196 -209z" />
    <glyph glyph-name="uni01B8" unicode="&#x1b8;" horiz-adv-x="584" 
d="M36 198q0 170 196 209q-131 143 -180 210v93h492v-133h-287q96 -115 164 -182v-90h-49q-181 0 -181 -106q0 -97 148 -97q90 0 195 55l47 -127q-111 -62 -242 -62q-141 0 -222 56.5t-81 173.5z" />
    <glyph glyph-name="uni01B9" unicode="&#x1b9;" horiz-adv-x="490" 
d="M382 231v-94h-58q-153 0 -153 -103q0 -50 34 -77.5t99 -27.5q90 0 168 37l35 -123q-88 -45 -208 -45q-131 0 -203 59t-72 173q0 87 50 138t131 70l-54.5 68l-63.5 81t-41 56v96h434v-127h-243q72 -101 145 -181z" />
    <glyph glyph-name="uni01BA" unicode="&#x1ba;" horiz-adv-x="489" 
d="M294 290q84 -18 123 -55.5t39 -108.5q0 -48 -16.5 -82t-53.5 -56t-73.5 -35t-100.5 -28q-44 -11 -62 -20.5t-18 -28.5q0 -21 20 -59l-122 -25q-35 41 -35 96q0 52 32 86t78.5 50t92.5 28t78 29.5t32 45.5q0 35 -40 50.5t-150 17.5v94q61 55 121 123h-232v127h431v-101
q-73 -86 -144 -148z" />
    <glyph glyph-name="uni01BB" unicode="&#x1bb;" horiz-adv-x="547" 
d="M490 516q0 -63 -53 -133h68v-119h-173l-38.5 -35.5t-35.5 -33.5t-25 -27t-20 -28.5t-7 -26.5h304v-130h-475q-5 21 -5 53q0 67 30.5 120.5t84.5 107.5h-86v119h203q25 26 39 42t26 39.5t12 44.5q0 85 -95 85q-80 0 -160 -77l-76 106q44 42 106.5 72t132.5 30
q121 0 182 -54.5t61 -154.5z" />
    <glyph glyph-name="uni01BC" unicode="&#x1bc;" horiz-adv-x="549" 
d="M502 579h-262q-6 -110 -10 -136q300 -28 300 -241q0 -107 -72 -170t-220 -63q-56 0 -121.5 16.5t-90.5 31.5l32 131q71 -33 140 -40q55 -5 88 3q90 15 90 88q0 62 -69 92t-233 30q21 180 25 258h-95v131h498v-131z" />
    <glyph glyph-name="uni01BD" unicode="&#x1bd;" horiz-adv-x="502" 
d="M474 154q0 -87 -63.5 -135.5t-187.5 -48.5q-58 0 -116 11.5t-84 25.5l28 127q63 -27 141 -32q21 -2 58 0q78 9 78 54q0 40 -38 54.5t-143 14.5h-84l9 86q8 81 9 103h-75v125h447v-125h-238q-1 -8 -2 -23.5t-2 -27.5t-2 -21q265 0 265 -188z" />
    <glyph glyph-name="uni01BE" unicode="&#x1be;" horiz-adv-x="471" 
d="M388 413h-188q1 -15 9 -30q19 -31 51.5 -53t63 -35t58.5 -30t45.5 -48.5t17.5 -78.5q0 -82 -59.5 -125t-170.5 -43q-108 0 -190 38l28 126q78 -32 140 -35q33 -2 53 1q53 7 53 38q0 20 -19.5 33t-76.5 36h1q-36 14 -55.5 23.5t-41.5 27t-32 39t-16.5 55.5t-6.5 81v244
l145 24v-162h191v-126z" />
    <glyph glyph-name="uni01BF" unicode="&#x1bf;" horiz-adv-x="578" 
d="M280 550q125 0 195.5 -66.5t70.5 -184.5q0 -61 -18.5 -112t-48 -87.5t-75.5 -67.5t-92 -51.5t-106 -40.5v-142h-146v705q107 47 220 47zM279 419q-39 0 -73 -12v-327q39 16 66.5 30.5t57.5 38t46.5 56.5t18.5 75q2 27 -3 53q-8 41 -37.5 63.5t-75.5 22.5z" />
    <glyph glyph-name="uni01C0" unicode="&#x1c0;" horiz-adv-x="296" 
d="M75 -202v994h131v-994h-131z" />
    <glyph glyph-name="uni01C1" unicode="&#x1c1;" horiz-adv-x="510" 
d="M75 -202v994h131v-994h-131zM290 -202v994h131v-994h-131z" />
    <glyph glyph-name="uni01C2" unicode="&#x1c2;" horiz-adv-x="570" 
d="M214 460v340h141v-340h193v-119h-193v-75h193v-119h-193v-349h-141v349h-192v119h192v75h-192v119h192z" />
    <glyph glyph-name="uni01C3" unicode="&#x1c3;" horiz-adv-x="281" 
d="M204 771l-3 -285q-1 -56 -11.5 -148.5t-12.5 -115.5h-91q-1 13 -12 110t-12 154l-3 285q32 17 72 17q39 0 73 -17zM215 71q0 -37 -23.5 -59.5t-58.5 -22.5t-59 22.5t-24 58.5t23 59.5t60 23.5q34 0 58 -23t24 -59z" />
    <glyph glyph-name="uni01C4" unicode="&#x1c4;" horiz-adv-x="1283" 
d="M652 345q0 -171 -98.5 -266t-279.5 -95q-112 0 -206 26v671q92 26 204 26q183 0 281.5 -94t98.5 -268zM223 581v-469q20 -4 59 -4q212 0 212 239q0 238 -211 238q-36 0 -60 -4zM1220 700l-9 -96q-17 -28 -79.5 -124.5l-122 -192.5t-99.5 -173h318v-122h-512l10 88
q49 105 135 246.5t162 250.5h-286v123h483zM891 960l105 -87l104 87l66 -75l-170 -162l-168 162z" />
    <glyph glyph-name="uni01C5" unicode="&#x1c5;" horiz-adv-x="1189" 
d="M652 345q0 -171 -98.5 -266t-279.5 -95q-112 0 -206 26v671q92 26 204 26q183 0 281.5 -94t98.5 -268zM223 581v-469q20 -4 59 -4q212 0 212 239q0 238 -211 238q-36 0 -60 -4zM1148 534l-9 -90l-27 -32q-130 -193 -190 -304h231v-116h-420l15 99q52 102 208 326h-208
v117h400zM848 801l104 -87l105 87l65 -75l-170 -162l-168 162z" />
    <glyph glyph-name="uni01C6" unicode="&#x1c6;" horiz-adv-x="1070" 
d="M535 788v-768q-91 -40 -219 -40q-129 0 -204 74t-75 208q0 128 66 205t178 77q59 0 105 -23v253q104 10 149 14zM386 104v304q-37 23 -80 23q-118 0 -118 -165q0 -82 34 -125.5t95 -43.5q45 0 69 7zM1029 534q-6 -48 -9 -90q-42 -50 -106 -149t-112 -187h232v-116h-421
q6 33 16 99q58 115 208 326h-208v117h400zM724 801l104 -87l105 87l65 -75l-170 -162l-168 162z" />
    <glyph glyph-name="uni01C7" unicode="&#x1c7;" horiz-adv-x="1058" 
d="M224 115h269v-123h-425v708h156v-585zM940 700v-521q0 -245 -231 -256q-91 -2 -174 43l34 118q74 -34 128 -12q46 15 67 54t21 111v463h155z" />
    <glyph glyph-name="uni01C8" unicode="&#x1c8;" horiz-adv-x="800" 
d="M224 115h269v-123h-425v708h156v-585zM554 -202q-39 -6 -87 7l12 95q23 1 42 13q43 3 58.5 27.5t15.5 82.5v511h150v-502q0 -219 -191 -234zM756 681q0 -37 -24.5 -60t-61.5 -23q-36 0 -61 23t-25 60q0 36 25 59t61 23q37 0 61.5 -23t24.5 -59z" />
    <glyph glyph-name="uni01C9" unicode="&#x1c9;" horiz-adv-x="554" 
d="M312 59l-25 -73q-131 4 -178.5 51t-47.5 152v591h148v-553q0 -49 4.5 -78t18.5 -47t30.5 -26t49.5 -17zM308 -202q-39 -6 -87 7l12 95q23 1 42 13q43 3 58.5 27.5t15.5 82.5v511h151v-502q0 -219 -192 -234zM511 681q0 -37 -25 -60t-61 -23q-37 0 -62 23t-25 60
q0 36 25 59t61 23q37 0 62 -23t25 -59z" />
    <glyph glyph-name="uni01CA" unicode="&#x1ca;" horiz-adv-x="1244" 
d="M640 -8h-90l-35 4q-59 103 -161.5 259t-142.5 199q0 -24 0.5 -81.5t0.5 -88.5v-292h-144v708h125q129 -151 255 -344q12 -18 29.5 -47t19.5 -32q0 27 -1 87t-1 93v243h145v-708zM1126 700v-521q0 -245 -231 -256q-92 -2 -175 43l35 118q74 -34 128 -12q46 15 66.5 54
t20.5 111v463h156z" />
    <glyph glyph-name="uni01CB" unicode="&#x1cb;" horiz-adv-x="1000" 
d="M640 -8h-90l-35 4q-59 103 -161.5 259t-142.5 199q0 -24 0.5 -81.5t0.5 -88.5v-292h-144v708h125q129 -151 255 -344q12 -18 29.5 -47t19.5 -32q0 27 -1 87t-1 93v243h145v-708zM754 -202q-40 -6 -87 7l12 95q23 1 42 13q43 3 58.5 27.5t15.5 82.5v511h150v-502
q0 -219 -191 -234zM956 681q0 -37 -25 -60t-61 -23q-37 0 -62 23t-25 60q0 36 25 59t62 23q36 0 61 -23t25 -59z" />
    <glyph glyph-name="uni01CC" unicode="&#x1cc;" horiz-adv-x="846" 
d="M62 -8v512q80 40 229 40q73 0 121 -17t73.5 -53t35 -79.5t9.5 -107.5v-295h-149v269q0 93 -18.5 130t-77.5 37q-47 0 -73 -8v-428h-150zM601 -202q-40 -5 -88 7l13 95q22 1 42 13q42 3 58 28t16 82v511h150v-502q0 -219 -191 -234zM803 681q0 -37 -25 -60t-61 -23
q-37 0 -62 23t-25 60q0 36 25 59t61 23q37 0 62 -23t25 -59z" />
    <glyph glyph-name="uni01CD" unicode="&#x1cd;" horiz-adv-x="266" 
d="M206 539v-556h-146v556h146zM28 837l105 -87l104 87l66 -75l-170 -162l-168 162z" />
    <glyph glyph-name="uni01CE" unicode="&#x1ce;" horiz-adv-x="534" 
d="M477 15q-83 -33 -218 -33q-230 0 -230 176q0 169 251 185q25 1 55 -1q-2 48 -23 73t-72 25q-74 0 -144 -31l-26 106q86 35 189 35q195 0 215 -168q3 -32 3 -65v-302zM336 92v158q-46 0 -58 -1q-50 -5 -78 -24.5t-28 -62.5q0 -78 96 -78q44 0 68 8zM164 841l105 -87
l104 87l66 -75l-170 -162l-168 162z" />
    <glyph glyph-name="uni01CF" unicode="&#x1cf;" horiz-adv-x="286" 
d="M221 -8h-154v706h154v-706zM38 1001l105 -87l104 87l66 -75l-170 -162l-168 162z" />
    <glyph glyph-name="uni01D0" unicode="&#x1d0;" horiz-adv-x="266" 
d="M206 539v-556h-146v556h146zM28 837l105 -87l104 87l66 -75l-170 -162l-168 162z" />
    <glyph glyph-name="uni01D1" unicode="&#x1d1;" horiz-adv-x="706" 
d="M663 345q0 -168 -82.5 -266.5t-227.5 -98.5q-143 0 -226.5 99t-83.5 266q0 166 84 266t226 100q143 0 226.5 -99.5t83.5 -266.5zM506 348q0 108 -38.5 176t-114.5 68t-114.5 -68.5t-38.5 -175.5t38.5 -175t114.5 -68q77 0 115 67.5t38 175.5zM247 997l105 -87l104 87
l66 -75l-170 -162l-168 162z" />
    <glyph glyph-name="uni01D2" unicode="&#x1d2;" horiz-adv-x="596" 
d="M537 265q0 -128 -67 -206.5t-183 -78.5q-115 0 -182.5 78.5t-67.5 206.5q0 127 68 206t182 79q115 0 182.5 -78.5t67.5 -206.5zM388 266q0 78 -25 125t-76 47q-52 0 -77 -47t-25 -125t25 -124t77 -46t76.5 46t24.5 124zM182 837l105 -87l104 87l66 -75l-170 -162
l-168 162z" />
    <glyph glyph-name="uni01D3" unicode="&#x1d3;" horiz-adv-x="695" 
d="M587 231q0 -115 -68.5 -183.5t-194.5 -68.5q-110 0 -177.5 55t-78.5 149q-5 52 -5 96v419h153v-396q0 -105 23.5 -150.5t88.5 -45.5q46 0 75 27.5t33 82.5q3 40 3 87v395h148v-467zM224 1001l105 -87l104 87l66 -75l-170 -162l-168 162z" />
    <glyph glyph-name="uni01D4" unicode="&#x1d4;" 
d="M512 25q-68 -44 -226 -44q-125 0 -177 60.5t-52 177.5v320h148v-277q0 -36 1 -56.5t6 -44.5t14 -36t25.5 -20.5t41.5 -8.5q43 0 71 11v432h148v-514zM186 837l105 -87l104 87l66 -75l-170 -162l-168 162z" />
    <glyph glyph-name="uni01D5" unicode="&#x1d5;" horiz-adv-x="695" 
d="M337 -22q-273 0 -273 294v428h156v-404q0 -100 27.5 -144t91.5 -44q65 0 92.5 44t27.5 145v403h151v-455q0 -122 -70 -194.5t-203 -72.5zM180 939v97h334v-97h-334zM318 819q-1 -32 -21.5 -51t-51.5 -19t-51.5 20t-20.5 53q0 38 21 56t51 18q33 0 52.5 -19.5t20.5 -57.5z
M522 822q0 -33 -20.5 -53t-51.5 -20t-51.5 20t-21.5 55q1 36 20 54t50 19q13 1 29 -5.5t24 -15.5q22 -26 22 -54z" />
    <glyph glyph-name="uni01D6" unicode="&#x1d6;" 
d="M512 25q-68 -44 -226 -44q-125 0 -177 60.5t-52 177.5v320h148v-277q0 -36 1 -56.5t6 -44.5t14 -36t25.5 -20.5t41.5 -8.5q43 0 71 11v432h148v-514zM100 779v98h334v-98h-334zM239 660q-1 -32 -22 -51.5t-51 -19.5q-32 0 -52.5 20t-20.5 53q0 38 21 56.5t51 18.5
q33 0 53 -19.5t21 -57.5zM443 662q0 -33 -21 -53t-52 -20t-51.5 20t-21.5 56q3 70 70 72q32 2 54 -20q22 -27 22 -55z" />
    <glyph glyph-name="uni01D7" unicode="&#x1d7;" horiz-adv-x="695" 
d="M587 231q0 -115 -68.5 -183.5t-194.5 -68.5q-110 0 -177.5 55t-78.5 149q-5 52 -5 96v419h153v-396q0 -105 23.5 -150.5t88.5 -45.5q46 0 75 27.5t33 82.5q3 40 3 87v395h148v-467zM244 824l140 205l107 -79l-160 -190zM228 836q0 -36 -23 -58t-57 -22t-57 22t-23 58
q0 37 23 59t57 22t57 -22t23 -59zM613 836q0 -36 -23.5 -58t-57.5 -22q-33 0 -56.5 22t-23.5 58t23.5 58.5t56.5 22.5q34 0 57.5 -22.5t23.5 -58.5z" />
    <glyph glyph-name="uni01D8" unicode="&#x1d8;" horiz-adv-x="617" 
d="M527 25q-68 -44 -225 -44q-125 0 -177 60.5t-52 177.5v320h147v-277q0 -36 1 -57t6 -44.5t14.5 -36t26 -20.5t41.5 -8q43 0 71 11v432h147v-514zM208 650l140 205l107 -79l-160 -190zM192 662q0 -36 -23 -58t-57 -22t-57 22t-23 58q0 37 23 59t57 22t57 -22t23 -59z
M577 662q0 -36 -23.5 -58t-57.5 -22q-33 0 -56.5 22t-23.5 58t23.5 58.5t56.5 22.5q34 0 57.5 -22.5t23.5 -58.5z" />
    <glyph glyph-name="uni01D9" unicode="&#x1d9;" horiz-adv-x="613" 
d="M574 231q0 -115 -69 -183.5t-194 -68.5q-110 0 -177.5 55t-78.5 149q-5 52 -5 96v419h153v-396q0 -105 23.5 -150.5t88.5 -45.5q46 0 75 27.5t33 82.5q3 40 3 87v395h148v-467zM202 1069l105 -88l104 88l66 -75l-170 -163l-168 163zM236 831q0 -37 -23 -59t-57 -22
t-57 22t-23 59q0 36 23 58t57 22t57 -22t23 -58zM532 831q0 -37 -23 -59t-57 -22t-57 22t-23 59q0 36 23 58t57 22t57 -22t23 -58z" />
    <glyph glyph-name="uni01DA" unicode="&#x1da;" horiz-adv-x="601" 
d="M505 25q-70 -44 -226 -44q-125 0 -177 60.5t-52 177.5v320h147v-277q0 -36 1 -57t6 -44.5t14.5 -36t26 -20.5t41.5 -8q44 0 71 11v432h148v-514zM176 914l105 -88l104 88l66 -76l-170 -162l-168 162zM210 676q0 -37 -23 -59t-57 -22t-57 22t-23 59q0 36 23 58t57 22
t57 -22t23 -58zM506 676q0 -37 -23 -59t-57 -22t-57 22t-23 59q0 36 23 58t57 22t57 -22t23 -58z" />
    <glyph glyph-name="uni01DB" unicode="&#x1db;" horiz-adv-x="692" 
d="M596 231q0 -115 -69 -183.5t-194 -68.5q-110 0 -177.5 55t-78.5 149q-5 52 -5 96v419h153v-396q0 -105 23.5 -150.5t88.5 -45.5q46 0 75 27.5t33 82.5q3 40 3 87v395h148v-467zM498 814q0 -36 -24 -59t-59 -23q-34 0 -58 23t-24 58q0 36 23 60t59 24q35 0 59 -23.5
t24 -59.5zM335 814q0 -36 -24 -59t-58 -23q-35 0 -59 23t-24 58q0 36 23 60t60 24q34 0 58 -23.5t24 -59.5zM272 1058l140 -206l-86 -63l-160 189z" />
    <glyph glyph-name="uni01DC" unicode="&#x1dc;" horiz-adv-x="542" 
d="M505 25q-70 -44 -226 -44q-125 0 -177 60.5t-52 177.5v320h147v-277q0 -36 1 -57t6 -44.5t14.5 -36t26 -20.5t41.5 -8q44 0 71 11v432h148v-514zM433 661q0 -36 -24 -59t-59 -23q-34 0 -58 23t-24 58q0 36 23 60t59 24q35 0 59 -23.5t24 -59.5zM270 661q0 -36 -24 -59
t-58 -23q-35 0 -59 23t-24 58q0 36 23 60t60 24q34 0 58 -23.5t24 -59.5zM207 905l140 -206l-86 -63l-160 189z" />
    <glyph glyph-name="uni01DD" unicode="&#x1dd;" horiz-adv-x="568" 
d="M536 263q0 -138 -76.5 -215t-181.5 -77q-114 0 -179 71t-65 208q0 5 3 62h342q-17 92 -110 105q-33 4 -61 1q-58 -3 -120 -31l-22 126q29 15 81.5 27t103.5 12q142 0 213.5 -79t71.5 -210zM380 197h-199q10 -98 96 -98q42 0 69.5 28t33.5 70z" />
    <glyph glyph-name="uni01DE" unicode="&#x1de;" horiz-adv-x="686" 
d="M652 -8h-118l-45 6l-33 99l-17 55h-242q-40 -118 -53 -160h-148q159 460 257 706h141q100 -253 258 -706zM408 261l-67 203l-8.5 32l-7.5 27.5t-5 14.5q-3 -4 -6 -14t-4 -13q-6 -23 -82 -250h180zM162 939v97h335v-97h-335zM301 819q-1 -31 -22 -50.5t-51 -19.5
q-32 0 -52.5 20t-20.5 53q0 38 21 56t51 18q33 0 53 -19.5t21 -57.5zM505 822q0 -33 -21 -53t-52 -20t-51.5 20t-21.5 55q1 36 20.5 54.5t49.5 18.5q31 0 53.5 -21.5t22.5 -53.5z" />
    <glyph glyph-name="uni01DF" unicode="&#x1df;" horiz-adv-x="534" 
d="M477 15q-83 -33 -218 -33q-230 0 -230 176q0 169 251 185q11 1 31 2t24 1q-2 47 -23 70.5t-72 23.5q-74 0 -144 -31l-26 106q86 35 189 35q195 0 215 -168q3 -32 3 -65v-302zM336 92v158q-46 0 -58 -1q-50 -5 -78 -24.5t-28 -62.5q0 -78 96 -78q44 0 68 8zM91 779v98h335
v-98h-335zM230 660q-1 -32 -22 -51.5t-51 -19.5q-32 0 -52.5 20t-20.5 53q0 38 21 56.5t51 18.5q33 0 53 -19.5t21 -57.5zM434 662q0 -33 -21 -53t-52 -20t-51.5 20t-21.5 56q1 36 20.5 53.5t49.5 18.5t53 -21t23 -54z" />
    <glyph glyph-name="uni01E0" unicode="&#x1e0;" horiz-adv-x="686" 
d="M652 -8h-118l-45 6l-33 99l-17 55h-242q-40 -118 -53 -160h-148q159 460 257 706h141q100 -253 258 -706zM408 261l-67 203l-8.5 32l-7.5 27.5t-5 14.5q-3 -4 -6 -14t-4 -13q-6 -23 -82 -250h180zM175 934v103h290v-103h-290zM393 823q0 -33 -21 -53t-52 -20t-52 20.5
t-21 52.5q0 34 21 55.5t53 21.5q31 0 51.5 -22t20.5 -55z" />
    <glyph glyph-name="uni01E1" unicode="&#x1e1;" horiz-adv-x="534" 
d="M477 15q-83 -33 -218 -33q-230 0 -230 176q0 169 251 185q11 1 31 2t24 1q-2 47 -23 70.5t-72 23.5q-74 0 -144 -31l-26 106q86 35 189 35q195 0 215 -168q3 -32 3 -65v-302zM336 92v158q-46 0 -58 -1q-50 -5 -78 -24.5t-28 -62.5q0 -78 96 -78q44 0 68 8zM105 781v102
h289v-102h-289zM323 669q0 -33 -21 -53t-52 -20t-52 20.5t-21 52.5q0 34 21 55.5t53 21.5q30 0 51 -22t21 -55z" />
    <glyph glyph-name="uni01E2" unicode="&#x1e2;" horiz-adv-x="959" 
d="M939 -17h-477v176h-223q-75 -137 -94 -176h-165q222 418 446 727h489v-133h-305v-149h270v-131h-270v-181h329v-133zM462 287v240q-68 -96 -118 -180l-36 -60h154zM749 772h-330v115h330v-115z" />
    <glyph glyph-name="uni01E3" unicode="&#x1e3;" horiz-adv-x="865" 
d="M485 326h198q-5 46 -29 72t-66 26t-69.5 -28t-33.5 -70zM257 -28q-233 0 -233 185q0 93 65.5 136t171.5 43q39 0 74 -8q-3 22 -6.5 35t-12.5 29t-27.5 23.5t-47.5 7.5q-77 0 -148 -26l-19 126q83 29 178 29q119 0 168 -75q61 64 149 72q29 3 54 0q98 -10 153 -80t55 -196
q0 -8 -3 -62h-342q19 -109 140 -109q77 0 151 33l22 -126q-61 -30 -151 -36q-27 -3 -58 -1q-94 4 -155 48q-81 -48 -178 -48zM339 214q-30 8 -64 8q-105 0 -105 -63t93 -63q55 0 99 22q-20 43 -23 96zM584 618h-330v115h330v-115z" />
    <glyph glyph-name="uni01E4" unicode="&#x1e4;" horiz-adv-x="711" 
d="M482 112v77h-105v117h105v82h151v-82h81v-117h-81v-179q-99 -40 -246 -40q-158 0 -253.5 100t-95.5 277q0 176 101 277t254 101q138 0 238 -60l-48 -126q-84 50 -180 50q-99 0 -154 -63.5t-55 -178.5q0 -112 52.5 -177.5t151.5 -65.5q56 0 84 8z" />
    <glyph glyph-name="uni01E5" unicode="&#x1e5;" horiz-adv-x="595" 
d="M331 -6q37 6 46 40q-49 -23 -100 -23q-112 0 -178 68t-66 197q0 123 73.5 198.5t200.5 75.5q107 0 218 -33v-180h74v-107h-74v-157q0 -25 -4 -67q-10 -109 -76 -160t-193 -51q-94 0 -193 34l27 130q82 -35 168 -35q41 0 59 16t18 54zM379 160v70h-96v107h96v81
q-30 6 -71 6q-61 0 -94 -41t-33 -108q0 -69 30.5 -103.5t80.5 -34.5q52 0 87 23z" />
    <glyph glyph-name="Gcaron" unicode="&#x1e6;" horiz-adv-x="683" 
d="M590 20q-80 -40 -220 -40q-154 0 -241 97t-87 270q0 167 93 265.5t241 98.5q125 0 209 -50l-47 -110q-53 31 -131 35q-101 5 -155 -56t-54 -185q0 -116 45.5 -180.5t128.5 -64.5q52 0 70 9v170h-71v119h219v-378zM264 1001l105 -87l104 87l66 -75l-170 -162l-168 162z
" />
    <glyph glyph-name="gcaron" unicode="&#x1e7;" horiz-adv-x="585" 
d="M513 22q0 -238 -252 -238q-108 0 -196 37l33 114q56 -26 119 -32q53 -2 85 16q67 18 67 85v20q-42 -21 -100 -21q-105 0 -168.5 69.5t-63.5 193.5q0 130 71.5 206.5t201.5 76.5q122 0 203 -36v-491zM368 128v306q-19 8 -61 8q-61 0 -91.5 -45t-30.5 -127q0 -161 112 -161
q42 0 71 19zM197 837l105 -87l104 87l66 -75l-170 -162l-168 162z" />
    <glyph glyph-name="uni01E8" unicode="&#x1e8;" horiz-adv-x="647" 
d="M620 -8h-131q-32 2 -46 4q-100 172 -222 314v-318h-154v706h154v-287q74 81 215 287h171l-260 -327q151 -171 273 -379zM206 997l105 -87l104 87l66 -75l-170 -162l-168 162z" />
    <glyph glyph-name="uni01E9" unicode="&#x1e9;" horiz-adv-x="542" 
d="M548 -8h-167l-46 75t-73 112t-53 59v-246h-147v788h147v-452q112 141 162 211h164l-204 -247q115 -130 217 -300zM297 837l105 -87l104 87l66 -75l-170 -162l-168 162z" />
    <glyph glyph-name="uni01EA" unicode="&#x1ea;" horiz-adv-x="783" 
d="M589 347q0 111 -53 176t-145 65q-91 0 -144 -65t-53 -176t53 -176t144 -65q92 0 145 65t53 176zM354 -28q-138 12 -227 109.5t-89 265.5q0 178 101.5 278t251.5 100q152 0 252.5 -99.5t100.5 -278.5q0 -224 -160 -324h1q-121 -68 -130 -114q3 -16 31 -13q17 2 47 11
l13 -110q-45 -19 -98 -19q-109 0 -125 70q-4 33 21 73q-4 26 10 51z" />
    <glyph glyph-name="uni01EB" unicode="&#x1eb;" horiz-adv-x="596" 
d="M435 6q-34 -21 -64.5 -48.5t-33.5 -48.5q5 -16 31 -13q17 1 47 11l13 -110q-45 -19 -98 -19q-107 0 -125 70q-4 21 -1 45q5 40 46 84q-99 14 -158 91t-59 193q0 130 74.5 210.5t190.5 80.5q118 0 191.5 -80t73.5 -211q0 -87 -33.5 -152.5t-94.5 -102.5zM414 261
q0 74 -31 117t-85 43t-85 -43t-31 -117t31 -117t85 -43t85 43t31 117z" />
    <glyph glyph-name="uni01EC" unicode="&#x1ec;" horiz-adv-x="783" 
d="M589 347q0 111 -53 176t-145 65q-91 0 -144 -65t-53 -176t53 -176t144 -65q92 0 145 65t53 176zM354 -28q-138 12 -227 109.5t-89 265.5q0 178 101.5 278t251.5 100q152 0 252.5 -99.5t100.5 -278.5q0 -224 -160 -324h1q-120 -65 -130 -114q3 -16 31 -13q17 2 47 11
l13 -110q-45 -19 -98 -19q-109 0 -125 70q-4 33 21 73q-4 26 10 51zM557 772h-331v115h331v-115z" />
    <glyph glyph-name="uni01ED" unicode="&#x1ed;" horiz-adv-x="596" 
d="M435 6q-32 -20 -63.5 -48t-34.5 -49q5 -16 31 -13q17 1 47 11l13 -110q-45 -19 -98 -19q-107 0 -125 70q-4 21 -1 45q5 40 46 84q-99 14 -158 91t-59 193q0 130 74.5 210.5t190.5 80.5q118 0 191.5 -80t73.5 -211q0 -87 -33.5 -152.5t-94.5 -102.5zM414 261q0 74 -31 117
t-85 43t-85 -43t-31 -117t31 -117t85 -43t85 43t31 117zM463 618h-330v115h330v-115z" />
    <glyph glyph-name="uni01EE" unicode="&#x1ee;" horiz-adv-x="584" 
d="M548 198q0 -117 -81 -173.5t-222 -56.5q-73 0 -137.5 20t-104.5 43l47 127q102 -56 195 -56q148 0 148 97q0 106 -181 106h-48v74l5 21q77 77 159 177h-288v133h492v-93q-56 -77 -180 -210q196 -39 196 -209zM179 960l105 -87l104 87l66 -75l-170 -162l-168 162z" />
    <glyph glyph-name="uni01EF" unicode="&#x1ef;" horiz-adv-x="488" 
d="M108 137v76l4 22q69 78 140 177h-242v127h434v-96q-66 -94 -160 -205q82 -19 132 -70t50 -138q0 -114 -72.5 -173t-202.5 -59q-57 0 -114.5 13t-93.5 32l35 123q83 -37 167 -37q65 0 99 27t34 78q0 103 -152 103h-58zM121 801l105 -87l104 87l66 -75l-170 -162l-168 162z
" />
    <glyph glyph-name="uni01F0" unicode="&#x1f0;" horiz-adv-x="266" 
d="M7 -203q-44 0 -94 18l20 125q36 -13 66 -13q35 0 48 20.5t13 66.5v525h146v-526q0 -110 -49 -163t-150 -53zM32 801l104 -87l105 87l65 -75l-170 -162l-167 162z" />
    <glyph glyph-name="uni01F1" unicode="&#x1f1;" horiz-adv-x="1283" 
d="M652 345q0 -171 -98.5 -266t-279.5 -95q-112 0 -206 26v671q92 26 204 26q183 0 281.5 -94t98.5 -268zM223 581v-469q20 -4 59 -4q212 0 212 239q0 238 -211 238q-36 0 -60 -4zM1220 700l-9 -96q-17 -28 -79.5 -124.5l-122 -192.5t-99.5 -173h318v-122h-512l10 88
q49 105 135 246.5t162 250.5h-286v123h483z" />
    <glyph glyph-name="uni01F2" unicode="&#x1f2;" horiz-adv-x="1189" 
d="M652 345q0 -171 -98.5 -266t-279.5 -95q-112 0 -206 26v671q92 26 204 26q183 0 281.5 -94t98.5 -268zM223 581v-469q20 -4 59 -4q212 0 212 239q0 238 -211 238q-36 0 -60 -4zM1148 534l-9 -90l-27 -32q-130 -193 -190 -304h231v-116h-420l15 99q52 102 208 326h-208
v117h400z" />
    <glyph glyph-name="uni01F3" unicode="&#x1f3;" horiz-adv-x="1070" 
d="M535 788v-768q-91 -40 -219 -40q-129 0 -204 74t-75 208q0 128 66 205t178 77q59 0 105 -23v253q104 10 149 14zM386 104v304q-37 23 -80 23q-118 0 -118 -165q0 -82 34 -125.5t95 -43.5q45 0 69 7zM1029 534q-6 -48 -9 -90q-42 -50 -106 -149t-112 -187h232v-116h-421
q6 33 16 99q58 115 208 326h-208v117h400z" />
    <glyph glyph-name="uni01F4" unicode="&#x1f4;" horiz-adv-x="683" 
d="M590 20q-80 -40 -220 -40q-154 0 -241 97t-87 270q0 167 93 265.5t241 98.5q125 0 209 -50l-47 -110q-53 31 -131 35q-101 5 -155 -56t-54 -185q0 -116 45.5 -180.5t128.5 -64.5q52 0 70 9v170h-71v119h219v-378zM421 778h-102l83 202h177z" />
    <glyph glyph-name="uni01F5" unicode="&#x1f5;" horiz-adv-x="585" 
d="M513 22q0 -238 -252 -238q-108 0 -196 37l33 114q56 -26 119 -32q53 -2 85 16q67 18 67 85v20q-42 -21 -100 -21q-105 0 -168.5 69.5t-63.5 193.5q0 130 71.5 206.5t201.5 76.5q122 0 203 -36v-491zM368 128v306q-19 8 -61 8q-61 0 -91.5 -45t-30.5 -127q0 -161 112 -161
q42 0 71 19zM354 614h-102l83 202h177z" />
    <glyph glyph-name="uni01F6" unicode="&#x1f6;" horiz-adv-x="1055" 
d="M853 262v280h150v-297q0 -63 -11.5 -110t-39.5 -86t-79.5 -59.5t-125.5 -20.5q-141 0 -198.5 72.5t-57.5 201.5v51h-273v-311h-150v727h150v-281h273v281h151v-448q0 -83 24.5 -120t80.5 -37q57 0 81.5 37.5t24.5 119.5z" />
    <glyph glyph-name="uni01F7" unicode="&#x1f7;" horiz-adv-x="653" 
d="M218 -11v-191h-150v863q144 55 245 55q150 0 230.5 -70.5t80.5 -205.5q0 -83 -31 -153.5t-89 -125t-127.5 -95.5t-158.5 -77zM218 566v-428q58 27 98 52t77.5 61t56 84t18.5 109q0 68 -40 103t-114 35q-50 0 -96 -16z" />
    <glyph glyph-name="uni01F8" unicode="&#x1f8;" horiz-adv-x="735" 
d="M627 -8h-90l-35 4q-107 184 -256 406q-7 10 -17 28l-16 28t-9 10q0 -10 1 -68t1 -89v-319h-140v706h129q124 -165 256 -372q35 -59 38 -63q0 20 -1 93t-1 111v231h140v-706zM406 758h-102l-159 202h178z" />
    <glyph glyph-name="uni01F9" unicode="&#x1f9;" 
d="M518 -8h-147v279q0 32 -0.5 47.5t-3 39t-8 34.5t-15.5 23.5t-26 17t-39 4.5q-40 0 -71 -9v-436h-148v515q76 42 226 42q51 0 89.5 -8.5t63.5 -26.5t41 -39.5t24 -53t11 -60.5t3 -68v-301zM334 594h-102l-159 202h178z" />
    <glyph glyph-name="Aringacute" unicode="&#x1fa;" horiz-adv-x="686" 
d="M665 -8h-163q-42 138 -50 160h-242q-40 -118 -53 -160h-147q154 450 257 706h140q93 -231 258 -706zM421 261l-66 203q-7 20 -14 45t-9 29q-5 -8 -16 -50q-6 -21 -75 -227h180zM452 838q0 -57 -36 -90.5t-89 -33.5q-52 0 -88.5 33.5t-36.5 90.5q0 56 36.5 89.5t88.5 33.5
q53 0 89 -33t36 -90zM361 838q0 16 -10 25.5t-24 9.5q-15 0 -24.5 -9.5t-9.5 -25.5q0 -17 9.5 -26.5t24.5 -9.5q14 0 24 9.5t10 26.5zM368 1220l99 -94l-194 -161l-75 72z" />
    <glyph glyph-name="aringacute" unicode="&#x1fb;" horiz-adv-x="534" 
d="M477 15q-83 -33 -218 -33q-230 0 -230 176q0 169 251 185q11 1 31 2t24 1q-2 47 -23 70.5t-72 23.5q-74 0 -144 -31l-26 106q86 35 189 35q195 0 215 -168q3 -32 3 -65v-302zM336 92v158q-46 0 -58 -1q-50 -5 -78 -24.5t-28 -62.5q0 -78 96 -78q44 0 68 8zM382 701
q0 -57 -36 -90.5t-89 -33.5q-52 0 -88.5 33.5t-36.5 90.5q0 56 36.5 89.5t88.5 33.5q53 0 89 -33t36 -90zM291 701q0 16 -10 25.5t-24 9.5q-15 0 -24.5 -9.5t-9.5 -25.5q0 -17 9.5 -26.5t24.5 -9.5q14 0 24 9.5t10 26.5zM298 1083l99 -94l-194 -161l-75 72z" />
    <glyph glyph-name="AEacute" unicode="&#x1fc;" horiz-adv-x="959" 
d="M939 -17h-477v176h-223q-75 -137 -94 -176h-165q222 418 446 727h489v-133h-305v-149h270v-131h-270v-181h329v-133zM462 287v240q-68 -96 -118 -180l-36 -60h154zM652 970l98 -94l-194 -161l-75 72z" />
    <glyph glyph-name="aeacute" unicode="&#x1fd;" horiz-adv-x="865" 
d="M485 326h198q-5 46 -29 72t-66 26t-69.5 -28t-33.5 -70zM257 -28q-233 0 -233 185q0 93 65.5 136t171.5 43q39 0 74 -8q-3 22 -6.5 35t-12.5 29t-27.5 23.5t-47.5 7.5q-77 0 -148 -26l-19 126q83 29 178 29q119 0 168 -75q61 64 149 72q29 3 54 0q98 -10 153 -80t55 -196
q0 -8 -3 -62h-342q19 -109 140 -109q77 0 151 33l22 -126q-61 -30 -151 -36q-27 -3 -58 -1q-94 4 -155 48q-81 -48 -178 -48zM339 214q-30 8 -64 8q-105 0 -105 -63t93 -63q55 0 99 22q-20 43 -23 96zM506 812l98 -94l-194 -161l-75 72z" />
    <glyph glyph-name="Oslashacute" unicode="&#x1fe;" horiz-adv-x="783" 
d="M744 347q0 -180 -99.5 -279t-253.5 -99q-105 0 -181 46l-60 -79l-96 72l65 83q-81 95 -81 256q0 178 101.5 278t251.5 100q101 0 181 -48l61 80l96 -71l-65 -84q80 -99 80 -255zM194 347q0 -72 28 -123l261 339q-38 25 -92 25q-91 0 -144 -65t-53 -176zM589 347
q0 71 -27 122l-263 -338q39 -25 92 -25q92 0 145 65t53 176zM445 970l98 -94l-193 -161l-75 72z" />
    <glyph glyph-name="oslashacute" unicode="&#x1ff;" horiz-adv-x="596" 
d="M563 261q0 -131 -73 -211t-192 -80q-75 0 -131 34l-49 -64l-85 64l55 70q-55 73 -55 187q0 130 74.5 210.5t190.5 80.5q73 0 131 -35l50 65l84 -64l-54 -71q54 -72 54 -186zM177 268q6 -31 24 -47l144 187q-28 17 -62 14q-49 -5 -77 -46.5t-29 -107.5zM419 255
q-6 29 -24 45l-145 -188q31 -16 64 -12q48 5 76 46.5t29 108.5zM355 812l98 -94l-193 -161l-76 72z" />
    <glyph glyph-name="uni0200" unicode="&#x200;" horiz-adv-x="686" 
d="M671 -8h-120l-47 6l-48 144h-261l-23.5 -68t-27.5 -82h-151q163 470 266 708h144q96 -227 268 -708zM327 534q-16 -32 -31 -74t-37.5 -112.5l-29.5 -92.5h194l-32.5 99l-36.5 110.5t-27 69.5zM265 912l92 76l139 -195l-79 -60zM67 908l97 80l139 -195l-79 -60z" />
    <glyph glyph-name="uni0201" unicode="&#x201;" horiz-adv-x="534" 
d="M477 15q-83 -33 -218 -33q-230 0 -230 176q0 169 251 185q11 1 31 2t24 1q-2 47 -23 70.5t-72 23.5q-74 0 -144 -31l-26 106q86 35 189 35q195 0 215 -168q3 -32 3 -65v-302zM336 92v158q-46 0 -58 -1q-50 -5 -78 -24.5t-28 -62.5q0 -78 96 -78q44 0 68 8zM179 758l92 77
l140 -195l-80 -60zM-19 755l97 80l139 -195l-79 -60z" />
    <glyph glyph-name="uni0202" unicode="&#x202;" horiz-adv-x="686" 
d="M671 -8h-120l-47 6l-48 144h-261l-23.5 -68t-27.5 -82h-151q163 470 266 708h144q96 -227 268 -708zM327 534q-16 -32 -31 -74t-37.5 -112.5l-29.5 -92.5h194l-32.5 99l-36.5 110.5t-27 69.5zM342 927q78 0 119.5 -48t41.5 -137h-108q-4 73 -53 73t-53 -73h-108
q-2 88 41 136.5t120 48.5z" />
    <glyph glyph-name="uni0203" unicode="&#x203;" horiz-adv-x="534" 
d="M268 796q78 0 119.5 -47.5t41.5 -137.5h-108q-4 74 -53 74t-53 -74h-108q-2 89 40.5 137t120.5 48zM477 15q-83 -33 -218 -33q-230 0 -230 176q0 169 251 185q25 1 55 -1q-2 48 -23 73t-72 25q-74 0 -144 -31l-26 106q86 35 189 35q195 0 215 -168q3 -32 3 -65v-302z
M336 92v158q-46 0 -58 -1q-50 -5 -78 -24.5t-28 -62.5q0 -78 96 -78q44 0 68 8z" />
    <glyph glyph-name="uni0204" unicode="&#x204;" horiz-adv-x="584" 
d="M489 -8h-423v706h411v-118h-257v-165h227v-117h-227v-188h269v-118zM265 912l92 76l139 -195l-79 -60zM67 908l97 80l139 -195l-79 -60z" />
    <glyph glyph-name="uni0205" unicode="&#x205;" horiz-adv-x="568" 
d="M519 237l-333 -23q17 -117 137 -117q81 0 145 31l27 -109q-76 -39 -187 -39q-132 0 -201.5 77t-69.5 208q0 133 69.5 209t179.5 76q102 0 162.5 -59.5t68.5 -172.5q0 -4 0.5 -13t0.5 -14q1 -16 1 -54zM377 323q-5 119 -94 119q-46 0 -73.5 -36t-28.5 -99zM179 758l92 77
l140 -195l-80 -60zM-19 755l97 80l139 -195l-79 -60z" />
    <glyph glyph-name="uni0206" unicode="&#x206;" horiz-adv-x="584" 
d="M518 -8h-450v708h432v-123h-276v-158h243v-121h-243v-184h294v-122zM305 927q78 0 119.5 -48t41.5 -137h-108q-4 73 -53 73q-48 0 -54 -73h-108q-1 89 41.5 137t120.5 48z" />
    <glyph glyph-name="uni0207" unicode="&#x207;" horiz-adv-x="568" 
d="M37 262q0 132 72 208t182 76q101 0 161.5 -56.5t71.5 -162.5q3 -23 3 -48q2 -27 0 -54l-337 -11q15 -113 138 -113q83 0 145 30l27 -113q-76 -38 -187 -38q-138 0 -207 78t-69 204zM185 312l197 5q-5 116 -93 116q-46 0 -74 -34t-30 -87zM291 768q78 0 119.5 -47.5
t41.5 -137.5h-108q-4 74 -53 74t-53 -74h-108q-2 89 40.5 137t120.5 48z" />
    <glyph glyph-name="uni0208" unicode="&#x208;" horiz-adv-x="286" 
d="M221 -8h-154v706h154v-706zM63 912l92 76l139 -195l-79 -60zM-135 908l97 80l139 -195l-79 -60z" />
    <glyph glyph-name="uni0209" unicode="&#x209;" horiz-adv-x="266" 
d="M206 539v-556h-146v556h146zM67 758l92 77l139 -195l-79 -60zM-131 755l97 80l139 -195l-79 -60z" />
    <glyph glyph-name="uni020A" unicode="&#x20a;" horiz-adv-x="286" 
d="M68 -8v708h156v-708h-156zM145 954q78 0 119.5 -48t41.5 -138h-108q-4 74 -53 74q-28 0 -39.5 -19.5t-14.5 -54.5h-108q-1 89 41.5 137.5t120.5 48.5z" />
    <glyph glyph-name="uni020B" unicode="&#x20b;" horiz-adv-x="266" 
d="M206 539v-556h-146v556h146zM134 796q78 0 119.5 -47.5t41.5 -137.5h-108q-4 74 -53 74t-53 -74h-108q-2 89 40.5 137t120.5 48z" />
    <glyph glyph-name="uni020C" unicode="&#x20c;" horiz-adv-x="783" 
d="M662 345q0 -167 -83 -266t-227 -99q-143 0 -226.5 99t-83.5 266t83.5 266.5t226.5 99.5t226.5 -99.5t83.5 -266.5zM505 348q0 107 -38.5 175.5t-114.5 68.5t-115 -68.5t-39 -175.5q0 -108 38.5 -175.5t115.5 -67.5q76 0 114.5 68t38.5 175zM265 912l92 76l139 -195
l-79 -60zM67 908l97 80l139 -195l-79 -60z" />
    <glyph glyph-name="uni020D" unicode="&#x20d;" horiz-adv-x="596" 
d="M537 265q0 -128 -67 -206.5t-183 -78.5q-115 0 -182.5 78.5t-67.5 206.5q0 127 68 206t182 79q115 0 182.5 -78.5t67.5 -206.5zM388 266q0 78 -25 125t-76 47q-52 0 -77 -47t-25 -125t25 -124t77 -46t76.5 46t24.5 124zM183 758l93 77l139 -195l-79 -60zM-15 755l97 80
l140 -195l-80 -60z" />
    <glyph glyph-name="uni020E" unicode="&#x20e;" horiz-adv-x="783" 
d="M663 345q0 -168 -82.5 -266.5t-227.5 -98.5q-143 0 -226.5 99t-83.5 266q0 166 84 266t226 100q143 0 226.5 -99.5t83.5 -266.5zM506 348q0 108 -38.5 176t-114.5 68t-114.5 -68.5t-38.5 -175.5t38.5 -175t114.5 -68q77 0 115 67.5t38 175.5zM335 938q78 0 120.5 -48
t41.5 -137h-55q-2 36 -28.5 65t-78.5 29t-77 -29t-27 -65h-57q-1 89 41.5 137t119.5 48z" />
    <glyph glyph-name="uni020F" unicode="&#x20f;" horiz-adv-x="596" 
d="M537 265q0 -128 -67 -206.5t-183 -78.5q-115 0 -182.5 78.5t-67.5 206.5q0 127 68 206t182 79q115 0 182.5 -78.5t67.5 -206.5zM388 266q0 78 -25 125t-76 47q-52 0 -77 -47t-25 -125t25 -124t77 -46t76.5 46t24.5 124zM288 770q78 0 120.5 -48t41.5 -137h-55
q-2 36 -28.5 65t-78.5 29t-77 -29t-27 -65h-57q-1 89 41.5 137t119.5 48z" />
    <glyph glyph-name="uni0210" unicode="&#x210;" horiz-adv-x="645" 
d="M606 -8h-169q-52 97 -133 227l-50 57h-35v-284h-152v685q96 30 205 30q147 0 222 -58t75 -168q0 -70 -41 -119t-107 -67v-1q68 -86 185 -302zM415 478q0 110 -119 116q-17 2 -46 0q-21 -2 -31 -4v-230q22 -2 43 -2q153 0 153 120zM265 912l92 76l139 -195l-79 -60z
M67 908l97 80l139 -195l-79 -60z" />
    <glyph glyph-name="uni0211" unicode="&#x211;" horiz-adv-x="401" 
d="M376 536q-8 -35 -26 -107q-29 6 -60 2q-12 5 -27 5q-33 0 -55 -9v-435h-148v516q88 37 197 40q56 2 119 -12zM179 758l92 77l140 -195l-80 -60zM-19 755l97 80l139 -195l-79 -60z" />
    <glyph glyph-name="uni0212" unicode="&#x212;" horiz-adv-x="645" 
d="M590 478q0 -64 -35.5 -112t-93.5 -73q82 -104 173 -301h-170q-48 95 -137 241l-22 16t-23 16h-59v-273h-155v689q94 26 210 26q155 0 233.5 -58.5t78.5 -170.5zM285 591q-34 0 -62 -4v-227q7 0 23.5 -0.5t24.5 -0.5q79 0 120.5 25.5t41.5 90.5q0 116 -148 116zM307 927
q78 0 120 -48t42 -137h-108q-6 73 -54 73q-49 0 -53 -73h-108q-1 89 41.5 137t119.5 48z" />
    <glyph glyph-name="uni0213" unicode="&#x213;" horiz-adv-x="401" 
d="M274 544q63 0 120 -16q-18 -81 -25 -109q-28 6 -65 4q-18 5 -27 5q-40 0 -65 -9v-427h-150v512q94 40 212 40zM237 768q78 0 120.5 -48t40.5 -137h-108q-4 74 -53 74t-53 -74h-108q-2 89 40.5 137t120.5 48z" />
    <glyph glyph-name="uni0214" unicode="&#x214;" horiz-adv-x="695" 
d="M587 231q0 -115 -68.5 -183.5t-194.5 -68.5q-110 0 -177.5 55t-78.5 149q-5 52 -5 96v419h153v-396q0 -105 23.5 -150.5t88.5 -45.5q46 0 75 27.5t33 82.5q3 40 3 87v395h148v-467zM265 912l92 76l139 -195l-79 -60zM67 908l97 80l139 -195l-79 -60z" />
    <glyph glyph-name="uni0215" unicode="&#x215;" 
d="M512 25q-68 -44 -226 -44q-125 0 -177 60.5t-52 177.5v320h148v-277q0 -36 1 -56.5t6 -44.5t14 -36t25.5 -20.5t41.5 -8.5q43 0 71 11v432h148v-514zM179 758l92 77l140 -195l-80 -60zM-19 755l97 80l139 -195l-79 -60z" />
    <glyph glyph-name="uni0216" unicode="&#x216;" horiz-adv-x="695" 
d="M337 -22q-273 0 -273 294v428h156v-404q0 -100 27.5 -144t91.5 -44q65 0 92.5 44t27.5 145v403h151v-455q0 -122 -70 -194.5t-203 -72.5zM348 927q78 0 119.5 -48t41.5 -137h-108q-4 73 -53 73t-53 -73h-108q-2 88 41 136.5t120 48.5z" />
    <glyph glyph-name="uni0217" unicode="&#x217;" 
d="M525 534v-512q-71 -41 -231 -41q-124 0 -180 60t-56 177v316h150v-269q0 -89 18.5 -126.5t75.5 -37.5q47 0 73 7v426h150zM287 768q78 0 119.5 -47.5t41.5 -137.5h-108q-4 74 -53 74t-53 -74h-108q-2 89 40.5 137t120.5 48z" />
    <glyph glyph-name="Scommaaccent" unicode="&#x218;" horiz-adv-x="553" 
d="M228 107q114 0 114 77q0 15 -3.5 27t-15 23.5t-19.5 18t-31.5 17.5t-34.5 15.5l-44 17.5q-143 65 -155 175q-3 27 0 56q10 84 74.5 132t168.5 48q114 0 198 -50l-43 -115q-68 41 -143 41q-103 0 -103 -71q0 -45 54 -74q20 -11 85 -38q92 -41 133 -88t41 -129
q0 -99 -69.5 -155.5t-193.5 -56.5q-135 0 -220 52l41 123q74 -46 166 -46zM217 -67v30h124q5 -25 5 -34v-21q-2 -64 -39.5 -95.5t-94.5 -33.5h-24q-31 4 -44 9v95q38 0 55.5 11t17.5 39z" />
    <glyph glyph-name="scommaaccent" unicode="&#x219;" horiz-adv-x="460" 
d="M191 98q78 0 78 45q0 24 -20.5 38.5t-84.5 40.5q-65 30 -96.5 65t-31.5 92q0 75 54 121t146 46q94 0 166 -34q-3 -8 -14.5 -47.5t-18.5 -61.5q-58 28 -116 28q-31 0 -50 -11t-19 -33q0 -10 3 -17.5t7 -12.5t15 -11.5t18.5 -10l26.5 -12t31 -14.5q72 -33 104.5 -68.5
t32.5 -94.5q0 -79 -58.5 -122.5t-163.5 -43.5q-102 0 -177 36l34 116q63 -34 134 -34zM168 -67v30h125q1 -2 5 -34v-21q-3 -64 -40 -95.5t-94 -33.5h-25q-30 4 -43 9v95q38 0 55 11t17 39z" />
    <glyph glyph-name="uni021A" unicode="&#x21a;" horiz-adv-x="585" 
d="M14 700h526v-124h-186v-584h-155v584h-185v124zM226 -67v30h125q1 -9 3 -21t2 -13q0 -16 -1 -21q-2 -64 -39.5 -95.5t-94.5 -33.5h-24q-29 4 -44 9v95q38 0 55.5 11t17.5 39z" />
    <glyph glyph-name="uni021B" unicode="&#x21b;" horiz-adv-x="419" 
d="M218 696v-162h161v-117h-161v-210q0 -61 16.5 -84t54.5 -23q47 0 91 23q8 -64 16 -112q-55 -27 -120 -30q-56 -2 -95 12t-61 36.5t-34 62t-15 75t-3 88.5l2 162h-50v117h48v132zM181 -67v30h124q3 -16 5 -34q1 -5 0 -21q-2 -64 -40 -96.5t-94 -32.5h-24q-31 4 -44 9v95
q38 0 55.5 11t17.5 39z" />
    <glyph glyph-name="uni021C" unicode="&#x21c;" horiz-adv-x="549" 
d="M212 591q-80 0 -165 -47l-52 125q103 56 220 56q111 0 182 -48.5t83 -146.5q4 -25 2 -63q-13 -103 -108 -158q66 -30 102.5 -86t36.5 -125q0 -81 -33.5 -141t-92.5 -93.5t-129 -49.5t-153 -16q-63 0 -101 6l10 135q39 -5 86 -5q52 0 94.5 8.5t79 33.5t46.5 65
q36 33 32 81q-7 40 -38 65.5t-66.5 34.5t-76.5 9h-69v133h61q72 0 119 31t47 91q0 50 -31 77.5t-86 27.5z" />
    <glyph glyph-name="uni021D" unicode="&#x21d;" horiz-adv-x="451" 
d="M167 423q-67 -1 -139 -30l-32 124q86 35 172 35q107 0 170.5 -47.5t63.5 -147.5q0 -43 -24 -80.5t-66 -60.5q113 -47 113 -164q0 -69 -35.5 -120t-97.5 -79t-134 -41.5t-156 -13.5l-8 127q42 2 73.5 4.5t73 11t68.5 21.5t46 36.5t19 54.5q0 86 -139 86h-39v126
q158 0 158 88q0 70 -87 70z" />
    <glyph glyph-name="uni021E" unicode="&#x21e;" horiz-adv-x="716" 
d="M471 419v281h156v-708h-156v304h-247v-304h-156v708h156v-281h247zM253 960l105 -87l104 87l66 -75l-170 -162l-168 162z" />
    <glyph glyph-name="uni021F" unicode="&#x21f;" 
d="M212 -8h-150v782q104 10 150 14v-261q44 15 86 16q71 3 118.5 -14t71.5 -54.5t33 -81t9 -105.5v-296h-149v269q0 94 -18.5 130.5t-78.5 36.5q-46 0 -72 -12v-424zM356 906l-157 -120l-158 120l51 77l107 -67l106 67z" />
    <glyph glyph-name="uni0220" unicode="&#x220;" horiz-adv-x="686" 
d="M623 423v-625h-151v616q0 91 -35 133t-110 42q-58 0 -109 -11v-595h-150v692q61 50 269 50q286 0 286 -302z" />
    <glyph glyph-name="uni0221" unicode="&#x221;" horiz-adv-x="749" 
d="M586 24q-28 0 -51 -26v-15q0 -65 51 -65q23 0 35.5 15t12.5 37t-12.5 38t-35.5 16zM535 796v-672q29 21 69 21q70 0 116 -47t46 -125q0 -83 -50 -129t-130 -46q-110 0 -157 85l-71 -80l-81 76l60 71q3 7 16 31q-57 -6 -99 -1q-104 16 -162.5 89t-58.5 190
q0 134 66.5 212.5t184.5 78.5q57 0 105 -24v246zM389 112v282q-41 26 -90 26q-117 0 -117 -157q0 -75 35.5 -117.5t98.5 -42.5q42 0 73 9z" />
    <glyph glyph-name="uni0222" unicode="&#x222;" horiz-adv-x="686" 
d="M343 105q70 0 112.5 25.5t42.5 76.5t-41.5 76t-113.5 25t-113 -25t-41 -76t42.5 -76.5t111.5 -25.5zM343 -26q-309 0 -309 228q0 60 32.5 106.5t86.5 73.5q-73 49 -73 159q0 81 23 169h146q-19 -99 -19 -161q0 -111 113 -111q114 0 114 111q0 62 -19 161h146
q23 -97 23 -169q0 -110 -73 -159q54 -27 86.5 -73t32.5 -107q0 -228 -310 -228z" />
    <glyph glyph-name="uni0223" unicode="&#x223;" horiz-adv-x="594" 
d="M297 101q54 0 85 35.5t31 98.5t-31 99.5t-85 36.5t-85.5 -36.5t-31.5 -99.5t31.5 -98.5t85.5 -35.5zM297 501q89 0 89 122q0 70 -16 170h140q20 -97 20 -177q0 -121 -76 -173q50 -32 79 -86.5t29 -124.5q0 -119 -72 -190.5t-193 -71.5t-193.5 71.5t-72.5 190.5
q0 70 29 124.5t79 86.5q-75 51 -75 173q0 87 20 177h139q-15 -94 -15 -170q0 -122 89 -122z" />
    <glyph glyph-name="uni0224" unicode="&#x224;" horiz-adv-x="588" 
d="M318 -78q27 -9 50 -9q49 0 54 70h-402v95q56 107 157 255t182 244h-322v133h523v-105l-19 -28q-71 -81 -169 -215t-165 -246h363v-108q0 -97 -29 -147t-103 -60q-28 -4 -61 -3q-32 0 -77 16z" />
    <glyph glyph-name="uni0225" unicode="&#x225;" horiz-adv-x="480" 
d="M333 -17h-313v91q76 138 240 338h-227v127h423v-102q-44 -49 -120.5 -146.5t-131.5 -180.5h259v-124q0 -84 -28.5 -129.5t-98.5 -54.5q-62 -12 -130 13l23 106q26 -9 58 -9q24 0 34 17t12 54z" />
    <glyph glyph-name="uni0226" unicode="&#x226;" horiz-adv-x="686" 
d="M665 -8h-163q-42 138 -50 160h-242q-40 -118 -53 -160h-147q154 450 257 706h140q93 -231 258 -706zM421 261l-66 203q-7 20 -14 45t-9 29q-5 -8 -16 -50q-6 -21 -75 -227h180zM317 761q-35 0 -59 23t-24 60t24 59.5t59 22.5t58.5 -22.5t23.5 -59.5t-23.5 -60t-58.5 -23z
" />
    <glyph glyph-name="uni0227" unicode="&#x227;" horiz-adv-x="534" 
d="M477 15q-83 -33 -218 -33q-230 0 -230 176q0 169 251 185q25 1 55 -1q-2 48 -23 73t-72 25q-74 0 -144 -31l-26 106q86 35 189 35q195 0 215 -168q3 -32 3 -65v-302zM336 92v158q-46 0 -58 -1q-50 -5 -78 -24.5t-28 -62.5q0 -78 96 -78q44 0 68 8zM268 600q-35 0 -59 23
t-24 60t24 59.5t59 22.5t58.5 -22.5t23.5 -59.5t-23.5 -60t-58.5 -23z" />
    <glyph glyph-name="uni0228" unicode="&#x228;" horiz-adv-x="584" 
d="M394 -85q25 -30 20 -64q-25 -74 -131 -74q-46 0 -100 17l21 101q45 -14 73 -14q15 0 10 14q-8 12 -50 27q17 45 25 61h-194v727h471v-133h-321v-149h286v-131h-286v-181h346v-133h-187q19 -24 17 -68z" />
    <glyph glyph-name="uni0229" unicode="&#x229;" horiz-adv-x="568" 
d="M359 -27q17 -23 14 -58q26 -26 22 -59q-9 -36 -42 -57.5t-90 -21.5q-47 0 -100 17l20 101q45 -14 73 -14q14 0 11 14q-7 12 -50 27q9 32 22 58q-104 20 -155 94t-51 185q0 138 76 215.5t181 77.5q114 0 179 -71t65 -208q0 -10 -1.5 -31.5t-1.5 -30.5h-342
q17 -94 114 -107q31 -2 49 -1q68 5 128 32l22 -125q-56 -30 -143 -37zM188 326h198q-5 46 -29 72t-65 26q-42 0 -69.5 -28t-34.5 -70z" />
    <glyph glyph-name="uni022A" unicode="&#x22a;" horiz-adv-x="783" 
d="M662 345q0 -167 -83 -266t-227 -99q-143 0 -226.5 99t-83.5 266t83.5 266.5t226.5 99.5t226.5 -99.5t83.5 -266.5zM505 348q0 107 -38.5 175.5t-114.5 68.5t-115 -68.5t-39 -175.5q0 -108 38.5 -175.5t115.5 -67.5q76 0 114.5 68t38.5 175zM183 939v97h335v-97h-335z
M322 819q-1 -31 -22 -50.5t-51 -19.5q-32 0 -52.5 20t-20.5 53q0 38 21 56t51 18q33 0 53 -19.5t21 -57.5zM526 822q0 -33 -21 -53t-52 -20t-51.5 20t-21.5 55q1 36 20.5 54.5t49.5 18.5q31 0 53.5 -21.5t22.5 -53.5z" />
    <glyph glyph-name="uni022B" unicode="&#x22b;" horiz-adv-x="596" 
d="M537 265q0 -128 -67 -206.5t-183 -78.5q-115 0 -182.5 78.5t-67.5 206.5q0 127 68 206t182 79q115 0 182.5 -78.5t67.5 -206.5zM388 266q0 78 -25 125t-76 47q-52 0 -77 -47t-25 -125t25 -124t77 -46t76.5 46t24.5 124zM118 779v98h334v-98h-334zM256 660
q-1 -32 -21.5 -51.5t-51.5 -19.5t-51.5 20t-20.5 53q0 38 20.5 56.5t51.5 18.5q33 0 52.5 -19.5t20.5 -57.5zM460 662q0 -33 -21 -53t-52 -20q-30 0 -50.5 20t-21.5 56q1 36 20 53.5t50 18.5q30 1 52.5 -21t22.5 -54z" />
    <glyph glyph-name="uni022C" unicode="&#x22c;" horiz-adv-x="783" 
d="M662 345q0 -167 -83 -266t-227 -99q-143 0 -226.5 99t-83.5 266t83.5 266.5t226.5 99.5t226.5 -99.5t83.5 -266.5zM505 348q0 107 -38.5 175.5t-114.5 68.5t-115 -68.5t-39 -175.5q0 -108 38.5 -175.5t115.5 -67.5q76 0 114.5 68t38.5 175zM245 877q43 1 85 -18t88 -18
q58 9 119 40l14 -35q-16 -40 -46.5 -69t-77.5 -29q-22 0 -63 17.5t-61 17.5q-9 0 -31 -12.5t-36 -31.5l-70 64q38 59 79 74zM534 912h-320v109h320v-109z" />
    <glyph glyph-name="uni022D" unicode="&#x22d;" horiz-adv-x="596" 
d="M537 265q0 -128 -67 -206.5t-183 -78.5q-115 0 -182.5 78.5t-67.5 206.5q0 127 68 206t182 79q115 0 182.5 -78.5t67.5 -206.5zM388 266q0 78 -25 125t-76 47q-52 0 -77 -47t-25 -125t25 -124t77 -46t76.5 46t24.5 124zM344 598q-28 0 -70 18.5t-56 18.5q-21 0 -48 -52
l-85 53q17 44 50.5 79.5t78.5 35.5q29 0 71 -18t56 -18q21 0 47 51l87 -54q-64 -114 -131 -114zM91 800v98h334v-98h-334z" />
    <glyph glyph-name="uni022E" unicode="&#x22e;" horiz-adv-x="783" 
d="M663 345q0 -168 -82.5 -266.5t-227.5 -98.5q-143 0 -226.5 99t-83.5 266q0 166 84 266t226 100q143 0 226.5 -99.5t83.5 -266.5zM506 348q0 108 -38.5 176t-114.5 68t-114.5 -68.5t-38.5 -175.5t38.5 -175t114.5 -68q77 0 115 67.5t38 175.5zM352 780q-35 0 -59 23
t-24 60t24 59.5t59 22.5t58.5 -22.5t23.5 -59.5t-23.5 -60t-58.5 -23z" />
    <glyph glyph-name="uni022F" unicode="&#x22f;" horiz-adv-x="596" 
d="M537 265q0 -128 -67 -206.5t-183 -78.5q-115 0 -182.5 78.5t-67.5 206.5q0 127 68 206t182 79q115 0 182.5 -78.5t67.5 -206.5zM388 266q0 78 -25 125t-76 47q-52 0 -77 -47t-25 -125t25 -124t77 -46t76.5 46t24.5 124zM298 618q-35 0 -58.5 22.5t-23.5 59.5t23.5 60
t58.5 23t58.5 -23t23.5 -60t-23.5 -59.5t-58.5 -22.5z" />
    <glyph glyph-name="uni0230" unicode="&#x230;" horiz-adv-x="783" 
d="M662 345q0 -167 -83 -266t-227 -99q-143 0 -226.5 99t-83.5 266t83.5 266.5t226.5 99.5t226.5 -99.5t83.5 -266.5zM505 348q0 107 -38.5 175.5t-114.5 68.5t-115 -68.5t-39 -175.5q0 -108 38.5 -175.5t115.5 -67.5q76 0 114.5 68t38.5 175zM206 934v103h289v-103h-289z
M424 823q0 -33 -21 -53t-52 -20t-52 20.5t-21 52.5q0 34 21 55.5t53 21.5q30 0 51 -22t21 -55z" />
    <glyph glyph-name="uni0231" unicode="&#x231;" horiz-adv-x="596" 
d="M537 265q0 -128 -67 -206.5t-183 -78.5q-115 0 -182.5 78.5t-67.5 206.5q0 127 68 206t182 79q115 0 182.5 -78.5t67.5 -206.5zM388 266q0 78 -25 125t-76 47q-52 0 -77 -47t-25 -125t25 -124t77 -46t76.5 46t24.5 124zM141 781v102h289v-102h-289zM358 669
q0 -33 -20.5 -53t-51.5 -20t-52 20.5t-21 52.5q0 34 21 55.5t53 21.5q30 0 50.5 -22t20.5 -55z" />
    <glyph glyph-name="uni0232" unicode="&#x232;" horiz-adv-x="621" 
d="M583 698q-113 -228 -220 -418v-288h-152v287q-101 181 -220 419h169q61 -144 132 -281q73 142 134 281h157zM459 786h-330v115h330v-115z" />
    <glyph glyph-name="uni0233" unicode="&#x233;" horiz-adv-x="540" 
d="M523 539q-96 -332 -202 -617q-25 -58 -56.5 -84t-83.5 -26q-44 0 -119 29l30 98q39 -18 56 -18q8 0 14.5 2.5t11.5 8.5l9 10.5t7.5 14.5t5.5 15t5 16.5t4 14.5q-109 265 -190 536h156q34 -143 83 -298l23 -85l22 85q30 100 80 298h144zM435 618h-331v115h331v-115z" />
    <glyph glyph-name="uni0234" unicode="&#x234;" horiz-adv-x="442" 
d="M279 24q-27 0 -51 -26v-15q0 -65 52 -65q23 0 35.5 15t12.5 37q0 23 -13 38.5t-36 15.5zM120 -115l-73 -82l-81 76l117 134q-1 26 -1 73v685l146 25v-671q29 20 70 20q70 0 116 -47t46 -125q0 -83 -50.5 -129t-129.5 -46q-113 0 -160 87z" />
    <glyph glyph-name="uni0235" unicode="&#x235;" horiz-adv-x="739" 
d="M577 24q-28 0 -52 -26v-15q0 -65 52 -65q23 0 35.5 15t12.5 37t-12.5 38t-35.5 16zM525 293v-169q30 21 70 21q64 0 108.5 -39.5t49.5 -107.5q4 -33 -2 -66q-12 -64 -59 -99t-115 -35q-113 0 -160 87l-72 -82l-82 76l117 134v48v213q0 80 -22 112.5t-78 32.5
q-46 0 -74 -7v-429h-146v534q117 33 230 33q129 0 182 -66.5t53 -190.5z" />
    <glyph glyph-name="uni0236" unicode="&#x236;" horiz-adv-x="456" 
d="M228 412v-288q30 21 70 21q70 0 116 -47t46 -125q0 -83 -50.5 -129t-129.5 -46q-113 0 -160 87l-73 -82l-81 76l117 134q-1 20 -1 54v610l146 24v-162h191v-127h-191zM279 23q-27 0 -51 -26v-15q0 -65 52 -65q23 0 35.5 15.5t12.5 37.5t-12.5 37.5t-36.5 15.5z" />
    <glyph glyph-name="uni0237" unicode="&#x237;" horiz-adv-x="266" 
d="M7 -203q-44 0 -94 18l20 125q36 -13 66 -13q35 0 48 20.5t13 66.5v525h146v-526q0 -110 -49 -163t-150 -53z" />
    <glyph glyph-name="uni0238" unicode="&#x238;" horiz-adv-x="923" 
d="M535 394v-286q23 -7 73 -7q62 0 98 43t36 119q0 157 -118 157q-50 0 -89 -26zM535 796v-270q50 24 107 24q118 0 183.5 -79t65.5 -210q0 -134 -76 -212t-206 -78q-73 0 -147 24q-76 -24 -147 -24q-131 0 -206.5 77.5t-75.5 210.5q0 134 66.5 212.5t184.5 78.5
q57 0 105 -24v246zM389 108v286q-41 26 -90 26q-117 0 -117 -157q0 -76 35.5 -119t98.5 -43q48 0 73 7z" />
    <glyph glyph-name="uni0239" unicode="&#x239;" horiz-adv-x="923" 
d="M535 413v-285q39 -26 89 -26q118 0 118 156q0 76 -36 118.5t-98 42.5q-47 0 -73 -6zM535 -4v-198h-146v198q-50 -24 -108 -24q-117 0 -182.5 78t-65.5 210q0 133 76 211.5t206 78.5q69 0 146 -25q77 25 148 25q130 0 206 -78t76 -212q0 -130 -65.5 -209t-183.5 -79
q-57 0 -107 24zM389 128v285q-28 6 -73 6q-63 0 -98.5 -42.5t-35.5 -118.5q0 -156 117 -156q49 0 90 26z" />
    <glyph glyph-name="uni023A" unicode="&#x23a;" horiz-adv-x="744" 
d="M500 782l108 -32l-82 -226q28 -65 59 -145l78.5 -207l67.5 -180h-149l-55 150h-140l-94 -258l-107 36l80 222h-60l-27.5 -76.5l-26.5 -73.5h-140q170 472 288 718h126q11 -24 25 -60zM242 254h65l87 237q-21 52 -29 69q-80 -183 -123 -306zM428 254h59l-14.5 39t-15.5 41
z" />
    <glyph glyph-name="uni023B" unicode="&#x23b;" horiz-adv-x="646" 
d="M496 804l112 -34l-30 -81l31 -14q6 -2 18.5 -4.5t13.5 -2.5l-49 -136q-36 21 -58 28l-168 -443q40 -9 85 -4q71 7 133 38l43 -126q-35 -22 -99 -39t-140 -17q-34 0 -71 11l-37 -101l-110 34l37 99q-169 91 -169 335q0 176 101.5 277t254.5 101q46 0 71 -5zM194 348
q0 -126 63 -190l162 426q-24 3 -48 0q-83 -8 -130 -70t-47 -166z" />
    <glyph glyph-name="uni023C" unicode="&#x23c;" horiz-adv-x="496" 
d="M311 -29q-32 0 -62 6l-27 -85l-100 29l28 90q-117 75 -117 249q0 128 74 210t199 82q3 0 9 -0.5t10 -0.5l27 82l99 -28l-24 -74q47 -16 57 -20l-34 -124q-43 19 -61 23l-98 -303q28 -5 54 -4q51 4 105 29l25 -127q-72 -34 -164 -34zM145 298q-11 -51 3 -103t47 -79
l105 328q-61 5 -103.5 -35t-51.5 -111z" />
    <glyph glyph-name="uni023D" unicode="&#x23d;" horiz-adv-x="548" 
d="M231 118h315v-135h-466v324h-81v119h81v284h151v-284h148v-119h-148v-189z" />
    <glyph glyph-name="uni023E" unicode="&#x23e;" horiz-adv-x="638" 
d="M461 793l30 -16l-334 -817l-29 16zM506 579h-168v-587h-153v587h-168v119h489v-119z" />
    <glyph glyph-name="uni023F" unicode="&#x23f;" horiz-adv-x="460" 
d="M340 -77q21 0 64 8l15 -119q-32 -9 -77 -13q-25 0 -34 1q-48 2 -85.5 25.5t-78.5 67.5q-9 10 -30.5 36.5t-31 37t-28 26.5t-38.5 27l43 110q79 -33 149 -33q82 0 82 41q0 20 -18.5 32t-75.5 36q-82 31 -122 68t-40 109q0 78 56 123t154 45q88 0 170 -32l-28 -123
q-64 25 -117 28q-22 2 -38 -1q-52 -7 -52 -37q0 -20 18.5 -32.5t69.5 -32.5h-1q94 -35 132 -73t38 -110q0 -63 -39 -100.5t-110 -48.5q-31 -4 -50 -3l36 -35q30 -28 67 -28z" />
    <glyph glyph-name="uni0240" unicode="&#x240;" horiz-adv-x="480" 
d="M490 -66l15 -121q-28 -8 -66 -12q-33 -1 -54 2q-37 4 -70 24.5t-58.5 46l-51.5 50.5t-62 42t-78 17h-45v91q76 138 240 338h-227v127h423v-96q-6 -8 -61 -76.5l-113.5 -145.5t-97.5 -138q60 -17 124 -83l15.5 -15l16 -15.5t14.5 -13t17 -13t15.5 -8.5t18.5 -7t18 -2
q24 0 67 8z" />
    <glyph glyph-name="uni0241" unicode="&#x241;" horiz-adv-x="492" 
d="M254 187v-204h-151v217q0 45 10 79t33.5 60.5t43 42t58.5 40.5v-1q27 18 39.5 29t23 28.5t10.5 39.5q0 36 -29 53.5t-78 17.5q-87 0 -174 -51l-49 126q39 23 102.5 42t122.5 19q125 0 192 -52.5t67 -148.5q0 -49 -17.5 -87t-39 -58t-60.5 -48q-41 -28 -58 -42.5
t-31.5 -40.5t-14.5 -61z" />
    <glyph glyph-name="uni0242" unicode="&#x242;" horiz-adv-x="431" 
d="M235 108v-125h-146v135q0 60 24.5 96t70.5 67q10 8 27.5 19t25.5 17.5t17.5 15.5t13.5 19t4 22q0 47 -80 47q-79 0 -156 -47l-48 121q31 19 90 38t114 19q109 0 167 -45.5t58 -127.5q0 -59 -25.5 -95.5t-70.5 -64.5q-31 -20 -45.5 -32t-27.5 -32.5t-13 -46.5z" />
    <glyph glyph-name="uni0243" unicode="&#x243;" horiz-adv-x="660" 
d="M293 -24q-115 0 -219 22v165h-75v79h75v453q100 22 211 22q308 0 308 -205q0 -92 -75 -136q109 -46 109 -173q0 -227 -334 -227zM338 299l-63 -7v-50h57v-79h-57v-54q4 0 17 -0.5t25 -0.5t22 1q134 9 134 97q0 49 -34 70t-101 23zM222 584v-160h84q69 0 103.5 18.5
t34.5 64.5q0 80 -145 80q-53 0 -77 -3z" />
    <glyph glyph-name="uni0244" unicode="&#x244;" horiz-adv-x="727" 
d="M362 -31q-145 0 -215.5 79t-70.5 212v61h-77v119h77v270h151v-270h272v270h151v-270h77v-119h-77v-61q0 -134 -71 -212.5t-217 -78.5zM363 105q125 0 135 144q1 13 1 41v31h-272v-31q0 -16 2 -42q9 -143 134 -143z" />
    <glyph glyph-name="uni0245" unicode="&#x245;" horiz-adv-x="679" 
d="M692 -17h-165q-121 361 -191 528q-63 -153 -190 -528h-159q152 437 286 727h122l33 -50q123 -268 264 -677z" />
    <glyph glyph-name="uni0246" unicode="&#x246;" horiz-adv-x="589" 
d="M570 -17h-282l-44 -111l-103 37l30 74h-103v727h390l32 81l104 -36l-132 -327h49v-131h-99l-73 -181h231v-133zM218 577v-149h128l61 149h-189zM218 297v-143l22 11l56 132h-78z" />
    <glyph glyph-name="uni0247" unicode="&#x247;" horiz-adv-x="575" 
d="M40 261q0 100 45.5 171t114.5 98.5t145 13.5l25 81l108 -26l-26 -77q82 -34 110 -89.5t28 -156.5q0 -33 -2 -51l-227 -12l-38 -114q50 -13 105 -2.5t108 34.5l20 -113q-40 -28 -116.5 -37.5t-150.5 4.5l-27 -72l-105 18l25 80q-142 56 -142 250zM188 311l86 1l41 134
q-50 6 -83.5 -35.5t-43.5 -99.5zM243 213l-67 -3q-3 -66 38 -88zM388 314l67 2q9 84 -30 119z" />
    <glyph glyph-name="uni0248" unicode="&#x248;" horiz-adv-x="530" 
d="M450 710v-287h80v-119h-80v-78q0 -57 -12 -101.5t-39.5 -80.5t-77.5 -55.5t-121 -19.5q-120 0 -212 67l56 122q81 -54 146 -54q58 0 83.5 30t25.5 100v70h-133v119h133v287h151z" />
    <glyph glyph-name="uni0249" unicode="&#x249;" horiz-adv-x="285" 
d="M15 -203q-44 0 -94 18l20 125q25 -10 46 -11q21 -3 38 0q27 5 35 28.5t8 74.5v191h-90v109h90v207h146v-207h75v-109h-75v-193q0 -120 -47 -176.5t-152 -56.5zM228 676q0 -40 -25 -64t-62 -24t-62.5 24t-25.5 64t25.5 64t62.5 24t62 -24t25 -64z" />
    <glyph glyph-name="uni024A" unicode="&#x24a;" horiz-adv-x="802" 
d="M589 347q0 111 -53 176t-145 65q-91 0 -144 -65t-53 -176t53 -176t144 -65q92 0 145 64t53 177zM718 -133q-66 17 -96 61.5t-31 126.5q-35 -39 -89 -62.5t-116 -23.5q-148 0 -248 99.5t-100 278.5q0 178 101.5 278t251.5 100q152 0 251 -99.5t99 -278.5v-352
q0 -36 10 -53t34 -17q25 0 60 13l21 -125q-37 -12 -66 -15q-42 -1 -59.5 17t-22.5 52z" />
    <glyph glyph-name="uni024B" unicode="&#x24b;" horiz-adv-x="595" 
d="M389 -28q-31 11 -45 19q-24 -19 -63 -19q-117 0 -182.5 78t-65.5 210q0 133 76 211.5t206 78.5q113 0 220 -33v-527q0 -65 39 -65q20 0 58 9l22 -119q-48 -17 -100 -17q-87 0 -125 43t-40 131zM389 128v285q-28 6 -73 6q-63 0 -98.5 -42.5t-35.5 -118.5q0 -156 117 -156
q49 0 90 26z" />
    <glyph glyph-name="uni024C" unicode="&#x24c;" horiz-adv-x="658" 
d="M326 250q-12 -1 -37 -1h-58v-266h-151v266h-81v128h81v318q106 22 207 22q324 0 324 -239q0 -138 -130 -196q116 -157 181 -299h-166q-92 166 -170 267zM296 583q-35 0 -65 -4v-202h28q40 0 66.5 1.5t53.5 7.5t42.5 17t25 30t9.5 46q0 104 -160 104z" />
    <glyph glyph-name="uni024D" unicode="&#x24d;" horiz-adv-x="408" 
d="M283 549q78 0 134 -24l-28 -126q-48 25 -120 19q-35 -3 -55 -13v-116h139v-109h-139v-197h-146v197h-72v109h72v219q110 41 215 41z" />
    <glyph glyph-name="uni024E" unicode="&#x24e;" horiz-adv-x="687" 
d="M419 -17h-152v284q-54 80 -116 186h-132v118h67q-30 52 -74 139h172q34 -77 68 -139h186q32 60 70 139h166l-76 -139h67v-118h-133q-40 -70 -113 -184v-286zM283 453l67 -111l73 111h-140z" />
    <glyph glyph-name="uni024F" unicode="&#x24f;" horiz-adv-x="587" 
d="M564 247h-94q-50 -153 -104 -271q-42 -93 -88 -133.5t-124 -44.5q-22 -1 -50 2q-46 4 -84 23l27 121q49 -19 83 -19q38 0 61.5 18.5t42.5 62.5q-61 116 -110 241h-100v109h60q-34 93 -57 183h154q18 -79 52 -183h130q9 34 25 100l20 83h150q-37 -137 -51 -183h57v-109z
M243 220q5 -11 30 -79.5t33 -84.5q26 76 51 163q-92 0 -114 1z" />
    <glyph glyph-name="uni0259" unicode="&#x259;" horiz-adv-x="568" 
d="M37 294l333 23q-17 117 -137 117q-81 0 -145 -31l-27 109q76 39 187 39q132 0 201.5 -77t69.5 -208q0 -133 -69.5 -209t-179.5 -76q-102 0 -162.5 59.5t-68.5 172.5q0 9 -1 35t-1 46zM179 208q5 -119 94 -119q46 0 73.5 36t28.5 99z" />
    <glyph glyph-name="uni0292" unicode="&#x292;" horiz-adv-x="488" 
d="M108 137v76l4 22q69 78 140 177h-242v127h434v-96q-66 -94 -160 -205q82 -19 132 -70t50 -138q0 -114 -72.5 -173t-202.5 -59q-57 0 -114.5 13t-93.5 32l35 123q83 -37 167 -37q65 0 99 27t34 78q0 103 -152 103h-58z" />
    <glyph glyph-name="uni02BB" unicode="&#x2bb;" horiz-adv-x="270" 
d="M137 831l61 -30q-39 -68 -40 -109q29 -5 45.5 -21.5t15.5 -41.5q0 -56 -63 -70q-50 -9 -78 17q-26 31 -27 61q-3 86 86 194z" />
    <glyph glyph-name="apostrophe" unicode="&#x2bc;" horiz-adv-x="318" 
d="M105 793h127q10 -22 16 -32q-2 -66 -20 -117.5t-56 -110.5l-105 33q45 94 45 169q0 30 -7 58z" />
    <glyph glyph-name="circumflex" unicode="&#x2c6;" horiz-adv-x="388" 
d="M194 646l-104 -88l-66 75l170 163l168 -163l-63 -75z" />
    <glyph glyph-name="caron" unicode="&#x2c7;" horiz-adv-x="383" 
d="M90 801l105 -87l104 87l66 -75l-170 -162l-168 162z" />
    <glyph glyph-name="uni02C8" unicode="&#x2c8;" horiz-adv-x="226" 
d="M50 597v252h126v-252h-126z" />
    <glyph glyph-name="uni02C9" unicode="&#x2c9;" horiz-adv-x="376" 
d="M353 618h-330v115h330v-115z" />
    <glyph glyph-name="breve" unicode="&#x2d8;" horiz-adv-x="395" 
d="M198 588q-78 0 -120.5 48t-41.5 137h108q3 -35 14.5 -54.5t39.5 -19.5q49 0 53 74h108q0 -90 -41.5 -137.5t-119.5 -47.5z" />
    <glyph glyph-name="dotaccent" unicode="&#x2d9;" horiz-adv-x="303" 
d="M152 593q-35 0 -59 23t-24 60t24 59.5t59 22.5t58.5 -22.5t23.5 -59.5t-23.5 -60t-58.5 -23z" />
    <glyph glyph-name="ring" unicode="&#x2da;" horiz-adv-x="347" 
d="M298 689q0 -57 -36 -90.5t-89 -33.5q-52 0 -88.5 33.5t-36.5 90.5q0 56 36.5 89.5t88.5 33.5q53 0 89 -33t36 -90zM207 689q0 16 -10 25.5t-24 9.5q-15 0 -24.5 -9.5t-9.5 -25.5q0 -17 9.5 -26.5t24.5 -9.5q14 0 24 9.5t10 26.5z" />
    <glyph glyph-name="ogonek" unicode="&#x2db;" horiz-adv-x="340" 
d="M176 -222q-129 0 -129 98q0 78 107 153h109l-16 -49q-2 -1 -5.5 -3t-5.5 -3q2 0 4 2q-1 -1 -9.5 -9t-14.5 -14.5l-14 -15t-12.5 -16t-5.5 -12.5q2 -16 25 -14q22 2 52 12l13 -110q-44 -19 -98 -19z" />
    <glyph glyph-name="tilde" unicode="&#x2dc;" horiz-adv-x="374" 
d="M254 588q-28 0 -70.5 18.5t-56.5 18.5q-22 0 -47 -52l-85 53q17 45 50 80.5t79 35.5q29 0 70.5 -18.5t55.5 -18.5q21 0 48 52l86 -55q-64 -114 -130 -114z" />
    <glyph glyph-name="hungarumlaut" unicode="&#x2dd;" horiz-adv-x="410" 
d="M209 617l139 196l97 -81l-157 -176zM247 735l-152 -179l-79 61l139 196z" />
    <glyph glyph-name="gravecomb" unicode="&#x300;" horiz-adv-x="0" 
d="M-241 576h-102l-159 202h178z" />
    <glyph glyph-name="acutecomb" unicode="&#x301;" horiz-adv-x="0" 
d="M-256 576h-101l82 202h178z" />
    <glyph glyph-name="uni0302" unicode="&#x302;" horiz-adv-x="0" 
d="M-310 668l-105 -87l-65 75l170 162l168 -162l-63 -75z" />
    <glyph glyph-name="tildecomb" unicode="&#x303;" horiz-adv-x="0" 
d="M-260 600q-28 0 -70 18.5t-56 18.5q-23 0 -48 -52l-85 53q17 44 50 79.5t79 35.5q29 0 70.5 -18t55.5 -18q21 0 48 51l86 -54q-64 -114 -130 -114z" />
    <glyph glyph-name="uni0304" unicode="&#x304;" horiz-adv-x="0" 
d="M-146 618h-331v115h331v-115z" />
    <glyph glyph-name="uni0306" unicode="&#x306;" horiz-adv-x="0" 
d="M-311 613q-77 0 -120 48.5t-41 136.5h108q4 -74 53 -74t53 74h108q0 -90 -41.5 -137.5t-119.5 -47.5z" />
    <glyph glyph-name="uni0307" unicode="&#x307;" horiz-adv-x="0" 
d="M-316 618q-35 0 -58.5 22.5t-23.5 59.5t23.5 60t58.5 23t58.5 -23t23.5 -60t-23.5 -59.5t-58.5 -22.5z" />
    <glyph glyph-name="uni0308" unicode="&#x308;" horiz-adv-x="0" 
d="M-332 667q0 -36 -23 -58t-57 -22t-57 22t-23 58q0 37 23 59t57 22t57 -22t23 -59zM-98 667q0 -36 -23 -58t-57 -22t-57 22t-23 58q0 37 23 59t57 22t57 -22t23 -59z" />
    <glyph glyph-name="uni030A" unicode="&#x30a;" horiz-adv-x="0" 
d="M-185 711q0 -57 -36 -90t-89 -33q-52 0 -88 33t-36 90t36 90t88 33q53 0 89 -33t36 -90zM-261 711q0 22 -14.5 36.5t-34.5 14.5t-34 -14t-14 -37t14 -37t34 -14t34.5 14t14.5 37z" />
    <glyph glyph-name="uni030B" unicode="&#x30b;" horiz-adv-x="0" 
d="M-306 639l139 196l97 -81l-157 -176zM-268 757l-152 -179l-79 61l139 196z" />
    <glyph glyph-name="uni030C" unicode="&#x30c;" horiz-adv-x="0" 
d="M-409 829l105 -87l104 87l66 -75l-170 -162l-168 162z" />
    <glyph glyph-name="uni030D" unicode="&#x30d;" horiz-adv-x="0" 
d="M-367 597v252h126v-252h-126z" />
    <glyph glyph-name="uni030E" unicode="&#x30e;" horiz-adv-x="0" 
d="M-419 597v252h126v-252h-126zM-342 597v252h126v-252h-126z" />
    <glyph glyph-name="uni030F" unicode="&#x30f;" horiz-adv-x="0" 
d="M-467 835l139 -195l-78 -61l-158 176zM-214 579l-152 179l93 77l138 -195z" />
    <glyph glyph-name="uni0310" unicode="&#x310;" horiz-adv-x="0" 
d="M-314 660q78 0 120.5 48t40.5 137h-54q-2 -36 -28.5 -65t-78.5 -29t-77 28.5t-28 65.5h-56q-2 -89 40.5 -137t120.5 -48zM-313 795q-35 0 -58.5 23t-23.5 60t23.5 59.5t58.5 22.5t58.5 -22.5t23.5 -59.5t-23.5 -60t-58.5 -23z" />
    <glyph glyph-name="uni0311" unicode="&#x311;" horiz-adv-x="0" 
d="M-323 770q78 0 120.5 -48t41.5 -137h-55q-2 36 -28.5 65t-78.5 29t-77 -29t-27 -65h-57q-1 89 41.5 137t119.5 48z" />
    <glyph glyph-name="uni0312" unicode="&#x312;" horiz-adv-x="0" 
d="M-322 848l62 -31q-38 -66 -41 -108q29 -5 46 -21.5t16 -41.5q-2 -57 -63 -70q-50 -9 -78 17q-26 28 -27 60q-3 85 85 195z" />
    <glyph glyph-name="uni0313" unicode="&#x313;" horiz-adv-x="0" 
d="M-342 481l-41 37q46 42 58 83q-17 7 -27 21t-10 30q0 29 17.5 47.5t46.5 18.5q33 0 50 -25t15 -61q-6 -78 -109 -151z" />
    <glyph glyph-name="uni0314" unicode="&#x314;" horiz-adv-x="0" 
d="M-231 518l-41 -37q-103 73 -109 151q-2 36 15 61t50 25q29 0 46.5 -18.5t17.5 -47.5q0 -16 -10 -30t-27 -21q11 -39 58 -83z" />
    <glyph glyph-name="uni0320" unicode="&#x320;" horiz-adv-x="0" 
d="M-546 -173v125h496v-125h-496z" />
    <glyph glyph-name="dotbelowcomb" unicode="&#x323;" horiz-adv-x="0" 
d="M-298 -216q-34 0 -58 23t-24 60q0 36 24 59t58 23q35 0 59 -22.5t24 -59.5t-24 -60t-59 -23z" />
    <glyph glyph-name="uni0324" unicode="&#x324;" horiz-adv-x="0" 
d="M-332 -124q0 -37 -23 -59t-57 -22t-57 22t-23 59q0 36 23 58t57 22t57 -22t23 -58zM-98 -124q0 -37 -23 -59t-57 -22t-57 22t-23 59q0 36 23 58t57 22t57 -22t23 -58z" />
    <glyph glyph-name="uni0325" unicode="&#x325;" horiz-adv-x="0" 
d="M-185 -183q0 -57 -36 -90t-89 -33q-52 0 -88 33t-36 90t36 90t88 33q53 0 89 -33t36 -90zM-261 -183q0 22 -14.5 36.5t-34.5 14.5t-34 -14t-14 -37t14 -37t34 -14t34.5 14t14.5 37z" />
    <glyph glyph-name="uni0331" unicode="&#x331;" horiz-adv-x="0" 
d="M-131 -163h-331v115h331v-115z" />
    <glyph glyph-name="uni0342" unicode="&#x342;" horiz-adv-x="374" 
d="M254 588q-28 0 -70.5 18.5t-56.5 18.5q-22 0 -47 -52l-85 53q17 45 50 80.5t79 35.5q29 0 70.5 -18.5t55.5 -18.5q21 0 48 52l86 -55q-64 -114 -130 -114z" />
    <glyph glyph-name="uni0352" unicode="&#x352;" horiz-adv-x="0" 
d="M-314 960q78 0 120.5 -48t40.5 -137h-54q-2 36 -28.5 65t-78.5 29t-77 -28.5t-28 -65.5h-56q-2 89 40.5 137t120.5 48zM-313 825q-35 0 -58.5 -23t-23.5 -60t23.5 -59.5t58.5 -22.5t58.5 22.5t23.5 59.5t-23.5 60t-58.5 23z" />
    <glyph glyph-name="tonos" unicode="&#x384;" horiz-adv-x="321" 
d="M134 597h-102l83 202h177z" />
    <glyph glyph-name="dieresistonos" unicode="&#x385;" horiz-adv-x="642" 
d="M226 646l140 205l107 -79l-160 -190zM210 658q0 -36 -23 -58t-57 -22t-57 22t-23 58q0 37 23 59t57 22t57 -22t23 -59zM595 658q0 -36 -23.5 -58t-57.5 -22q-33 0 -56.5 22t-23.5 58t23.5 58.5t56.5 22.5q34 0 57.5 -22.5t23.5 -58.5z" />
    <glyph glyph-name="Alphatonos" unicode="&#x386;" horiz-adv-x="712" 
d="M694 -8h-163q-42 138 -50 160h-242q-40 -118 -53 -160h-147q154 450 257 706h140q93 -231 258 -706zM450 261l-66 203q-7 20 -14 45t-9 29q-5 -8 -16 -50q-6 -21 -75 -227h180zM118 538h-102l83 202h177z" />
    <glyph glyph-name="anoteleia" unicode="&#x387;" horiz-adv-x="266" 
d="M230 322q0 -40 -26 -64.5t-64 -24.5q-37 0 -63 24.5t-26 63.5q0 40 26 65t63 25q38 0 64 -25t26 -64z" />
    <glyph glyph-name="Epsilontonos" unicode="&#x388;" horiz-adv-x="755" 
d="M728 -8h-450v708h432v-123h-276v-158h243v-121h-243v-184h294v-122zM114 545h-102l83 202h177z" />
    <glyph glyph-name="Etatonos" unicode="&#x389;" horiz-adv-x="883" 
d="M683 419v281h156v-708h-156v304h-247v-304h-156v708h156v-281h247zM123 538h-102l83 202h177z" />
    <glyph glyph-name="Iotatonos" unicode="&#x38a;" horiz-adv-x="496" 
d="M290 -8v708h156v-708h-156zM120 538h-102l83 202h177z" />
    <glyph glyph-name="Omicrontonos" unicode="&#x38c;" horiz-adv-x="883" 
d="M835 346q0 -171 -90.5 -269.5t-238.5 -98.5q-147 0 -238 99t-91 269t91.5 269t237.5 99q147 0 238 -99t91 -269zM675 349q0 108 -45 174t-124 66t-124 -66t-45 -174q0 -109 44.5 -175t124.5 -66t124.5 66t44.5 175zM117 538h-102l83 202h177z" />
    <glyph glyph-name="Upsilontonos" unicode="&#x38e;" horiz-adv-x="886" 
d="M629 -8h-155v281q-113 191 -231 427h172q69 -159 141 -285q88 160 142 285h161q-110 -221 -230 -425v-283zM119 555h-102l83 202h177z" />
    <glyph glyph-name="Omegatonos" unicode="&#x38f;" horiz-adv-x="842" 
d="M451 725q151 0 248 -92.5t97 -258.5q0 -146 -100 -259h116v-132h-315v109q144 117 144 280q0 102 -51.5 159.5t-138.5 57.5t-138 -57.5t-51 -159.5q0 -165 144 -280v-109h-315v132h115q-99 112 -99 259q0 166 97 258.5t247 92.5zM25 732l134 -36l-84 -235l-108 26z" />
    <glyph glyph-name="iotadieresistonos" unicode="&#x390;" horiz-adv-x="284" 
d="M280 93l-20 -120q-115 1 -158.5 39t-43.5 133v28v366h145v-384q0 -32 16 -44.5t61 -17.5zM59 665l140 205l107 -79l-160 -190zM43 677q0 -36 -23 -58t-57 -22t-57 22t-23 58q0 37 23 59t57 22t57 -22t23 -59zM428 677q0 -36 -23.5 -58t-57.5 -22q-33 0 -56.5 22t-23.5 58
t23.5 58.5t56.5 22.5q34 0 57.5 -22.5t23.5 -58.5z" />
    <glyph glyph-name="Alpha" unicode="&#x391;" horiz-adv-x="686" 
d="M665 -8h-163q-42 138 -50 160h-242q-40 -118 -53 -160h-147q154 450 257 706h140q93 -231 258 -706zM421 261l-66 203q-7 20 -14 45t-9 29q-5 -8 -16 -50q-6 -21 -75 -227h180z" />
    <glyph glyph-name="Beta" unicode="&#x392;" horiz-adv-x="654" 
d="M285 -16q-123 0 -217 27v670q92 26 213 26q140 0 219 -48t79 -148q0 -50 -25.5 -86.5t-65.5 -54.5q119 -44 119 -172q0 -214 -322 -214zM300 306q-13 0 -39.5 -0.5t-40.5 -0.5v-201q30 -4 68 -4q77 0 119.5 23t42.5 81q0 55 -37 78.5t-113 23.5zM220 590v-178h47
q82 0 121 17.5t39 74.5q0 90 -138 90q-44 0 -69 -4z" />
    <glyph glyph-name="Gamma" unicode="&#x393;" horiz-adv-x="544" 
d="M68 710h463v-134h-313v-593h-150v727z" />
    <glyph glyph-name="uni0394" unicode="&#x394;" horiz-adv-x="665" 
d="M183 116h295q-89 267 -148 397q-67 -163 -147 -397zM678 -17h-668l9 94q111 335 253 633h121q151 -322 285 -727z" />
    <glyph glyph-name="Epsilon" unicode="&#x395;" horiz-adv-x="584" 
d="M518 -8h-450v708h432v-123h-276v-158h243v-121h-243v-184h294v-122z" />
    <glyph glyph-name="Zeta" unicode="&#x396;" horiz-adv-x="588" 
d="M525 700l-9 -96l-80 -124.5l-122 -192t-100 -173.5h318v-122h-511l10 88q49 105 135 246.5t162 250.5h-286v123h483z" />
    <glyph glyph-name="Eta" unicode="&#x397;" horiz-adv-x="716" 
d="M471 419v281h156v-708h-156v304h-247v-304h-156v708h156v-281h247z" />
    <glyph glyph-name="Theta" unicode="&#x398;" horiz-adv-x="740" 
d="M488 296h-235v133h235v-133zM700 346q0 -171 -90.5 -269.5t-238.5 -98.5q-147 0 -238 99t-91 269t91.5 269t237.5 99q147 0 238 -99t91 -269zM540 349q0 108 -45 174t-124 66t-124 -66t-45 -174q0 -109 44.5 -175t124.5 -66t124.5 66t44.5 175z" />
    <glyph glyph-name="Iota" unicode="&#x399;" horiz-adv-x="286" 
d="M68 -8v708h156v-708h-156z" />
    <glyph glyph-name="Kappa" unicode="&#x39a;" horiz-adv-x="647" 
d="M648 -8h-132q-32 2 -47 4q-48 83 -113.5 166.5t-131.5 143.5v-314h-156v708h156v-287q105 104 233 287h175q-108 -140 -276 -329q76 -72 157.5 -177t134.5 -202z" />
    <glyph glyph-name="Lambda" unicode="&#x39b;" horiz-adv-x="679" 
d="M692 -17h-165q-121 361 -191 528q-63 -153 -190 -528h-159q152 437 286 727h122l33 -50q123 -268 264 -677z" />
    <glyph glyph-name="Mu" unicode="&#x39c;" horiz-adv-x="883" 
d="M473 60h-97l-101 250.5t-62 139.5q-9 -70 -24 -458h-142q26 436 57 708h102q14 -1 42 -5q31 -63 182 -421l78.5 183t109.5 243h138q27 -237 57 -708h-152q-13 340 -24 458q-54 -109 -164 -390z" />
    <glyph glyph-name="Nu" unicode="&#x39d;" horiz-adv-x="735" 
d="M640 -8h-90l-35 4q-59 103 -161.5 259t-142.5 199q0 -24 0.5 -81.5t0.5 -88.5v-292h-144v708h125q129 -151 255 -344q12 -18 29.5 -47t19.5 -32q0 27 -1 87t-1 93v243h145v-708z" />
    <glyph glyph-name="Xi" unicode="&#x39e;" horiz-adv-x="555" 
d="M484 296h-414v133h414v-133zM535 -17h-515v134h515v-134zM27 710h501v-134h-501v134z" />
    <glyph glyph-name="Omicron" unicode="&#x39f;" horiz-adv-x="783" 
d="M700 346q0 -171 -90.5 -269.5t-238.5 -98.5q-147 0 -238 99t-91 269t91.5 269t237.5 99q147 0 238 -99t91 -269zM540 349q0 108 -45 174t-124 66t-124 -66t-45 -174q0 -109 44.5 -175t124.5 -66t124.5 66t44.5 175z" />
    <glyph glyph-name="Pi" unicode="&#x3a0;" horiz-adv-x="710" 
d="M68 710h575v-727h-151v593h-274v-593h-150v727z" />
    <glyph glyph-name="Rho" unicode="&#x3a1;" horiz-adv-x="621" 
d="M281 707q156 0 232.5 -60t76.5 -173q0 -235 -317 -235h-51v-247h-154v689q92 26 213 26zM285 591q-18 0 -63 -3v-232h48q84 0 124.5 25.5t40.5 93.5q0 116 -150 116z" />
    <glyph glyph-name="Sigma" unicode="&#x3a3;" horiz-adv-x="576" 
d="M415 355q-14 -17 -95 -108.5t-109 -130.5h341v-133h-535v109q42 57 150 179q1 2 9.5 13t13.5 16l48 57q-33 42 -108 130.5t-99 121.5v101h521v-133h-313q21 -28 84 -106z" />
    <glyph glyph-name="Tau" unicode="&#x3a4;" horiz-adv-x="585" 
d="M14 700h526v-124h-186v-584h-155v584h-185v124z" />
    <glyph glyph-name="Upsilon" unicode="&#x3a5;" horiz-adv-x="621" 
d="M374 -8h-155v281q-113 191 -231 427h172q69 -159 141 -285q88 160 142 285h161q-110 -221 -230 -425v-283z" />
    <glyph glyph-name="Phi" unicode="&#x3a6;" horiz-adv-x="866" 
d="M507 541v-340q77 7 123.5 50.5t46.5 118.5t-46 119t-124 52zM359 -17v85q-143 9 -233 90.5t-90 210.5q0 127 90.5 210t232.5 94v82h148v-82q142 -11 232 -93.5t90 -210.5t-90.5 -210t-231.5 -91v-85h-148zM359 201v340q-78 -8 -124.5 -52t-46.5 -119t46.5 -118.5
t124.5 -50.5z" />
    <glyph glyph-name="Chi" unicode="&#x3a7;" horiz-adv-x="646" 
d="M314 482l133 218h166l-212 -333q136 -204 223 -375h-137q-7 1 -21 2.5t-21 1.5q-42 90 -138 242q-104 -163 -142 -246h-167q73 142 222 367l-212 341h176z" />
    <glyph glyph-name="Psi" unicode="&#x3a8;" horiz-adv-x="826" 
d="M486 -17h-146v175q-148 9 -219 88.5t-71 211.5v252h147v-239q0 -88 35 -130.5t107 -49.5v419h148v-419q142 16 142 180v239h148v-252q0 -132 -71.5 -211.5t-219.5 -88.5v-175z" />
    <glyph glyph-name="uni03A9" unicode="&#x3a9;" horiz-adv-x="782" 
d="M391 725q151 0 248 -92.5t97 -258.5q0 -146 -100 -259h115v-132h-315v109q145 116 145 280q0 102 -51.5 159.5t-138.5 57.5t-138 -57.5t-51 -159.5q0 -164 143 -280v-109h-315v132h116q-100 113 -100 259q0 166 97 258.5t248 92.5z" />
    <glyph glyph-name="Iotadieresis" unicode="&#x3aa;" horiz-adv-x="286" 
d="M68 -8v708h156v-708h-156zM106 835q0 -36 -23 -58t-57 -22t-57 22t-23 58q0 37 23 59t57 22t57 -22t23 -59zM340 835q0 -36 -23 -58t-57 -22t-57 22t-23 58q0 37 23 59t57 22t57 -22t23 -59z" />
    <glyph glyph-name="Upsilondieresis" unicode="&#x3ab;" horiz-adv-x="621" 
d="M374 -8h-155v281q-113 191 -231 427h172q69 -159 141 -285q88 160 142 285h161q-110 -221 -230 -425v-283zM273 835q0 -36 -23 -58t-57 -22t-57 22t-23 58q0 37 23 59t57 22t57 -22t23 -59zM507 835q0 -36 -23 -58t-57 -22t-57 22t-23 58q0 37 23 59t57 22t57 -22t23 -59
z" />
    <glyph glyph-name="alphatonos" unicode="&#x3ac;" horiz-adv-x="609" 
d="M454 26q-66 -54 -168 -54q-121 0 -187 78t-66 210q0 133 76 211.5t206 78.5q109 0 213 -34v-349q0 -38 17 -50.5t64 -18.5l-19 -119q-44 -3 -83.5 12.5t-52.5 34.5zM383 181v230q-32 8 -65 8q-65 0 -101 -42.5t-36 -118.5q0 -72 28.5 -114t88.5 -42q49 0 89 26
q-4 32 -4 53zM349 628h-102l83 202h177z" />
    <glyph glyph-name="epsilontonos" unicode="&#x3ad;" horiz-adv-x="508" 
d="M283 97q95 0 178 37l36 -119q-32 -16 -92.5 -30.5t-131.5 -14.5q-49 0 -90.5 9t-77.5 28t-56 54.5t-20 84.5q0 89 78 130q-49 33 -57 87q-3 23 0 46q11 70 73 106.5t163 36.5q49 0 101 -11.5t80 -24.5l-28 -120q-64 27 -132 30q-20 2 -38 0q-72 -7 -72 -48q0 -48 105 -48
h79v-119h-82q-119 0 -119 -59q0 -55 103 -55zM304 628h-102l83 202h177z" />
    <glyph glyph-name="etatonos" unicode="&#x3ae;" 
d="M60 -17v521q52 46 230 46q129 0 182 -66.5t53 -190.5v-495h-145v476q0 80 -22 112.5t-78 32.5q-46 0 -74 -7v-429h-146zM324 628h-102l83 202h177z" />
    <glyph glyph-name="iotatonos" unicode="&#x3af;" horiz-adv-x="284" 
d="M280 93l-20 -120q-115 1 -158.5 39t-43.5 133v28v366h145v-384q0 -32 16 -44.5t61 -17.5zM178 628h-102l83 202h177z" />
    <glyph glyph-name="upsilondieresistonos" unicode="&#x3b0;" horiz-adv-x="582" 
d="M291 -29q-122 0 -179 63.5t-57 189.5v315h145v-303q0 -71 22 -102.5t69 -31.5t69 31t22 103v303h145v-315q0 -126 -57 -189.5t-179 -63.5zM190 646l140 205l107 -79l-160 -190zM174 658q0 -36 -23 -58t-57 -22t-57 22t-23 58q0 37 23 59t57 22t57 -22t23 -59zM559 658
q0 -36 -23.5 -58t-57.5 -22q-33 0 -56.5 22t-23.5 58t23.5 58.5t56.5 22.5q34 0 57.5 -22.5t23.5 -58.5z" />
    <glyph glyph-name="alpha" unicode="&#x3b1;" horiz-adv-x="609" 
d="M454 26q-66 -54 -168 -54q-121 0 -187 78t-66 210q0 133 76 211.5t206 78.5q109 0 213 -34v-349q0 -38 17 -50.5t64 -18.5l-19 -119q-44 -3 -83.5 12.5t-52.5 34.5zM383 181v230q-32 8 -65 8q-65 0 -101 -42.5t-36 -118.5q0 -72 28.5 -114t88.5 -42q49 0 89 26
q-4 32 -4 53z" />
    <glyph glyph-name="beta" unicode="&#x3b2;" horiz-adv-x="620" 
d="M206 -5v-197h-146v743q0 116 61.5 184t183.5 68q108 0 171 -55.5t63 -150.5q0 -105 -84 -154q134 -57 134 -208q0 -124 -71 -187.5t-199 -63.5q-50 0 -113 21zM206 539v-408q45 -26 107 -26q58 0 92.5 31t34.5 89q0 125 -150 125h-19v125h17q47 0 76 26t29 73
q0 39 -22.5 63t-64.5 24q-100 0 -100 -122z" />
    <glyph glyph-name="gamma" unicode="&#x3b3;" horiz-adv-x="520" 
d="M251 174q38 75 72 180t49 185h148q-64 -295 -220 -549q14 -88 18 -123l9 -69h-131q-7 20 -21 54q-40 276 -185 687h155q63 -175 106 -365z" />
    <glyph glyph-name="delta" unicode="&#x3b4;" horiz-adv-x="596" 
d="M300 421q-55 -20 -86.5 -65.5t-31.5 -104.5q0 -67 29.5 -108.5t86.5 -41.5q55 0 85.5 40.5t30.5 106.5q0 44 -19 79.5t-40 54t-55 39.5zM190 494q-59 51 -67 111q-5 29 1 56q10 61 64.5 96.5t139.5 35.5q81 0 186 -42l-35 -122q-67 32 -114 37q-27 3 -58 -1
q-42 -7 -42 -37q0 -20 21 -39t75 -51q49 -30 76.5 -51t61 -56.5t49 -81.5t15.5 -104q0 -118 -69.5 -196.5t-195.5 -78.5q-124 0 -194.5 76t-70.5 200q0 83 42.5 147.5t114.5 100.5z" />
    <glyph glyph-name="epsilon" unicode="&#x3b5;" horiz-adv-x="508" 
d="M283 97q95 0 178 37l36 -119q-32 -16 -92.5 -30.5t-131.5 -14.5q-49 0 -90.5 9t-77.5 28t-56 54.5t-20 84.5q0 89 78 130q-49 33 -57 87q-3 23 0 46q11 70 73 106.5t163 36.5q49 0 101 -11.5t80 -24.5l-28 -120q-64 27 -132 30q-20 2 -38 0q-72 -7 -72 -48q0 -48 105 -48
h79v-119h-82q-119 0 -119 -59q0 -55 103 -55z" />
    <glyph glyph-name="zeta" unicode="&#x3b6;" horiz-adv-x="466" 
d="M494 -48q0 -75 -63 -161l-125 44q43 75 43 100q0 26 -21 38.5t-81 26.5q-110 27 -158 79.5t-48 158.5q0 190 237 421h-208v127h406v-110q-33 -30 -36 -33v1q-46 -43 -80 -79.5t-77.5 -91.5t-67.5 -114t-24 -114q0 -54 26 -80.5t96 -43.5q102 -27 141.5 -63t39.5 -106z
" />
    <glyph glyph-name="eta" unicode="&#x3b7;" 
d="M60 -17v521q52 46 230 46q129 0 182 -66.5t53 -190.5v-495h-145v476q0 80 -22 112.5t-78 32.5q-46 0 -74 -7v-429h-146z" />
    <glyph glyph-name="theta" unicode="&#x3b8;" horiz-adv-x="606" 
d="M303 793q129 0 198 -107t69 -304q0 -198 -69 -305.5t-198 -107.5t-198 107.5t-69 305.5q0 196 69 303.5t198 107.5zM303 100q111 0 119 221h-238q6 -221 119 -221zM303 662q-111 0 -119 -214h237q-8 214 -118 214z" />
    <glyph glyph-name="iota" unicode="&#x3b9;" horiz-adv-x="284" 
d="M280 93l-20 -120q-115 1 -158.5 39t-43.5 133v28v366h145v-384q0 -32 16 -44.5t61 -17.5z" />
    <glyph glyph-name="kappa" unicode="&#x3ba;" horiz-adv-x="549" 
d="M206 -17h-146v556h146v-189q123 129 173 189h177q-122 -144 -239 -256q64 -54 133.5 -138.5t112.5 -161.5h-167q-84 133 -190 215v-215z" />
    <glyph glyph-name="lambda" unicode="&#x3bb;" horiz-adv-x="523" 
d="M270 355q-79 -175 -128 -372h-150q85 305 211 542q-17 42 -28 60.5t-29 25.5q-18 32 -30.5 41.5t-38.5 8.5q-8 -1 -45 -12l-26 125q55 19 106 19q72 0 116.5 -35.5t77.5 -109.5q125 -288 228 -665h-141q-28 49 -70 195t-53 177z" />
    <glyph glyph-name="uni03BC" unicode="&#x3bc;" horiz-adv-x="586" 
d="M323 -18q-73 0 -115 31q3 -37 3 -112v-97h-149v730h150v-262q0 -45 2.5 -72.5t11.5 -53.5t28.5 -38t50.5 -12q41 0 76 8v430h149v-519q-94 -33 -207 -33z" />
    <glyph glyph-name="nu" unicode="&#x3bd;" horiz-adv-x="519" 
d="M264 164q19 37 52.5 155t55.5 215h149q-78 -274 -193 -542h-95q-7 1 -21.5 2.5t-20.5 1.5q-114 262 -191 538h158q55 -248 106 -370z" />
    <glyph glyph-name="xi" unicode="&#x3be;" horiz-adv-x="513" 
d="M315 121q101 -26 141 -62.5t40 -106.5q0 -75 -63 -161l-125 44q43 75 43 100q0 26 -21 38.5t-81 26.5q-110 26 -162 76t-52 144q0 129 129 197q-45 23 -68.5 68t-23.5 99q0 98 67.5 153.5t175.5 55.5q89 0 166 -31l-30 -124q-69 27 -126 27q-56 0 -82 -25t-26 -68
q0 -47 35 -71.5t95 -24.5h96v-128h-88q-26 0 -52 -5t-55 -16.5t-46.5 -37t-17.5 -61.5q0 -47 30 -68t101 -39z" />
    <glyph glyph-name="omicron" unicode="&#x3bf;" horiz-adv-x="596" 
d="M554 263q0 -127 -71 -205t-188 -78q-116 0 -187 78t-71 205q0 126 71.5 204.5t186.5 78.5q116 0 187.5 -78.5t71.5 -204.5zM403 264q0 77 -28.5 121t-79.5 44t-79 -44.5t-28 -120.5t28 -120t79 -44t79.5 44t28.5 120z" />
    <glyph glyph-name="pi" unicode="&#x3c0;" horiz-adv-x="583" 
d="M523 539v-556h-146v429h-171v-429h-146v556h463z" />
    <glyph glyph-name="rho" unicode="&#x3c1;" horiz-adv-x="601" 
d="M312 -28q-59 0 -109 24v-198h-145v494q0 119 64.5 188.5t181.5 69.5q130 0 197.5 -74.5t67.5 -214.5q0 -129 -68 -209t-189 -80zM203 282v-155q39 -25 91 -25q126 0 126 159q0 78 -26.5 118t-86.5 40q-104 0 -104 -137z" />
    <glyph glyph-name="sigma1" unicode="&#x3c2;" horiz-adv-x="478" 
d="M182 264q0 -77 37 -107q23 -19 108 -48l23 -8q65 -23 91.5 -57t26.5 -92q0 -72 -63 -161l-126 44q2 3 12 20t13 23l9 18.5t8 21.5t2 17q0 22 -16.5 35t-59.5 25q-114 30 -164 89.5t-50 176.5q0 130 74 210.5t200 80.5q89 0 162 -34l-35 -124q-65 27 -118 27
q-65 0 -99.5 -41t-34.5 -116z" />
    <glyph glyph-name="sigma" unicode="&#x3c3;" horiz-adv-x="620" 
d="M559 239q0 -122 -72 -195.5t-190 -73.5q-117 0 -190.5 76.5t-73.5 203.5q0 143 83 216t215 73h292v-127h-120q56 -81 56 -173zM411 243q0 108 -64 169h-19q-26 0 -49.5 -7t-46.5 -24t-36.5 -50.5t-13.5 -80.5q0 -69 31.5 -109t83.5 -40q54 0 84 38t30 104z" />
    <glyph glyph-name="tau" unicode="&#x3c4;" horiz-adv-x="459" 
d="M431 30l-9 -43q-48 -14 -101 -14q-108 0 -147.5 56.5t-39.5 171.5v211h-136v127h452v-127h-170v-217q0 -68 28 -80q29 -11 86 -4q16 -26 37 -81z" />
    <glyph glyph-name="upsilon" unicode="&#x3c5;" horiz-adv-x="582" 
d="M291 -29q-122 0 -179 63.5t-57 189.5v315h145v-303q0 -71 22 -102.5t69 -31.5t69 31t22 103v303h145v-315q0 -126 -57 -189.5t-179 -63.5z" />
    <glyph glyph-name="phi" unicode="&#x3c6;" horiz-adv-x="776" 
d="M388 552q164 0 260 -79.5t96 -210.5q0 -118 -76 -194.5t-209 -90.5v-179h-143v179q-132 14 -208 90.5t-76 194.5q0 131 96 210.5t260 79.5zM597 262q0 61 -36 103t-102 52v-310q68 11 103 51.5t35 103.5zM179 262q0 -133 137 -155v309q-66 -10 -101.5 -51t-35.5 -103z
" />
    <glyph glyph-name="chi" unicode="&#x3c7;" horiz-adv-x="530" 
d="M263 174q-30 -30 -110 -182h-154q76 138 180 282l-100 150l-33 50l-39 60h164l98 -157h1l101 157h152l-173 -254q116 -160 185 -288h-164q-43 85 -108 182z" />
    <glyph glyph-name="psi" unicode="&#x3c8;" horiz-adv-x="790" 
d="M466 -202h-143v177q-138 12 -203 88.5t-65 200.5v275h144v-264q0 -152 124 -166v430h143v-430q125 14 125 166v264h144v-275q0 -125 -65.5 -201t-203.5 -88v-177z" />
    <glyph glyph-name="omega" unicode="&#x3c9;" horiz-adv-x="839" 
d="M347 437h145v-141v-34.5t1 -33t3 -33.5t5.5 -28.5t9 -26t13.5 -18.5t19.5 -14t25.5 -4q85 0 85 151q0 123 -94 253l126 46q49 -54 82.5 -135t33.5 -169q0 -144 -60.5 -210t-166.5 -66t-156 83q-50 -83 -155 -83q-227 0 -227 276q0 88 33.5 169t82.5 135l126 -46
q-94 -130 -94 -253q0 -151 85 -151q27 0 44 15.5t23.5 49t8 57.5t1.5 70v141z" />
    <glyph glyph-name="iotadieresis" unicode="&#x3ca;" horiz-adv-x="284" 
d="M280 93l-20 -120q-115 1 -158.5 39t-43.5 133v28v366h145v-384q0 -32 16 -44.5t61 -17.5zM98 693q0 -37 -23 -59t-57 -22t-57 22t-23 59q0 36 23 58t57 22t57 -22t23 -58zM321 693q0 -36 -23.5 -58.5t-57.5 -22.5q-33 0 -56.5 22.5t-23.5 58.5t23.5 58t56.5 22
q34 0 57.5 -22t23.5 -58z" />
    <glyph glyph-name="upsilondieresis" unicode="&#x3cb;" horiz-adv-x="582" 
d="M291 -29q-122 0 -179 63.5t-57 189.5v315h145v-303q0 -71 22 -102.5t69 -31.5t69 31t22 103v303h145v-315q0 -126 -57 -189.5t-179 -63.5zM254 693q0 -37 -23 -59t-57 -22t-57 22t-23 59q0 36 23 58t57 22t57 -22t23 -58zM477 693q0 -36 -23.5 -58.5t-57.5 -22.5
q-33 0 -56.5 22.5t-23.5 58.5t23.5 58t56.5 22q34 0 57.5 -22t23.5 -58z" />
    <glyph glyph-name="omicrontonos" unicode="&#x3cc;" horiz-adv-x="596" 
d="M554 263q0 -127 -71 -205t-188 -78q-116 0 -187 78t-71 205q0 126 71.5 204.5t186.5 78.5q116 0 187.5 -78.5t71.5 -204.5zM403 264q0 77 -28.5 121t-79.5 44t-79 -44.5t-28 -120.5t28 -120t79 -44t79.5 44t28.5 120zM343 628h-102l83 202h177z" />
    <glyph glyph-name="upsilontonos" unicode="&#x3cd;" horiz-adv-x="582" 
d="M291 -29q-122 0 -179 63.5t-57 189.5v315h145v-303q0 -71 22 -102.5t69 -31.5t69 31t22 103v303h145v-315q0 -126 -57 -189.5t-179 -63.5zM335 628h-102l83 202h177z" />
    <glyph glyph-name="omegatonos" unicode="&#x3ce;" horiz-adv-x="839" 
d="M347 437h145v-141v-34.5t1 -33t3 -33.5t5.5 -28.5t9 -26t13.5 -18.5t19.5 -14t25.5 -4q85 0 85 151q0 123 -94 253l126 46q49 -54 82.5 -135t33.5 -169q0 -144 -60.5 -210t-166.5 -66t-156 83q-50 -83 -155 -83q-227 0 -227 276q0 88 33.5 169t82.5 135l126 -46
q-94 -130 -94 -253q0 -151 85 -151q27 0 44 15.5t23.5 49t8 57.5t1.5 70v141zM469 628h-102l83 202h177z" />
    <glyph glyph-name="uni0400" unicode="&#x400;" horiz-adv-x="584" 
d="M489 -8h-423v706h411v-118h-257v-165h227v-117h-227v-188h269v-118zM422 744h-102l-159 202h178z" />
    <glyph glyph-name="uni0401" unicode="&#x401;" horiz-adv-x="584" 
d="M489 -8h-423v706h411v-118h-257v-165h227v-117h-227v-188h269v-118zM254 835q0 -36 -23 -58t-57 -22t-57 22t-23 58q0 37 23 59t57 22t57 -22t23 -59zM488 835q0 -36 -23 -58t-57 -22t-57 22t-23 58q0 37 23 59t57 22t57 -22t23 -59z" />
    <glyph glyph-name="uni0403" unicode="&#x403;" horiz-adv-x="544" 
d="M328 1008l98 -94l-193 -161l-76 73zM215 579v-596h-149v725h447v-129h-298z" />
    <glyph glyph-name="uni0404" unicode="&#x404;" horiz-adv-x="607" 
d="M446 295h-233q8 -73 41 -121t91 -61q36 -5 81 5q47 2 89 25l42 -114q-80 -49 -195 -49q-144 0 -228 99t-84 266q0 164 84.5 265.5t225.5 101.5q111 0 194 -49l-39 -111q-49 29 -115 33q-78 5 -126 -41.5t-59 -128.5h231v-120z" />
    <glyph glyph-name="uni0405" unicode="&#x405;" horiz-adv-x="553" 
d="M228 107q114 0 114 77q0 15 -3.5 27t-15 23.5t-19.5 18t-31.5 17.5t-34.5 15.5l-44 17.5q-143 65 -155 175q-3 27 0 56q10 84 74.5 132t168.5 48q114 0 198 -50l-43 -115q-68 41 -143 41q-103 0 -103 -71q0 -45 54 -74q20 -11 85 -38q92 -41 133 -88t41 -129
q0 -99 -69.5 -155.5t-193.5 -56.5q-135 0 -220 52l41 123q74 -46 166 -46z" />
    <glyph glyph-name="uni0406" unicode="&#x406;" horiz-adv-x="286" 
d="M221 -8h-154v706h154v-706z" />
    <glyph glyph-name="uni0407" unicode="&#x407;" horiz-adv-x="286" 
d="M221 -8h-154v706h154v-706zM106 835q0 -36 -23 -58t-57 -22t-57 22t-23 58q0 37 23 59t57 22t57 -22t23 -59zM340 835q0 -36 -23 -58t-57 -22t-57 22t-23 58q0 37 23 59t57 22t57 -22t23 -59z" />
    <glyph glyph-name="uni0408" unicode="&#x408;" horiz-adv-x="511" 
d="M336 135q0 -228 -210 -251q-74 -6 -151 24l13.5 55l14.5 60q66 -21 110 8q70 41 70 161v21v485h153v-563z" />
    <glyph glyph-name="uni040A" unicode="&#x40a;" horiz-adv-x="1000" 
d="M434 16v281h-230v-305h-154v706h154v-283h230v283h150v-250q24 4 59 4q307 -3 307 -238q0 -114 -78.5 -172.5t-224.5 -58.5q-120 0 -213 33zM795 216q0 123 -145 125q-41 0 -66 -4v-232q32 -8 65 -8q146 0 146 119z" />
    <glyph glyph-name="uni040C" unicode="&#x40c;" horiz-adv-x="647" 
d="M400 979l98 -94l-193 -161l-76 72zM620 -8h-131q-32 2 -46 4q-100 172 -222 314v-318h-154v706h154v-287q74 81 215 287h171l-259 -327q152 -173 272 -379z" />
    <glyph glyph-name="uni040D" unicode="&#x40d;" horiz-adv-x="735" 
d="M193 -17h-125v727h149v-439q67 106 161.5 231.5t170.5 207.5h119v-727h-150v482q-76 -92 -170 -232t-155 -250zM219 881q28 36 115 60l138 -166l-79 -45z" />
    <glyph glyph-name="uni040E" unicode="&#x40e;" horiz-adv-x="608" 
d="M316 751q-67 0 -115.5 44.5t-52.5 123.5l107 23q13 -77 61 -77q29 0 42.5 20t19.5 57l107 -23q-4 -79 -53 -123.5t-116 -44.5zM33 -5q3 21 11 63l12 63q59 -20 95 -17q66 3 97 69l-36 60q-105 193 -223 475h164q56 -146 127 -301q40 -90 40 -91q58 159 128 392h158
q-76 -230 -192 -510q-51 -116 -108.5 -168.5t-140.5 -55.5q-56 -3 -132 21z" />
    <glyph glyph-name="uni0410" unicode="&#x410;" horiz-adv-x="681" 
d="M668 0h-158l-55 160h-243l-52 -160h-148q152 448 257 707h141q98 -246 258 -707zM424 269l-67 204l-9 31l-8 27.5t-5 14.5q-5 -10 -9 -27q-14 -46 -43 -132.5l-39 -117.5h180z" />
    <glyph glyph-name="uni0411" unicode="&#x411;" horiz-adv-x="591" 
d="M36 720h466v-129h-322v-127q30 3 56 3q322 0 322 -241q0 -120 -81.5 -179t-233.5 -59q-110 0 -207 29v703zM407 224q0 115 -175 115q-34 0 -52 -2v-213q32 -7 67 -7q160 0 160 107z" />
    <glyph glyph-name="uni0412" unicode="&#x412;" horiz-adv-x="588" 
d="M559 200q0 -212 -305 -212q-127 0 -217 30v663q90 30 210 30q135 0 210 -48.5t75 -144.5q0 -53 -28.5 -89.5t-71.5 -55.5q56 -20 91.5 -64t35.5 -109zM383 510q0 93 -128 93h-5h-8q-38 -2 -57 -6v-183h49q77 0 113 21.5t36 74.5zM405 204q0 61 -41 85.5t-129 24.5
q-9 0 -25 -0.5t-25 -0.5v-207q32 -7 70 -7q150 0 150 105z" />
    <glyph glyph-name="uni0413" unicode="&#x413;" horiz-adv-x="474" 
d="M190 588v-588h-153v707h405v-119h-252z" />
    <glyph glyph-name="uni0414" unicode="&#x414;" horiz-adv-x="793" 
d="M634 -8h-474v-161h-140v273h101l167 594h231l144 -594h110v-274h-139v162zM381 544l-115 -440h246l-105 440q-7 25 -7 38h-11q-2 -14 -8 -38z" />
    <glyph glyph-name="uni0415" unicode="&#x415;" horiz-adv-x="584" 
d="M489 -8h-423v706h411v-118h-257v-165h227v-117h-227v-188h269v-118z" />
    <glyph glyph-name="uni0416" unicode="&#x416;" horiz-adv-x="923" 
d="M173 -8h-171q45 93 120.5 201t142.5 175q-133 163 -252 330h170q75 -113 209 -290v290h152v-289q152 200 210 289h170l-252 -330q144 -144 262 -376h-171q-107 182 -219 319v-319h-152v318q-115 -144 -219 -318z" />
    <glyph glyph-name="uni0417" unicode="&#x417;" horiz-adv-x="586" 
d="M520 198q0 -107 -76.5 -163t-207.5 -56q-130 0 -224 50l43 111q83 -39 167 -39q66 0 104.5 29.5t31.5 83.5q-6 94 -166 94h-64v108h58q68 0 110.5 24t42.5 72q0 39 -27.5 60t-76.5 21q-91 0 -156 -38l-43 106q87 50 211 50q111 0 177 -47.5t66 -133.5q0 -54 -30.5 -94.5
t-78.5 -58.5q62 -20 100.5 -64t38.5 -115z" />
    <glyph glyph-name="uni0418" unicode="&#x418;" horiz-adv-x="682" 
d="M616 -8h-152v424l2 70q-167 -288 -265 -494h-150v706h153v-410l-3 -74q104 209 270 484h145v-706z" />
    <glyph glyph-name="uni0419" unicode="&#x419;" horiz-adv-x="735" 
d="M431 917l105 -33q-13 -69 -60.5 -107.5t-115.5 -38.5t-115.5 39.5t-57.5 109.5l105 31q11 -36 27 -52.5t42 -16.5q50 0 70 68zM630 -8h-152v424l2 70q-167 -288 -265 -494h-149v706h152v-410l-3 -74q108 217 271 484h144v-706z" />
    <glyph glyph-name="uni041A" unicode="&#x41a;" horiz-adv-x="647" 
d="M620 -8h-131q-32 2 -46 4q-100 172 -222 314v-318h-154v706h154v-287q74 81 215 287h171l-259 -327q152 -173 272 -379z" />
    <glyph glyph-name="uni041B" unicode="&#x41b;" horiz-adv-x="719" 
d="M489 0q-92 303 -143 458q-5 15 -10 34t-8.5 30.5t-6.5 17.5q-2 -3 -6 -15t-9.5 -33.5t-10.5 -35.5q-64 -185 -147 -456h-149q140 416 256 707h141q104 -264 255 -707h-162z" />
    <glyph glyph-name="uni041C" unicode="&#x41c;" horiz-adv-x="883" 
d="M790 -8h-148q-25 401 -32 474q-1 -1 -16 -44l-138 -384h-95l-137 384q-5 12 -10 27.5t-5 16.5q-15 -171 -32 -474h-139q41 501 65 706h103q28 -2 42 -4q83 -211 141 -374l14 -43l10 -31q1 0 24 70q77 211 148 382h140q24 -205 65 -706z" />
    <glyph glyph-name="uni041D" unicode="&#x41d;" horiz-adv-x="716" 
d="M604 -8h-153v305h-231v-305h-154v706h154v-283h231v283h153v-706z" />
    <glyph glyph-name="uni041E" unicode="&#x41e;" horiz-adv-x="720" 
d="M670 345q0 -168 -82.5 -266.5t-227.5 -98.5q-143 0 -226.5 99t-83.5 266q0 166 84 266t226 100q143 0 226.5 -99.5t83.5 -266.5zM513 348q0 107 -38.5 175.5t-114.5 68.5t-114.5 -68.5t-38.5 -175.5t38.5 -175t114.5 -68q77 0 115 67.5t38 175.5z" />
    <glyph glyph-name="uni041F" unicode="&#x41f;" horiz-adv-x="655" 
d="M605 -17h-148v596h-258v-596h-149v725h555v-725z" />
    <glyph glyph-name="uni0420" unicode="&#x420;" horiz-adv-x="621" 
d="M568 477q0 -115 -78.5 -174.5t-233.5 -56.5h-38v-254h-152v684q95 31 208 31q148 0 221 -59.5t73 -170.5zM416 478q0 118 -139 118q-20 0 -59 -6v-232q6 0 18 -0.5t18 -0.5q84 -2 123 26t39 95z" />
    <glyph glyph-name="uni0421" unicode="&#x421;" horiz-adv-x="605" 
d="M555 29q-67 -49 -195 -49q-147 0 -228.5 100.5t-81.5 264.5q0 161 86 263.5t227 102.5q117 0 187 -49l-39 -111q-59 35 -129 35q-61 0 -102.5 -37t-55.5 -104q-17 -56 -14 -120q4 -84 38 -141.5t98 -69.5q30 -7 57 -4q58 3 113 31z" />
    <glyph glyph-name="uni0422" unicode="&#x422;" horiz-adv-x="529" 
d="M509 579h-168v-587h-153v587h-168v119h489v-119z" />
    <glyph glyph-name="uni0423" unicode="&#x423;" horiz-adv-x="608" 
d="M75 -5q0 16 0.5 50.5t0.5 52.5q75 -13 96 8q25 1 39.5 15.5t25.5 43.5q-9 15 -32 61q-101 205 -207 472h160q50 -145 124 -319q3 -10 16 -45.5t18 -52.5l37 121q16 48 88 296h154q-75 -232 -185 -527q-38 -93 -93.5 -138t-136.5 -49q-52 -3 -105 11z" />
    <glyph glyph-name="uni0424" unicode="&#x424;" horiz-adv-x="866" 
d="M490 -35h-146v83q-143 4 -228.5 91.5t-85.5 223.5q0 133 85.5 222t228.5 97v76h146v-76q143 -8 228 -96.5t85 -222.5t-85.5 -222.5t-227.5 -92.5v-83zM490 562v-395q76 -3 120 54.5t44 144.5q0 82 -43 139t-121 57zM344 167v395q-81 3 -122.5 -53.5t-41.5 -144.5
q0 -82 43 -140t121 -57z" />
    <glyph glyph-name="uni0425" unicode="&#x425;" horiz-adv-x="646" 
d="M600 -8h-136q-7 1 -21 2.5t-20 1.5q-50 106 -127 241q-80 -135 -134 -245h-163q78 149 212 365l-199 341h172l118 -219h1l124 219h161l-201 -332q127 -204 213 -374z" />
    <glyph glyph-name="uni0426" unicode="&#x426;" horiz-adv-x="747" 
d="M601 109h100v-278h-145v161h-490v706h154v-589h228v589h153v-589z" />
    <glyph glyph-name="uni0427" unicode="&#x427;" horiz-adv-x="649" 
d="M558 -8h-153v252q-48 -16 -116 -16q-120 0 -183.5 61.5t-63.5 179.5v229h154v-229q0 -61 27.5 -89.5t84.5 -28.5q61 0 97 17v330h153v-706z" />
    <glyph glyph-name="uni0428" unicode="&#x428;" horiz-adv-x="996" 
d="M886 -8h-820v706h154v-589h180v589h153v-589h180v589h153v-706z" />
    <glyph glyph-name="uni0429" unicode="&#x429;" horiz-adv-x="1033" 
d="M837 -8h-771v706h154v-589h180v589h153v-589h179v589h154v-589h96v-278h-145v161z" />
    <glyph glyph-name="uni042A" unicode="&#x42a;" horiz-adv-x="744" 
d="M-24 698h295v-250q25 4 61 4q306 -3 306 -238q0 -115 -78 -173t-224 -58q-121 0 -213 33v569h-148q1 38 1 113zM483 216q0 123 -145 125q-40 0 -67 -4v-232q36 -8 66 -8q146 0 146 119z" />
    <glyph glyph-name="uni042B" unicode="&#x42b;" horiz-adv-x="881" 
d="M66 698h150v-250q24 4 57 4q304 -3 304 -238q0 -114 -78 -172.5t-221 -58.5q-119 0 -212 33v682zM423 216q0 59 -35 90.5t-99 33.5q-16 1 -47 1q-5 -1 -13.5 -2.5t-12.5 -1.5v-232q32 -8 64 -8q143 0 143 119zM804 -8h-153v706h153v-706z" />
    <glyph glyph-name="uni042C" unicode="&#x42c;" horiz-adv-x="631" 
d="M66 698h150v-250q24 4 59 4q307 -3 307 -238q0 -114 -78 -172.5t-224 -58.5q-121 0 -214 33v682zM427 216q0 123 -145 125q-41 0 -66 -4v-232q32 -8 65 -8q146 0 146 119z" />
    <glyph glyph-name="uni042D" unicode="&#x42d;" horiz-adv-x="647" 
d="M373 295h-233v120h231q-11 82 -59 128.5t-126 41.5q-66 -4 -115 -33l-39 111q83 49 194 49q141 0 225.5 -101.5t84.5 -265.5q0 -167 -84 -266t-228 -99q-115 0 -195 49l43 114q40 -23 88 -25q45 -10 81 -5q58 13 91 61t41 121z" />
    <glyph glyph-name="uni042E" unicode="&#x42e;" horiz-adv-x="1051" 
d="M918 345q0 -167 -82 -266t-223 -99q-129 0 -209.5 85t-92.5 232h-91v-305h-154v706h154v-283h93q17 137 96.5 217t203.5 80q142 0 223.5 -100.5t81.5 -266.5zM761 348q0 108 -37 176.5t-111 68.5t-111 -68.5t-37 -176.5t36.5 -175.5t111.5 -67.5t111.5 67.5t36.5 175.5z
" />
    <glyph glyph-name="uni042F" unicode="&#x42f;" horiz-adv-x="656" 
d="M174 -8h-165q91 161 197 309q-24 11 -35 19q-46 16 -77 55.5t-35 92.5q-3 41 5 74q19 79 93 122t195 43q106 0 204 -31v-684h-152v282h-45q-9 -11 -28 -30t-26 -27q-73 -115 -131 -225zM209 482q0 -59 36.5 -82.5t111.5 -23.5q8 0 47 3v211q-10 2 -31 4q-19 2 -42 0
q-122 -7 -122 -112z" />
    <glyph glyph-name="uni0430" unicode="&#x430;" horiz-adv-x="538" 
d="M488 356v-336q-83 -33 -218 -33q-230 0 -230 176q0 91 66.5 136.5t163.5 48.5q7 1 30 1q8 0 16 -0.5t17 -2t13 -1.5q0 51 -22 75.5t-73 24.5q-80 0 -144 -31l-26 106q23 13 75 24t114 11q100 0 159 -49t59 -150zM347 97v158q-47 0 -58 -1q-50 -5 -78 -24.5t-28 -62.5
q0 -78 96 -78q44 0 68 8z" />
    <glyph glyph-name="uni0431" unicode="&#x431;" horiz-adv-x="577" 
d="M389 248q0 147 -112 147q-54 0 -88 -29l-1 -256q29 -17 86 -17q58 0 86.5 41t28.5 114zM50 39v440q0 51 13 89.5t48 77t107 65t179 40.5q72 7 97 12l8 -113l-107 -18q-114 -20 -154.5 -52t-50.5 -112q50 32 118 32q105 0 167 -67t62 -181q0 -122 -70 -194t-197 -72
q-165 0 -220 53z" />
    <glyph glyph-name="uni0432" unicode="&#x432;" horiz-adv-x="568" 
d="M497 568q4 -107 -82 -154q57 -25 85 -79.5t28 -117.5q0 -101 -73 -168t-200 -67q-120 0 -205 33v510q0 53 14 94t35.5 65.5t51.5 40t58.5 21t59.5 5.5q114 0 169.5 -50.5t58.5 -132.5zM379 215q0 123 -109 128q-46 0 -73 -11v-237q19 -6 39 -7q5 0 15.5 0.5t14.5 0.5
q51 1 82 38t31 88zM196 439q65 9 97 9h4q34 6 51 34t16 70q-1 47 -23.5 73t-68.5 25q-70 -3 -75 -91q0 -13 -0.5 -39t-0.5 -40v-41z" />
    <glyph glyph-name="uni0433" unicode="&#x433;" horiz-adv-x="471" 
d="M40 144q0 57 31.5 95.5t103.5 70.5q55 22 75.5 38t20.5 42q0 23 -18.5 36t-49.5 13q-52 0 -110 -28l-32 104q70 35 164 35q90 0 140.5 -43t50.5 -113q0 -62 -37 -102t-109 -70q-44 -18 -62.5 -34t-18.5 -40q0 -25 20.5 -39t56.5 -14q69 0 133 34q7 -27 32 -113
q-74 -36 -179 -36q-97 0 -154.5 44t-57.5 120z" />
    <glyph glyph-name="uni0434" unicode="&#x434;" horiz-adv-x="566" 
d="M516 22q0 -238 -252 -238q-108 0 -196 37l33 114q56 -26 119 -32q53 -2 85 16q67 18 67 85v20q-42 -21 -100 -21q-105 0 -168.5 69.5t-63.5 193.5q0 130 71.5 206.5t201.5 76.5q122 0 203 -36v-491zM371 128v306q-19 8 -61 8q-61 0 -91.5 -45t-30.5 -127q0 -161 112 -161
q42 0 71 19z" />
    <glyph glyph-name="uni0435" unicode="&#x435;" horiz-adv-x="563" 
d="M522 237l-333 -23q18 -117 137 -117q81 0 145 31l28 -109q-78 -39 -188 -39q-132 0 -201.5 77t-69.5 208q0 133 70 209t179 76q103 0 163.5 -59t67.5 -173q2 -44 2 -81zM380 323q-3 119 -93 119q-47 0 -74.5 -35.5t-28.5 -99.5z" />
    <glyph glyph-name="uni0436" unicode="&#x436;" horiz-adv-x="795" 
d="M163 -8h-166q96 153 218 295q-129 155 -201 252h162q59 -86 162 -216v457h146v-458l66 77q68 96 96 140h160q-84 -117 -199 -252q108 -123 218 -295h-166q-9 12 -44.5 70.5t-68.5 104.5t-62 70v-245h-146v243q-18 -17 -36 -38t-41 -54.5l-32 -47t-37 -58.5z" />
    <glyph glyph-name="uni0437" unicode="&#x437;" horiz-adv-x="502" 
d="M462 153q0 -84 -61.5 -129t-163.5 -45q-123 0 -197 38l30 103q61 -25 126 -27q115 -3 115 63q0 20 -9.5 34t-21.5 21t-33 11t-34 4.5t-34 0.5h-43v96h43q117 0 117 62q0 44 -52 51q-13 4 -42 4q-60 -2 -117 -25l-27 93q42 42 180 42q92 0 148 -37.5t56 -109.5
q0 -40 -24.5 -70t-58.5 -44q48 -14 75.5 -49t27.5 -87z" />
    <glyph glyph-name="uni0438" unicode="&#x438;" horiz-adv-x="555" 
d="M505 19q-88 -38 -226 -38q-125 0 -177 60.5t-52 177.5v320h147v-277q0 -36 1 -57t6 -44.5t14.5 -36t26 -20.5t41.5 -8q44 0 71 11v432h148v-520z" />
    <glyph glyph-name="uni0439" unicode="&#x439;" horiz-adv-x="555" 
d="M505 19q-88 -38 -226 -38q-125 0 -177 60.5t-52 177.5v320h147v-277q0 -36 1 -57t6 -44.5t14.5 -36t26 -20.5t41.5 -8q44 0 71 11v432h148v-520zM280 595q-70 0 -124 44t-63 119l111 23q8 -36 28.5 -53.5t47.5 -17.5q62 0 75 71l111 -24q-8 -74 -62 -118t-124 -44z" />
    </font>
</defs>
</svg>
