<?xml version="1.0" standalone="no"?>
<!DOCTYPE svg PUBLIC "-//W3C//DTD SVG 1.1//EN" "http://www.w3.org/Graphics/SVG/1.1/DTD/svg11.dtd" >
<svg>
<metadata>
Created by FontForge 20090622 at Wed Sep 26 07:09:37 2018
 By deploy user
Copyright (c) 2016 by Fontfabric LLC. All rights reserved.
</metadata>
<defs>
<font id="Akrobat-SemiBold" horiz-adv-x="0" >
  <font-face 
    font-family="Akrobat SemiBold"
    font-weight="600"
    font-stretch="normal"
    units-per-em="1000"
    panose-1="0 0 7 0 0 0 0 0 0 0"
    ascent="800"
    descent="-200"
    x-height="526"
    cap-height="700"
    bbox="-430 -257 806 959"
    underline-thickness="50"
    underline-position="-50"
    unicode-range="U+0020-U+25CA"
  />
<missing-glyph horiz-adv-x="500" 
d="M410 800v-1000h-317v1000h317zM333 733h-165v-33h65v-37h-66v-33h166v33h-66v37h66v33zM267 604h-100v-104h166v34h-66v70zM233 570v-36h-33v36h33zM333 473h-166v-33h66v-37h-66v-33h100v70h66v33zM333 413h-33v-66h-133v-34h166v100zM333 291h-100v-56h34v23h33v-47
h-100v80h-33v-113h166v113zM333 118h-166v-113h166v113zM300 85v-47h-100v47h100zM333 -18h-166v-33h70l-70 -47v-33h166v33h-102l70 47h32v33z" />
    <glyph glyph-name=".notdef" horiz-adv-x="500" 
d="M410 800v-1000h-317v1000h317zM333 733h-165v-33h65v-37h-66v-33h166v33h-66v37h66v33zM267 604h-100v-104h166v34h-66v70zM233 570v-36h-33v36h33zM333 473h-166v-33h66v-37h-66v-33h100v70h66v33zM333 413h-33v-66h-133v-34h166v100zM333 291h-100v-56h34v23h33v-47
h-100v80h-33v-113h166v113zM333 118h-166v-113h166v113zM300 85v-47h-100v47h100zM333 -18h-166v-33h70l-70 -47v-33h166v33h-102l70 47h32v33z" />
    <glyph glyph-name=".null" 
 />
    <glyph glyph-name="nonmarkingreturn" horiz-adv-x="333" 
 />
    <glyph glyph-name="space" unicode=" " horiz-adv-x="222" 
 />
    <glyph glyph-name="exclam" unicode="!" horiz-adv-x="235" 
d="M78 156v544h79v-544h-79zM118 -11q-25 0 -39.5 15t-14.5 40q0 24 14.5 39t39.5 15q24 0 39 -15t15 -39q0 -25 -15 -40t-39 -15z" />
    <glyph glyph-name="quotedbl" unicode="&#x22;" horiz-adv-x="254" 
d="M18 478l21 222h82l-52 -222h-51zM133 478l21 222h82l-52 -222h-51z" />
    <glyph glyph-name="numbersign" unicode="#" horiz-adv-x="592" 
d="M91 0l42 184h-121l15 62h120l46 198h-122l14 61h122l44 195h72l-45 -195h107l45 195h73l-45 -195h122l-14 -61h-122l-46 -198h123l-15 -62h-121l-42 -184h-73l42 184h-107l-42 -184h-72zM219 246h107l45 198h-107z" />
    <glyph glyph-name="dollar" unicode="$" horiz-adv-x="458" 
d="M425 178q0 -73 -45.5 -127t-124.5 -63v-73h-63v75q-75 11 -118.5 63t-44.5 133h83q1 -58 32 -89t84 -31q55 0 84 31t29 82q0 41 -31 74.5t-75.5 59t-88.5 53.5t-75 72t-31 101q0 67 41.5 114t110.5 57v75h63v-74q73 -8 115.5 -59t45.5 -131h-83q-2 56 -30 84.5t-75 28.5
q-49 0 -77 -26t-28 -70q0 -35 22.5 -64t56 -48t72.5 -43.5t72.5 -49t56 -65t22.5 -90.5z" />
    <glyph glyph-name="percent" unicode="%" horiz-adv-x="575" 
d="M112 391q-45 0 -72.5 28.5t-27.5 80.5v100q0 52 27.5 81t72.5 29q44 0 71.5 -29t27.5 -81v-100q0 -52 -27.5 -80.5t-71.5 -28.5zM23 0l463 700h66l-463 -700h-66zM112 444q42 0 42 55v102q0 56 -42 56q-43 0 -43 -56v-102q0 -55 43 -55zM460 -9q-45 0 -72.5 28.5
t-27.5 80.5v100q0 52 27.5 81t72.5 29q44 0 71.5 -29t27.5 -81v-100q0 -52 -27.5 -80.5t-71.5 -28.5zM460 44q42 0 42 55v102q0 56 -42 56q-43 0 -43 -56v-102q0 -55 43 -55z" />
    <glyph glyph-name="ampersand" unicode="&#x26;" horiz-adv-x="580" 
d="M548 0h-89q-16 25 -50 73q-74 -86 -169 -86q-71 0 -119 46t-48 126q0 65 31.5 116t87.5 103q-75 120 -75 190q0 61 38 103t108 42q73 0 110 -44.5t35 -107.5q-1 -55 -31.5 -100t-85.5 -96l113 -158q17 38 30 77h83q-27 -85 -63 -147zM194 566q0 -45 55 -136
q40 37 61.5 67.5t21.5 64.5q0 32 -18.5 55t-50.5 23t-50.5 -20.5t-18.5 -53.5zM246 63q62 0 116 75l-126 175q-80 -78 -80 -147q0 -46 25.5 -74.5t64.5 -28.5z" />
    <glyph glyph-name="quotesingle" unicode="'" horiz-adv-x="139" 
d="M18 478l21 222h82l-52 -222h-51z" />
    <glyph glyph-name="parenleft" unicode="(" horiz-adv-x="284" 
d="M235 -121q-74 3 -118 50.5t-44 125.5v590q0 77 44 124.5t118 50.5v-74q-38 -2 -60.5 -28.5t-22.5 -69.5v-596q0 -44 22 -70t61 -29v-74z" />
    <glyph glyph-name="parenright" unicode=")" horiz-adv-x="284" 
d="M49 -121v74q39 3 61 29t22 70v596q0 43 -22.5 69.5t-60.5 28.5v74q74 -3 118 -50.5t44 -124.5v-590q0 -78 -44 -125.5t-118 -50.5z" />
    <glyph glyph-name="asterisk" unicode="*" horiz-adv-x="299" 
d="M99 488l-45 32l50 70l-80 26l16 53l82 -27v85h55v-85l81 26l17 -52l-82 -26l51 -70l-45 -33l-50 70z" />
    <glyph glyph-name="plus" unicode="+" horiz-adv-x="452" 
d="M407 346v-73h-144v-148h-74v148h-144v73h144v148h74v-148h144z" />
    <glyph glyph-name="comma" unicode="," horiz-adv-x="159" 
d="M28 -133l21 222h82l-52 -222h-51z" />
    <glyph glyph-name="hyphen" unicode="-" horiz-adv-x="327" 
d="M42 222v71h243v-71h-243z" />
    <glyph glyph-name="period" unicode="." horiz-adv-x="188" 
d="M94 -11q-24 0 -39 15t-15 40q0 24 15 39t39 15t39 -15t15 -39q0 -25 -15 -40t-39 -15z" />
    <glyph glyph-name="slash" unicode="/" horiz-adv-x="415" 
d="M9 -117l324 929h74l-325 -929h-73z" />
    <glyph glyph-name="zero" unicode="0" horiz-adv-x="459" 
d="M232 -10q-81 0 -129.5 51.5t-48.5 137.5v341q0 87 48.5 138.5t129.5 51.5t129.5 -51.5t48.5 -138.5v-341q0 -86 -48.5 -137.5t-129.5 -51.5zM232 65q48 0 74.5 30t26.5 84v340q0 55 -26.5 85.5t-74.5 30.5t-74.5 -30.5t-26.5 -85.5v-340q0 -54 26.5 -84t74.5 -30z" />
    <glyph glyph-name="one" unicode="1" horiz-adv-x="288" 
d="M148 700h66v-700h-78v594l-111 -84v93z" />
    <glyph glyph-name="two" unicode="2" horiz-adv-x="412" 
d="M30 0v59q0 65 27.5 124t66 103.5l77.5 85.5t66.5 85.5t27.5 87.5q0 40 -24.5 66t-67.5 26q-42 0 -66 -27.5t-25 -80.5h-77q5 84 49.5 133t118.5 49q79 0 125 -47.5t46 -116.5q0 -46 -19.5 -90.5t-48.5 -79l-63.5 -73l-63.5 -72t-48.5 -75.5t-19.5 -83h269v-74h-350z" />
    <glyph glyph-name="three" unicode="3" horiz-adv-x="414" 
d="M206 415q80 -1 122 -49t42 -128v-49q0 -97 -46 -148.5t-130 -51.5q-80 0 -128.5 51t-49.5 147h79q5 -122 98 -122q99 0 99 125v47q0 114 -109 114h-63v59l135 217h-215v73h314v-54z" />
    <glyph glyph-name="four" unicode="4" horiz-adv-x="420" 
d="M418 254v-74h-82v-180h-77v180h-249v43l153 477h81l-145 -446h161l4 237h72v-237h82z" />
    <glyph glyph-name="five" unicode="5" horiz-adv-x="415" 
d="M227 471q70 0 111 -50t41 -141v-75q0 -108 -43 -162t-122 -54q-75 0 -120 48.5t-48 134.5h78q4 -106 90 -106q43 0 64 32t21 108v71q0 62 -20.5 90.5t-64.5 28.5q-66 0 -84 -71h-75v375h303v-72h-226v-191q37 34 95 34z" />
    <glyph glyph-name="six" unicode="6" horiz-adv-x="440" 
d="M239 460q69 0 117.5 -49t48.5 -125v-116q0 -82 -49.5 -131.5t-125.5 -49.5t-126 49.5t-50 131.5v364q0 80 49 128.5t125 48.5q73 0 121 -47.5t52 -125.5h-78q-3 45 -29.5 70.5t-65.5 25.5q-43 0 -69 -26.5t-26 -72.5v-118q41 43 106 43zM327 170v114q0 47 -28.5 74
t-72.5 27q-42 0 -67.5 -27.5t-25.5 -75.5v-112q0 -49 27 -76.5t70 -27.5t70 27.5t27 76.5z" />
    <glyph glyph-name="seven" unicode="7" horiz-adv-x="361" 
d="M61 0l184 626h-246v74h336v-50l-191 -650h-83z" />
    <glyph glyph-name="eight" unicode="8" horiz-adv-x="459" 
d="M329 363q40 -21 62 -63t22 -96v-20q0 -91 -49 -143t-134 -52q-86 0 -135 52t-49 143v20q0 54 22 96t62 63q-72 50 -72 150v15q0 85 46 134t126 49q79 0 125 -49t46 -134v-15q0 -99 -72 -150zM137 526v-14q0 -55 24.5 -84.5t68.5 -29.5t68.5 29.5t24.5 84.5v14
q0 52 -24.5 80t-68.5 28t-68.5 -28t-24.5 -80zM334 184v20q0 57 -27 88t-77 31t-77.5 -31t-27.5 -88v-20q0 -56 27.5 -87t77.5 -31t77 31t27 87z" />
    <glyph glyph-name="nine" unicode="9" horiz-adv-x="453" 
d="M224 711q76 0 125.5 -49.5t49.5 -131.5v-364q0 -80 -48.5 -128.5t-125.5 -48.5q-72 0 -120.5 48t-52.5 125h79q3 -45 29.5 -70.5t65.5 -25.5q43 0 69 26.5t26 72.5v119q-41 -43 -106 -43q-70 0 -118.5 48.5t-48.5 124.5v116q0 82 50 131.5t126 49.5zM228 315
q41 0 67 27.5t26 75.5v112q0 49 -27 76.5t-70 27.5t-70 -27.5t-27 -76.5v-113q0 -47 28.5 -74.5t72.5 -27.5z" />
    <glyph glyph-name="colon" unicode=":" horiz-adv-x="179" 
d="M92 334q-24 0 -39 15t-15 39q0 25 15 39.5t39 14.5t39 -14.5t15 -39.5q0 -24 -15 -39t-39 -15zM92 -11q-24 0 -39 15t-15 40q0 24 15 39t39 15t39 -15t15 -39q0 -25 -15 -40t-39 -15z" />
    <glyph glyph-name="semicolon" unicode=";" horiz-adv-x="169" 
d="M87 335q-25 0 -39.5 15t-14.5 39t14.5 39t39.5 15q24 0 39 -15t15 -39t-15 -39t-39 -15zM28 -133l21 222h82l-52 -222h-51z" />
    <glyph glyph-name="less" unicode="&#x3c;" horiz-adv-x="422" 
d="M377 485v-76l-253 -103l253 -104v-75l-332 138v82z" />
    <glyph glyph-name="equal" unicode="=" horiz-adv-x="452" 
d="M45 350v73h362v-73h-362zM45 185v73h362v-73h-362z" />
    <glyph glyph-name="greater" unicode="&#x3e;" horiz-adv-x="422" 
d="M45 485l332 -138v-82l-332 -138v75l252 104l-252 103v76z" />
    <glyph glyph-name="question" unicode="?" horiz-adv-x="384" 
d="M135 156v54q0 48 14.5 86.5t36 64.5l42.5 50.5t35.5 56t14.5 69.5q0 45 -25.5 73t-68.5 28q-42 0 -68 -29.5t-27 -82.5h-78q4 85 51 135t122 50t123.5 -48.5t48.5 -125.5q0 -46 -14.5 -83.5t-35.5 -63.5l-42 -51t-35.5 -59t-14.5 -75v-49h-79zM176 -11q-24 0 -39 15
t-15 40q0 24 15 39t39 15t39 -15t15 -39q0 -25 -15 -40t-39 -15z" />
    <glyph glyph-name="at" unicode="@" horiz-adv-x="779" 
d="M400 -104q-164 0 -257.5 96.5t-93.5 268.5v126q0 162 92.5 253t256.5 91q158 0 245 -85t87 -245v-108q0 -88 -42.5 -134t-105.5 -46q-72 -1 -102 55q-31 -62 -104 -62q-57 0 -92.5 39t-35.5 111v111q0 73 34.5 111t90.5 38q64 0 93 -49l7 38h53v-265q0 -62 56 -63
q81 0 81 116v108q0 131 -68.5 198t-196.5 67q-134 0 -207.5 -73t-73.5 -206v-126q0 -143 74 -221.5t206 -78.5q128 0 205 54l33 -55q-88 -64 -235 -64zM386 172q34 0 54 21.5t20 64.5v108q0 36 -19.5 60.5t-56.5 24.5q-67 0 -67 -83v-111q0 -85 69 -85z" />
    <glyph glyph-name="A" unicode="A" horiz-adv-x="467" 
d="M372 0l-37 152h-203l-37 -152h-86l180 700h89l180 -700h-86zM150 228h167l-57 237q-14 58 -25 131h-3q-11 -73 -25 -131z" />
    <glyph glyph-name="B" unicode="B" horiz-adv-x="500" 
d="M358 361q50 -16 78 -59t28 -106q0 -93 -53.5 -144.5t-146.5 -51.5h-191v700h178q87 0 136.5 -49.5t49.5 -136.5q0 -56 -21 -96t-58 -57zM245 623h-90v-227h92q106 0 106 116q0 111 -108 111zM257 77q124 0 124 119q0 60 -35 91.5t-96 31.5h-95v-242h102z" />
    <glyph glyph-name="C" unicode="C" horiz-adv-x="486" 
d="M251 -12q-90 0 -143.5 56t-53.5 158v296q0 102 53 158.5t142 56.5q91 0 143.5 -54t57.5 -155h-81q-9 132 -121 132q-52 0 -82 -35t-30 -103v-296q0 -68 31 -102.5t84 -34.5q111 0 123 131h81q-6 -100 -59 -154t-145 -54z" />
    <glyph glyph-name="D" unicode="D" horiz-adv-x="505" 
d="M73 0v700h166q101 0 156.5 -56t55.5 -156v-276q0 -100 -56 -156t-155 -56h-167zM155 78h85q62 0 95.5 34.5t33.5 102.5v271q0 67 -33 101.5t-96 34.5h-85v-544z" />
    <glyph glyph-name="E" unicode="E" horiz-adv-x="458" 
d="M155 77h264v-77h-346v700h335v-76h-253v-231h235v-75h-235v-241z" />
    <glyph glyph-name="F" unicode="F" horiz-adv-x="423" 
d="M397 624h-242v-238h224v-76h-224v-310h-82v700h324v-76z" />
    <glyph glyph-name="G" unicode="G" horiz-adv-x="501" 
d="M255 -11q-92 0 -146.5 57t-54.5 159v291q0 104 52.5 159.5t144.5 55.5q90 0 142.5 -53.5t56.5 -153.5h-81q-6 129 -118 129q-115 0 -115 -138v-290q0 -68 32 -103t87 -35q56 0 88.5 33.5t32.5 97.5v106h-123v73h202v-179q-1 -98 -55 -153.5t-145 -55.5z" />
    <glyph glyph-name="H" unicode="H" horiz-adv-x="534" 
d="M378 700h83v-700h-83v317h-222v-317h-83v700h83v-306h222v306z" />
    <glyph glyph-name="I" unicode="I" horiz-adv-x="229" 
d="M73 0v700h82v-700h-82z" />
    <glyph glyph-name="J" unicode="J" horiz-adv-x="266" 
d="M0 -99v77q59 0 87 30.5t28 106.5v585h82v-586q0 -213 -197 -213z" />
    <glyph glyph-name="K" unicode="K" horiz-adv-x="492" 
d="M397 0l-194 324l-48 -70v-254h-82v700h82v-320l52 84l158 236h99l-212 -305l240 -395h-95z" />
    <glyph glyph-name="L" unicode="L" horiz-adv-x="407" 
d="M155 78h244v-78h-326v700h82v-622z" />
    <glyph glyph-name="M" unicode="M" horiz-adv-x="671" 
d="M512 700h85v-700h-81v321q2 120 7 212l-4 1q-11 -31 -37.5 -100l-32.5 -84l-73 -189h-81l-74 189l-34.5 91t-34.5 93l-5 -1q7 -119 7 -212v-321h-81v700h86l121 -293q33 -81 53 -147h4q26 77 54 147z" />
    <glyph glyph-name="N" unicode="N" horiz-adv-x="548" 
d="M73 0v700h83l175 -382q34 -72 70 -163l3 1q-11 134 -11 220v324h81v-700h-83l-172 376q-36 81 -69 170l-3 -1q8 -124 8 -215v-330h-82z" />
    <glyph glyph-name="O" unicode="O" horiz-adv-x="523" 
d="M262 -13q-97 0 -152.5 62.5t-55.5 170.5v261q0 108 55.5 170t152.5 62t152 -62t55 -170v-261q0 -108 -55 -170.5t-152 -62.5zM262 67q60 0 91.5 39.5t31.5 113.5v261q0 73 -31.5 112.5t-91.5 39.5q-61 0 -92.5 -39.5t-31.5 -112.5v-261q0 -74 31.5 -113.5t92.5 -39.5z
" />
    <glyph glyph-name="P" unicode="P" horiz-adv-x="491" 
d="M250 700q100 0 154 -57.5t54 -163.5q0 -108 -54 -166t-154 -58h-95v-255h-82v700h177zM250 333q125 0 125 146q0 143 -125 143h-95v-289h95z" />
    <glyph glyph-name="Q" unicode="Q" horiz-adv-x="524" 
d="M470 481v-261q0 -110 -57 -172l56 -68l-51 -45l-60 72q-42 -20 -96 -20q-97 0 -152.5 62.5t-55.5 170.5v261q0 108 55.5 170t152.5 62t152.5 -62t55.5 -170zM295 190l64 -77q26 40 26 107v261q0 73 -31.5 112.5t-91.5 39.5q-61 0 -92.5 -39.5t-31.5 -112.5v-261
q0 -74 31.5 -113.5t92.5 -39.5q24 0 42 6l-59 72z" />
    <glyph glyph-name="R" unicode="R" horiz-adv-x="494" 
d="M379 0l-153 264h-71v-264h-82v700h171q99 0 152 -55.5t53 -156.5q0 -86 -36.5 -141.5t-102.5 -74.5l162 -272h-93zM155 623v-282h88q60 0 91.5 37t31.5 107q0 138 -122 138h-89z" />
    <glyph glyph-name="S" unicode="S" horiz-adv-x="458" 
d="M229 -13q-90 0 -144.5 54t-55.5 145h83q1 -58 32 -89t84 -31q55 0 84 31t29 82q0 41 -31 74.5t-75.5 59t-88.5 53.5t-75 72t-31 101q0 75 51.5 124.5t135.5 49.5q85 0 135.5 -52.5t53.5 -139.5h-83q-2 56 -30 84.5t-75 28.5q-49 0 -77 -26t-28 -70q0 -35 22.5 -64t56 -48
t72.5 -43.5t72.5 -49t56 -65t22.5 -90.5q0 -79 -52.5 -135t-143.5 -56z" />
    <glyph glyph-name="T" unicode="T" horiz-adv-x="417" 
d="M400 700v-77h-150v-623h-83v623h-150v77h383z" />
    <glyph glyph-name="U" unicode="U" horiz-adv-x="521" 
d="M260 -10q-90 0 -144 57.5t-54 161.5v491h83v-491q0 -69 30.5 -104t84.5 -35t85 35t31 104v491h83v-491q0 -105 -54 -162t-145 -57z" />
    <glyph glyph-name="V" unicode="V" horiz-adv-x="460" 
d="M184 0l-175 700h86l95 -411l20.5 -98l17.5 -84h4q23 115 38 182l94 411h87l-175 -700h-92z" />
    <glyph glyph-name="W" unicode="W" horiz-adv-x="732" 
d="M165 0l-156 700h86l79 -407q27 -138 33 -182h4q4 28 34 190l77 388h88l77 -388l34 -190h4q6 44 33 182l80 407h85l-156 -700h-89l-76 344q-23 102 -34 223h-4q-11 -121 -34 -223l-76 -344h-89z" />
    <glyph glyph-name="X" unicode="X" horiz-adv-x="465" 
d="M448 0h-91l-124 284l-124 -284h-91l168 364l-159 336h91l115 -260l115 260h90l-158 -336z" />
    <glyph glyph-name="Y" unicode="Y" horiz-adv-x="435" 
d="M176 0v240l-172 460h86l89 -251l38 -109h1l38 111l89 249h86l-173 -460v-240h-82z" />
    <glyph glyph-name="Z" unicode="Z" horiz-adv-x="415" 
d="M18 0v59l264 564h-250v77h350v-56l-265 -567h270v-77h-369z" />
    <glyph glyph-name="bracketleft" unicode="[" horiz-adv-x="287" 
d="M73 -120v940h165v-73h-86v-794h86v-73h-165z" />
    <glyph glyph-name="backslash" unicode="\" horiz-adv-x="487" 
d="M443 -117h-74l-324 929h73z" />
    <glyph glyph-name="bracketright" unicode="]" horiz-adv-x="287" 
d="M214 820v-940h-165v73h86v794h-86v73h165z" />
    <glyph glyph-name="asciicircum" unicode="^" horiz-adv-x="322" 
d="M310 477h-76l-72 156l-74 -156h-75l109 223h78z" />
    <glyph glyph-name="underscore" unicode="_" horiz-adv-x="397" 
d="M21 -84v75h355v-75h-355z" />
    <glyph glyph-name="a" unicode="a" horiz-adv-x="451" 
d="M223 539q79 0 122.5 -48t43.5 -134v-357h-65l-7 51q-42 -64 -119 -64q-73 0 -118.5 44t-45.5 119q0 77 49 118t137 41h90v47q0 107 -89 107q-39 0 -64 -21t-28 -60h-79q3 72 50 114.5t123 42.5zM310 160v81h-91q-105 0 -105 -92q0 -43 26.5 -66t72.5 -23q45 0 71 27
t26 73z" />
    <glyph glyph-name="b" unicode="b" horiz-adv-x="465" 
d="M250 539q77 0 121.5 -52t44.5 -148v-148q0 -96 -45.5 -149.5t-120.5 -53.5q-36 0 -68.5 16.5t-52.5 44.5l-8 -49h-59v724h77v-235q44 50 111 50zM336 191v148q0 126 -100 126q-45 0 -71 -34.5t-26 -91.5v-149q0 -63 27 -95.5t70 -32.5q100 0 100 129z" />
    <glyph glyph-name="c" unicode="c" horiz-adv-x="435" 
d="M223 -11q-80 0 -127 50.5t-47 140.5v169q0 90 47 140t127 50q83 0 130 -49.5t49 -140.5h-79q-4 114 -100 114q-94 0 -94 -114v-169q0 -114 94 -114q97 0 101 114h79q-2 -91 -50 -141t-130 -50z" />
    <glyph glyph-name="d" unicode="d" horiz-adv-x="465" 
d="M326 724h77v-724h-59l-8 49q-20 -28 -52.5 -44.5t-68.5 -16.5q-75 0 -120.5 53.5t-45.5 149.5v148q0 96 44.5 148t121.5 52q67 0 111 -50v235zM326 190v149q0 57 -26 91.5t-71 34.5q-100 0 -100 -126v-148q0 -129 100 -129q43 0 70 32.5t27 95.5z" />
    <glyph glyph-name="e" unicode="e" horiz-adv-x="452" 
d="M329 163h79q-7 -84 -54.5 -129t-129.5 -45q-81 0 -128 51t-47 142v165q0 90 48 141t129 51q83 0 131.5 -50.5t48.5 -141.5v-117h-277v-48q0 -116 97 -116q48 0 72.5 23t30.5 74zM227 464q-98 0 -98 -116v-53h199v53q0 116 -101 116z" />
    <glyph glyph-name="f" unicode="f" horiz-adv-x="297" 
d="M258 666q-89 0 -89 -103v-37h108v-71h-108v-455h-78v455h-79v71h79v37q0 82 42.5 128.5t124.5 46.5h30v-72h-30z" />
    <glyph glyph-name="g" unicode="g" horiz-adv-x="467" 
d="M345 526h60v-557q0 -74 -46.5 -118t-125.5 -44q-76 0 -122 42.5t-50 115.5h77q3 -41 27.5 -63t67.5 -22q44 0 68.5 23.5t24.5 65.5v91q-41 -41 -107 -41q-77 0 -123.5 51t-46.5 139v130q0 94 46 147t122 53t119 -60zM232 93q94 0 94 116v138q0 57 -26 87t-68 30
q-103 0 -103 -125v-130q0 -116 103 -116z" />
    <glyph glyph-name="h" unicode="h" horiz-adv-x="466" 
d="M266 539q143 0 143 -220v-319h-78v315q0 79 -21 114t-65 35q-48 0 -76.5 -37.5t-28.5 -104.5v-322h-78v721h78v-254q44 72 126 72z" />
    <glyph glyph-name="i" unicode="i" horiz-adv-x="203" 
d="M101 619q-25 0 -40 15t-15 39q0 25 15 40t40 15q24 0 39.5 -15t15.5 -40q0 -23 -15.5 -38.5t-39.5 -15.5zM62 0v526h79v-526h-79z" />
    <glyph glyph-name="j" unicode="j" horiz-adv-x="240" 
d="M123 618q-25 0 -40 15t-15 39q0 25 15 40t40 15q24 0 39.5 -15t15.5 -40q0 -23 -15.5 -38.5t-39.5 -15.5zM-17 -193v76q54 1 77.5 28.5t23.5 83.5v531h78v-529q0 -90 -44.5 -139.5t-134.5 -50.5z" />
    <glyph glyph-name="k" unicode="k" horiz-adv-x="433" 
d="M343 0l-158 254l-45 -50v-204h-78v724h78v-419l174 221h95l-171 -212l197 -314h-92z" />
    <glyph glyph-name="l" unicode="l" horiz-adv-x="203" 
d="M63 0v724h78v-724h-78z" />
    <glyph glyph-name="m" unicode="m" horiz-adv-x="719" 
d="M523 539q66 0 103 -52.5t37 -154.5v-332h-78v328q0 136 -80 136q-47 0 -75 -38t-28 -104v-322h-78v328q0 136 -82 136q-46 0 -74 -37.5t-28 -104.5v-322h-78v526h59l10 -63q42 76 128 76q91 0 125 -90q41 90 139 90z" />
    <glyph glyph-name="n" unicode="n" horiz-adv-x="466" 
d="M265 539q144 0 144 -206v-333h-78v327q0 71 -20.5 104t-65.5 33q-48 0 -76.5 -37.5t-28.5 -104.5v-322h-78v526h59l10 -62q44 75 134 75z" />
    <glyph glyph-name="o" unicode="o" horiz-adv-x="460" 
d="M230 -12q-84 0 -132.5 51t-48.5 144v161q0 93 48.5 144t132.5 51t132 -51t48 -144v-161q0 -93 -48 -144t-132 -51zM230 64q101 0 101 119v161q0 118 -101 118t-101 -118v-161q0 -119 101 -119z" />
    <glyph glyph-name="p" unicode="p" horiz-adv-x="465" 
d="M250 538q75 0 120.5 -53.5t45.5 -149.5v-147q0 -96 -44.5 -148t-121.5 -52q-67 0 -111 50v-218h-77v707h59l8 -49q45 60 121 60zM336 188v147q0 130 -100 130q-43 0 -70 -33t-27 -95v-149q0 -57 26 -91.5t71 -34.5q100 0 100 126z" />
    <glyph glyph-name="q" unicode="q" horiz-adv-x="465" 
d="M344 527h59v-707h-77v218q-44 -50 -111 -50q-77 0 -121.5 52t-44.5 148v147q0 96 45.5 149.5t120.5 53.5q76 0 121 -60zM229 62q45 0 71 34.5t26 91.5v149q0 62 -27 95t-70 33q-100 0 -100 -130v-147q0 -126 100 -126z" />
    <glyph glyph-name="r" unicode="r" horiz-adv-x="336" 
d="M268 538q32 0 54 -7v-80q-30 11 -66 11q-53 0 -84.5 -38.5t-31.5 -106.5v-317h-78v526h59l11 -65q43 77 136 77z" />
    <glyph glyph-name="s" unicode="s" horiz-adv-x="410" 
d="M210 -13q-83 0 -132 48t-50 124h78q1 -45 27.5 -71t75.5 -26q43 0 67 20.5t24 56.5q0 32 -27.5 53.5t-66 36t-77.5 31.5t-66.5 50.5t-27.5 83.5q0 66 45 105.5t120 39.5q78 0 122.5 -45t46.5 -120h-77q-1 43 -24.5 67.5t-67.5 24.5q-40 0 -63 -19.5t-23 -53.5
q0 -30 27.5 -50.5t66 -34t77.5 -31t66.5 -52.5t27.5 -87q0 -68 -46 -109.5t-123 -41.5z" />
    <glyph glyph-name="t" unicode="t" horiz-adv-x="307" 
d="M253 68h31v-74h-33q-75 0 -116.5 45t-41.5 124v291h-78v72h78v123h78v-123h102v-72h-102v-291q0 -95 82 -95z" />
    <glyph glyph-name="u" unicode="u" horiz-adv-x="466" 
d="M326 526h78v-526h-59l-10 62q-44 -75 -133 -75q-145 0 -145 206v333h78v-326q0 -72 20.5 -105t65.5 -33q48 0 76.5 37.5t28.5 104.5v322z" />
    <glyph glyph-name="v" unicode="v" horiz-adv-x="393" 
d="M153 0l-147 526h83l70 -271q17 -72 35 -158h5q18 86 35 158l70 271h83l-147 -526h-87z" />
    <glyph glyph-name="w" unicode="w" horiz-adv-x="623" 
d="M535 526h82l-128 -526h-86l-54 225q-29 119 -36 194h-3q-7 -75 -36 -194l-55 -225h-85l-128 526h82l56 -260q3 -13 32 -174h3q16 100 35 185l55 239h84l56 -239q23 -112 35 -185h3q12 78 32 174z" />
    <glyph glyph-name="x" unicode="x" horiz-adv-x="394" 
d="M392 0h-90l-105 201l-105 -201h-90l148 263l-139 263h88l98 -193l99 193h87l-138 -263z" />
    <glyph glyph-name="y" unicode="y" horiz-adv-x="402" 
d="M315 526h81l-174 -578q-22 -69 -52 -103.5t-84 -34.5h-43v76h30q30 0 46.5 19t27.5 56l27 90l-168 475h85l76 -222l42 -133l39 132z" />
    <glyph glyph-name="z" unicode="z" horiz-adv-x="362" 
d="M13 0v57l221 397h-208v72h305v-56l-221 -397h230v-73h-327z" />
    <glyph glyph-name="braceleft" unicode="{" horiz-adv-x="338" 
d="M203 488q0 -89 -67 -135q67 -46 67 -134v-170q0 -42 24 -68.5t62 -26.5v-74q-72 0 -117.5 48t-45.5 125v170q0 39 -21.5 62t-55.5 29v78q34 6 55.5 29t21.5 62v164q0 77 45.5 125t117.5 48v-74q-38 0 -62 -26t-24 -68v-164z" />
    <glyph glyph-name="bar" unicode="|" horiz-adv-x="203" 
d="M63 -89v887h77v-887h-77z" />
    <glyph glyph-name="braceright" unicode="}" horiz-adv-x="338" 
d="M212 478q0 -39 21.5 -62t55.5 -29v-78q-34 -6 -55.5 -29t-21.5 -62v-164q0 -77 -45.5 -125t-117.5 -48v74q38 0 62 26t24 68v164q0 89 67 135q-67 46 -67 134v170q0 42 -24 68t-62 26v75q72 0 117.5 -48t45.5 -125v-170z" />
    <glyph glyph-name="asciitilde" unicode="~" horiz-adv-x="465" 
d="M323 243q-33 0 -93 24t-82 24q-38 0 -63 -38l-41 55q41 56 97 56q33 0 93 -24t82 -24q38 0 63 37l42 -52q-40 -58 -98 -58z" />
    <glyph glyph-name="uni00A0" unicode="&#xa0;" horiz-adv-x="222" 
 />
    <glyph glyph-name="exclamdown" unicode="&#xa1;" horiz-adv-x="235" 
d="M118 429q-25 0 -39.5 15t-14.5 39t14.5 39t39.5 15q24 0 39 -15t15 -39t-15 -39t-39 -15zM78 -180v550h79v-550h-79z" />
    <glyph glyph-name="cent" unicode="&#xa2;" horiz-adv-x="430" 
d="M398 180q-1 -81 -39.5 -130.5t-106.5 -58.5v-65h-66v66q-65 11 -101 59.5t-36 128.5v165q0 79 36 127.5t101 59.5v66h66v-65q68 -9 106 -58t39 -130h-79q-1 57 -26 85.5t-70 28.5q-93 0 -93 -114v-165q0 -114 93 -114q96 0 97 114h79z" />
    <glyph glyph-name="sterling" unicode="&#xa3;" horiz-adv-x="475" 
d="M147 77h294v-77h-411v69q65 19 65 104v142h-66v71h66v132q0 87 46.5 140t121.5 53q76 0 123 -53t51 -145h-79q-8 121 -95 121q-41 0 -64.5 -30t-23.5 -85v-133h178v-71h-178v-138q0 -62 -28 -100z" />
    <glyph glyph-name="currency" unicode="&#xa4;" horiz-adv-x="471" 
d="M86 97l-48 38l52 65q-21 39 -21 93v65q0 54 21 93l-52 64l48 39l44 -55q42 34 106 34q63 0 105 -34l44 55l48 -39l-52 -64q21 -37 21 -93v-65q0 -55 -21 -94l52 -64l-48 -38l-44 55q-43 -35 -105 -35q-63 0 -105 35zM236 188q43 0 67 27.5t24 77.5v65q0 50 -24 77.5
t-67 27.5q-44 0 -68 -27.5t-24 -77.5v-65q0 -50 24 -77.5t68 -27.5z" />
    <glyph glyph-name="yen" unicode="&#xa5;" horiz-adv-x="435" 
d="M431 700l-152 -405h135v-56h-156v-61h156v-56h-156v-122h-82v122h-155v56h155v61h-155v56h134l-151 405h86l89 -251l38 -109h1l38 111l89 249h86z" />
    <glyph glyph-name="brokenbar" unicode="&#xa6;" horiz-adv-x="183" 
d="M53 501v297h77v-297h-77zM53 -74v297h77v-297h-77z" />
    <glyph glyph-name="section" unicode="&#xa7;" horiz-adv-x="417" 
d="M309 213q63 -44 63 -116q0 -68 -44.5 -109t-119.5 -41q-80 0 -127.5 47.5t-48.5 123.5h79q0 -44 25 -70t71 -26q41 0 63.5 20t22.5 56q0 31 -27 53t-66 37.5t-78 33.5t-66 52t-27 82q0 93 83 127q-65 43 -65 115q0 64 43 102t114 38q75 0 117 -44t44 -117h-77
q0 42 -21.5 65t-61.5 23q-37 0 -58.5 -18.5t-21.5 -48.5q0 -29 26.5 -50t64.5 -36.5t76.5 -34.5t65 -54.5t26.5 -84.5q0 -86 -75 -125zM229 260q36 4 56 23.5t20 47.5q0 37 -27.5 59.5t-79.5 44.5q-37 1 -63.5 -19.5t-26.5 -56.5q0 -32 29.5 -55t91.5 -44z" />
    <glyph glyph-name="copyright" unicode="&#xa9;" horiz-adv-x="707" 
d="M354 -11q-141 0 -220.5 85t-79.5 237v86q0 150 79.5 233t220.5 83t220 -83t79 -233v-86q0 -152 -79 -237t-220 -85zM354 45q116 0 178 69t62 197v86q0 125 -62 192.5t-178 67.5q-117 0 -179 -67.5t-62 -192.5v-86q0 -128 62 -197t179 -69zM352 147q-59 0 -94 37.5
t-35 103.5v126q0 66 35 103t94 37q60 0 95 -37t35 -103h-61q-1 80 -68 80q-68 0 -68 -80v-126q0 -80 68 -80q32 0 50.5 20t19.5 60h62q0 -66 -36 -103.5t-97 -37.5z" />
    <glyph glyph-name="guillemotleft" unicode="&#xab;" horiz-adv-x="452" 
d="M161 88l-119 152v34l119 152h79l-131 -169l131 -169h-79zM332 88l-120 152v34l120 152h78l-131 -169l131 -169h-78z" />
    <glyph glyph-name="logicalnot" unicode="&#xac;" horiz-adv-x="465" 
d="M349 195v77h-298v73h369v-150h-71z" />
    <glyph glyph-name="registered" unicode="&#xae;" horiz-adv-x="462" 
d="M234 713q83 0 130 -48.5t47 -136.5v-56q0 -91 -47 -141t-130 -50t-130 50t-47 141v56q0 88 47 136.5t130 48.5zM378 472v56q0 73 -37.5 113t-106.5 40q-68 0 -106 -40t-38 -113v-56q0 -76 37.5 -117.5t106.5 -41.5t106.5 41.5t37.5 117.5zM314 545q0 -62 -49 -76l56 -98
h-39l-52 94h-24v-94h-35v251h66q37 0 57 -20.5t20 -56.5zM206 587v-87h31q42 0 42 45q0 42 -42 42h-31z" />
    <glyph glyph-name="degree" unicode="&#xb0;" horiz-adv-x="315" 
d="M157 452q-57 0 -92 36t-35 94t35 94t92 36q58 0 93 -35.5t35 -94.5t-35 -94.5t-93 -35.5zM157 507q32 0 51.5 20.5t19.5 54.5t-19.5 54.5t-51.5 20.5q-31 0 -50.5 -20.5t-19.5 -54.5t19.5 -54.5t50.5 -20.5z" />
    <glyph glyph-name="plusminus" unicode="&#xb1;" horiz-adv-x="465" 
d="M269 391h145v-72h-145v-144h-73v144h-145v72h145v144h73v-144zM51 61v70h363v-70h-363z" />
    <glyph glyph-name="paragraph" unicode="&#xb6;" horiz-adv-x="585" 
d="M210 -93v479q-72 0 -116.5 42.5t-44.5 115.5q0 72 44.5 114.5t116.5 42.5h302v-794h-81v719h-140v-719h-81z" />
    <glyph glyph-name="periodcentered" unicode="&#xb7;" horiz-adv-x="188" 
d="M94 204q-24 0 -39 15t-15 39t15 39t39 15t39 -15t15 -39t-15 -39t-39 -15z" />
    <glyph glyph-name="guillemotright" unicode="&#xbb;" horiz-adv-x="452" 
d="M120 88h-78l131 169l-131 169h78l120 -152v-34zM291 88h-79l131 169l-131 169h79l119 -152v-34z" />
    <glyph glyph-name="questiondown" unicode="&#xbf;" horiz-adv-x="384" 
d="M205 429q-24 0 -39 15t-15 39t15 39t39 15t39 -15t15 -39t-15 -39t-39 -15zM197 -185q-75 0 -123.5 48.5t-48.5 125.5q0 47 14.5 84.5t35.5 63.5l42.5 51t36 58.5t14.5 74.5v49h78v-53q0 -48 -14.5 -86.5t-35.5 -64.5l-42 -50.5t-35.5 -56.5t-14.5 -70q0 -45 25.5 -73
t67.5 -28q43 0 68.5 29.5t26.5 83.5h78q-4 -86 -51 -136t-122 -50z" />
    <glyph glyph-name="Agrave" unicode="&#xc0;" horiz-adv-x="467" 
d="M282 769h-68l-107 119h82zM372 0l-37 152h-203l-37 -152h-86l180 700h89l180 -700h-86zM150 228h167l-57 237q-14 58 -25 131h-3q-11 -73 -25 -131z" />
    <glyph glyph-name="Aacute" unicode="&#xc1;" horiz-adv-x="467" 
d="M354 888l-107 -119h-68l92 119h83zM372 0l-37 152h-203l-37 -152h-86l180 700h89l180 -700h-86zM150 228h167l-57 237q-14 58 -25 131h-3q-11 -73 -25 -131z" />
    <glyph glyph-name="Acircumflex" unicode="&#xc2;" horiz-adv-x="467" 
d="M233 839l-54 -70h-65l81 119h74l81 -119h-64zM372 0l-37 152h-203l-37 -152h-86l180 700h89l180 -700h-86zM150 228h167l-57 237q-14 58 -25 131h-3q-11 -73 -25 -131z" />
    <glyph glyph-name="Atilde" unicode="&#xc3;" horiz-adv-x="467" 
d="M200 823q-18 0 -21 -28h-60q2 39 22 62t52 23q23 0 46 -15.5t32 -15.5q21 0 24 28h57q-4 -40 -23.5 -62.5t-50.5 -22.5q-22 0 -45.5 15.5t-32.5 15.5zM372 0l-37 152h-203l-37 -152h-86l180 700h89l180 -700h-86zM150 228h167l-57 237q-14 58 -25 131h-3
q-11 -73 -25 -131z" />
    <glyph glyph-name="Adieresis" unicode="&#xc4;" horiz-adv-x="467" 
d="M163 785q-20 0 -32.5 12t-12.5 32q0 21 12.5 33t32.5 12t32 -12t12 -33q0 -20 -12 -32t-32 -12zM301 785q-20 0 -33 12t-13 32q0 21 12.5 33t33.5 12q20 0 32.5 -12t12.5 -33q0 -20 -12.5 -32t-32.5 -12zM372 0l-37 152h-203l-37 -152h-86l180 700h89l180 -700h-86z
M150 228h167l-57 237q-14 58 -25 131h-3q-11 -73 -25 -131z" />
    <glyph glyph-name="Aring" unicode="&#xc5;" horiz-adv-x="467" 
d="M233 764q-34 0 -54.5 20.5t-20.5 53.5q0 32 20.5 52t54.5 20t55 -20t21 -52q0 -33 -21 -53.5t-55 -20.5zM233 869q-14 0 -22.5 -9t-8.5 -23q0 -31 31 -31q14 0 23 8.5t9 22.5t-9 23t-23 9zM372 0l-37 152h-203l-37 -152h-86l180 700h89l180 -700h-86zM150 228h167
l-57 237q-14 58 -25 131h-3q-11 -73 -25 -131z" />
    <glyph glyph-name="AE" unicode="&#xc6;" horiz-adv-x="702" 
d="M415 77h248v-77h-330v167h-175l-68 -167h-90l296 700h356v-76h-237v-231h219v-75h-219v-241zM190 243h143v367h-1q-25 -77 -46 -132z" />
    <glyph glyph-name="Ccedilla" unicode="&#xc7;" horiz-adv-x="486" 
d="M455 196q-5 -93 -52 -146.5t-128 -60.5l-11 -38h13q29 0 50 -18.5t21 -47.5q0 -37 -26.5 -58.5t-69.5 -21.5q-38 0 -64 20.5t-30 55.5h55q8 -26 40 -26q40 0 40 32q0 30 -37 30q-18 0 -32 -7l-17 17l18 62q-79 8 -125 63.5t-46 149.5v296q0 102 53 158.5t142 56.5
q91 0 143.5 -54t57.5 -155h-81q-9 132 -121 132q-52 0 -82 -35t-30 -103v-296q0 -68 31 -102.5t84 -34.5q111 0 123 131h81z" />
    <glyph glyph-name="Egrave" unicode="&#xc8;" horiz-adv-x="458" 
d="M295 769h-68l-107 119h82zM155 77h264v-77h-346v700h335v-76h-253v-231h235v-75h-235v-241z" />
    <glyph glyph-name="Eacute" unicode="&#xc9;" horiz-adv-x="458" 
d="M341 888l-107 -119h-68l93 119h82zM155 77h264v-77h-346v700h335v-76h-253v-231h235v-75h-235v-241z" />
    <glyph glyph-name="Ecircumflex" unicode="&#xca;" horiz-adv-x="458" 
d="M246 839l-54 -70h-65l81 119h74l81 -119h-64zM155 77h264v-77h-346v700h335v-76h-253v-231h235v-75h-235v-241z" />
    <glyph glyph-name="Edieresis" unicode="&#xcb;" horiz-adv-x="458" 
d="M176 785q-20 0 -32.5 12t-12.5 32q0 21 12.5 33t32.5 12t32 -12t12 -33q0 -20 -12 -32t-32 -12zM314 785q-20 0 -33 12t-13 32q0 21 12.5 33t33.5 12q20 0 32.5 -12t12.5 -33q0 -20 -12.5 -32t-32.5 -12zM155 77h264v-77h-346v700h335v-76h-253v-231h235v-75h-235v-241z
" />
    <glyph glyph-name="Igrave" unicode="&#xcc;" horiz-adv-x="229" 
d="M166 769h-68l-107 119h82zM73 0v700h82v-700h-82z" />
    <glyph glyph-name="Iacute" unicode="&#xcd;" horiz-adv-x="229" 
d="M63 769l92 119h83l-107 -119h-68zM73 0v700h82v-700h-82z" />
    <glyph glyph-name="Icircumflex" unicode="&#xce;" horiz-adv-x="229" 
d="M153 888l81 -119h-64l-53 70l-54 -70h-65l81 119h74zM73 0v700h82v-700h-82z" />
    <glyph glyph-name="Idieresis" unicode="&#xcf;" horiz-adv-x="241" 
d="M59 785q-20 0 -32.5 12t-12.5 32q0 21 12.5 33t32.5 12t32.5 -12t12.5 -33q0 -20 -12.5 -32t-32.5 -12zM183 785q-21 0 -33.5 12t-12.5 32q0 21 12.5 33t33.5 12q20 0 32.5 -12t12.5 -33q0 -20 -12.5 -32t-32.5 -12zM78 0v700h82v-700h-82z" />
    <glyph glyph-name="Eth" unicode="&#xd0;" horiz-adv-x="518" 
d="M249 700q102 0 158.5 -54t56.5 -153v-286q0 -98 -57 -152.5t-157 -54.5h-165v325h-75v62h75v313h164zM381 210v281q0 131 -129 131h-85v-235h92v-62h-92v-247h85q129 0 129 132z" />
    <glyph glyph-name="Ntilde" unicode="&#xd1;" horiz-adv-x="548" 
d="M320 792q-22 0 -45.5 15.5t-32.5 15.5q-18 0 -21 -28h-60q2 39 22 62t52 23q23 0 46 -15.5t32 -15.5q21 0 24 28h57q-4 -40 -23.5 -62.5t-50.5 -22.5zM73 0v700h83l175 -382q34 -72 70 -163l3 1q-11 134 -11 220v324h81v-700h-83l-172 376q-36 81 -69 170l-3 -1
q8 -124 8 -215v-330h-82z" />
    <glyph glyph-name="Ograve" unicode="&#xd2;" horiz-adv-x="523" 
d="M311 769h-68l-107 119h82zM262 -13q-97 0 -152.5 62.5t-55.5 170.5v261q0 108 55.5 170t152.5 62t152 -62t55 -170v-261q0 -108 -55 -170.5t-152 -62.5zM262 67q60 0 91.5 39.5t31.5 113.5v261q0 73 -31.5 112.5t-91.5 39.5q-61 0 -92.5 -39.5t-31.5 -112.5v-261
q0 -74 31.5 -113.5t92.5 -39.5z" />
    <glyph glyph-name="Oacute" unicode="&#xd3;" horiz-adv-x="523" 
d="M208 769l92 119h83l-107 -119h-68zM262 -13q-97 0 -152.5 62.5t-55.5 170.5v261q0 108 55.5 170t152.5 62t152 -62t55 -170v-261q0 -108 -55 -170.5t-152 -62.5zM262 67q60 0 91.5 39.5t31.5 113.5v261q0 73 -31.5 112.5t-91.5 39.5q-61 0 -92.5 -39.5t-31.5 -112.5v-261
q0 -74 31.5 -113.5t92.5 -39.5z" />
    <glyph glyph-name="Ocircumflex" unicode="&#xd4;" horiz-adv-x="523" 
d="M262 839l-54 -70h-65l81 119h74l81 -119h-64zM262 713q97 0 152 -62t55 -170v-261q0 -108 -55 -170.5t-152 -62.5t-152.5 62.5t-55.5 170.5v261q0 108 55.5 170t152.5 62zM385 220v261q0 73 -31.5 112.5t-91.5 39.5q-61 0 -92.5 -39.5t-31.5 -112.5v-261
q0 -74 31.5 -113.5t92.5 -39.5q60 0 91.5 39.5t31.5 113.5z" />
    <glyph glyph-name="Otilde" unicode="&#xd5;" horiz-adv-x="523" 
d="M307 792q-22 0 -45.5 15.5t-32.5 15.5q-18 0 -21 -28h-60q2 39 22 62t52 23q23 0 46 -15.5t32 -15.5q21 0 24 28h57q-4 -40 -23.5 -62.5t-50.5 -22.5zM262 -13q-97 0 -152.5 62.5t-55.5 170.5v261q0 108 55.5 170t152.5 62t152 -62t55 -170v-261q0 -108 -55 -170.5
t-152 -62.5zM262 67q60 0 91.5 39.5t31.5 113.5v261q0 73 -31.5 112.5t-91.5 39.5q-61 0 -92.5 -39.5t-31.5 -112.5v-261q0 -74 31.5 -113.5t92.5 -39.5z" />
    <glyph glyph-name="Odieresis" unicode="&#xd6;" horiz-adv-x="523" 
d="M193 785q-20 0 -32.5 12t-12.5 32q0 21 12.5 33t32.5 12t32 -12t12 -33q0 -20 -12 -32t-32 -12zM331 785q-20 0 -33 12t-13 32q0 21 12.5 33t33.5 12q20 0 32.5 -12t12.5 -33q0 -20 -12.5 -32t-32.5 -12zM262 -13q-97 0 -152.5 62.5t-55.5 170.5v261q0 108 55.5 170
t152.5 62t152 -62t55 -170v-261q0 -108 -55 -170.5t-152 -62.5zM262 67q60 0 91.5 39.5t31.5 113.5v261q0 73 -31.5 112.5t-91.5 39.5q-61 0 -92.5 -39.5t-31.5 -112.5v-261q0 -74 31.5 -113.5t92.5 -39.5z" />
    <glyph glyph-name="multiply" unicode="&#xd7;" horiz-adv-x="456" 
d="M93 113l-52 52l136 135l-136 135l51 53l137 -136l136 136l51 -53l-135 -135l135 -135l-51 -52l-136 136z" />
    <glyph glyph-name="Oslash" unicode="&#xd8;" horiz-adv-x="519" 
d="M395 665q70 -62 70 -185v-260q0 -108 -54.5 -170t-150.5 -62q-36 0 -68 9l-18 -59h-71l28 91q-77 62 -77 191v260q0 108 55 170t151 62q42 0 75 -12l19 62h71zM138 220q0 -60 21 -98l153 501q-21 10 -52 10q-60 0 -91 -40t-31 -113v-260zM381 220v260q0 52 -15 87
l-150 -492q18 -7 44 -7q59 0 90 39.5t31 112.5z" />
    <glyph glyph-name="Ugrave" unicode="&#xd9;" horiz-adv-x="521" 
d="M310 769h-68l-107 119h82zM260 -10q-90 0 -144 57.5t-54 161.5v491h83v-491q0 -69 30.5 -104t84.5 -35t85 35t31 104v491h83v-491q0 -105 -54 -162t-145 -57z" />
    <glyph glyph-name="Uacute" unicode="&#xda;" horiz-adv-x="521" 
d="M207 769l92 119h83l-107 -119h-68zM260 -10q-90 0 -144 57.5t-54 161.5v491h83v-491q0 -69 30.5 -104t84.5 -35t85 35t31 104v491h83v-491q0 -105 -54 -162t-145 -57z" />
    <glyph glyph-name="Ucircumflex" unicode="&#xdb;" horiz-adv-x="521" 
d="M261 839l-54 -70h-65l81 119h74l81 -119h-64zM376 700h83v-491q0 -105 -54 -162t-145 -57q-90 0 -144 57.5t-54 161.5v491h83v-491q0 -69 30.5 -104t84.5 -35t85 35t31 104v491z" />
    <glyph glyph-name="Udieresis" unicode="&#xdc;" horiz-adv-x="521" 
d="M192 785q-20 0 -32.5 12t-12.5 32q0 21 12.5 33t32.5 12t32 -12t12 -33q0 -20 -12 -32t-32 -12zM330 785q-20 0 -33 12t-13 32q0 21 12.5 33t33.5 12q20 0 32.5 -12t12.5 -33q0 -20 -12.5 -32t-32.5 -12zM260 -10q-90 0 -144 57.5t-54 161.5v491h83v-491q0 -69 30.5 -104
t84.5 -35t85 35t31 104v491h83v-491q0 -105 -54 -162t-145 -57z" />
    <glyph glyph-name="Yacute" unicode="&#xdd;" horiz-adv-x="435" 
d="M164 769l92 119h83l-107 -119h-68zM176 0v240l-172 460h86l89 -251l38 -109h1l38 111l89 249h86l-173 -460v-240h-82z" />
    <glyph glyph-name="Thorn" unicode="&#xde;" horiz-adv-x="479" 
d="M250 584q100 0 154 -58t54 -163q0 -108 -54 -166t-154 -58h-95v-139h-82v700h82v-116h95zM250 217q125 0 125 146q0 143 -125 143h-95v-289h95z" />
    <glyph glyph-name="germandbls" unicode="&#xdf;" horiz-adv-x="471" 
d="M338 366q47 -18 74 -62.5t27 -107.5q0 -92 -51.5 -144t-140.5 -52h-55v78h49q58 0 86 29t28 91q0 125 -113 125h-50v76h37q101 0 101 118q0 119 -95 119q-92 0 -92 -126v-510h-81v510q0 95 45.5 149t128.5 54q82 0 129 -53.5t47 -143.5q0 -55 -20 -94t-54 -56z" />
    <glyph glyph-name="agrave" unicode="&#xe0;" horiz-adv-x="451" 
d="M279 610h-67l-89 119h81zM223 539q79 0 122.5 -48t43.5 -134v-357h-65l-7 51q-42 -64 -119 -64q-73 0 -118.5 44t-45.5 119q0 77 49 118t137 41h90v47q0 107 -89 107q-39 0 -64 -21t-28 -60h-79q3 72 50 114.5t123 42.5zM310 160v81h-91q-105 0 -105 -92q0 -43 26.5 -66
t72.5 -23q45 0 71 27t26 73z" />
    <glyph glyph-name="aacute" unicode="&#xe1;" horiz-adv-x="451" 
d="M322 729l-89 -119h-67l75 119h81zM223 539q79 0 122.5 -48t43.5 -134v-357h-65l-7 51q-42 -64 -119 -64q-73 0 -118.5 44t-45.5 119q0 77 49 118t137 41h90v47q0 107 -89 107q-39 0 -64 -21t-28 -60h-79q3 72 50 114.5t123 42.5zM310 160v81h-91q-105 0 -105 -92
q0 -43 26.5 -66t72.5 -23q45 0 71 27t26 73z" />
    <glyph glyph-name="acircumflex" unicode="&#xe2;" horiz-adv-x="451" 
d="M222 679l-54 -70h-64l81 119h73l81 -119h-64zM223 539q79 0 122.5 -48t43.5 -134v-357h-65l-7 51q-42 -64 -119 -64q-73 0 -118.5 44t-45.5 119q0 77 49 118t137 41h90v47q0 107 -89 107q-39 0 -64 -21t-28 -60h-79q3 72 50 114.5t123 42.5zM310 160v81h-91
q-105 0 -105 -92q0 -43 26.5 -66t72.5 -23q45 0 71 27t26 73z" />
    <glyph glyph-name="atilde" unicode="&#xe3;" horiz-adv-x="451" 
d="M186 652q-18 0 -21 -28h-60q2 40 22 62.5t52 22.5q23 0 46 -15.5t32 -15.5q21 0 24 28h57q-4 -39 -23.5 -62t-50.5 -23q-22 0 -45.5 15.5t-32.5 15.5zM223 539q79 0 122.5 -48t43.5 -134v-357h-65l-7 51q-42 -64 -119 -64q-73 0 -118.5 44t-45.5 119q0 77 49 118t137 41
h90v47q0 107 -89 107q-39 0 -64 -21t-28 -60h-79q3 72 50 114.5t123 42.5zM310 160v81h-91q-105 0 -105 -92q0 -43 26.5 -66t72.5 -23q45 0 71 27t26 73z" />
    <glyph glyph-name="adieresis" unicode="&#xe4;" horiz-adv-x="451" 
d="M157 627q-20 0 -32.5 12t-12.5 33q0 20 12.5 32t32.5 12t32.5 -12t12.5 -32q0 -21 -12.5 -33t-32.5 -12zM286 627q-21 0 -33.5 12t-12.5 33q0 20 13 32t33 12q21 0 33.5 -12t12.5 -32q0 -21 -12.5 -33t-33.5 -12zM223 539q79 0 122.5 -48t43.5 -134v-357h-65l-7 51
q-42 -64 -119 -64q-73 0 -118.5 44t-45.5 119q0 77 49 118t137 41h90v47q0 107 -89 107q-39 0 -64 -21t-28 -60h-79q3 72 50 114.5t123 42.5zM310 160v81h-91q-105 0 -105 -92q0 -43 26.5 -66t72.5 -23q45 0 71 27t26 73z" />
    <glyph glyph-name="aring" unicode="&#xe5;" horiz-adv-x="451" 
d="M222 606q-34 0 -55 20.5t-21 53.5q0 32 21 52.5t55 20.5t54.5 -20.5t20.5 -52.5q0 -33 -20.5 -53.5t-54.5 -20.5zM222 711q-14 0 -23 -9t-9 -23t9 -22.5t23 -8.5t22.5 8.5t8.5 22.5t-8.5 23t-22.5 9zM223 539q79 0 122.5 -48t43.5 -134v-357h-65l-7 51q-42 -64 -119 -64
q-73 0 -118.5 44t-45.5 119q0 77 49 118t137 41h90v47q0 107 -89 107q-39 0 -64 -21t-28 -60h-79q3 72 50 114.5t123 42.5zM310 160v81h-91q-105 0 -105 -92q0 -43 26.5 -66t72.5 -23q45 0 71 27t26 73z" />
    <glyph glyph-name="ae" unicode="&#xe6;" horiz-adv-x="692" 
d="M569 170h79q-2 -85 -49 -133t-126 -48q-88 0 -133 69q-39 -68 -145 -68q-72 0 -116.5 44t-44.5 116q0 77 49.5 116t140.5 39h79v58q0 47 -21 73t-62 26q-40 0 -64 -20.5t-27 -59.5h-79q3 72 49.5 114.5t122.5 42.5q82 0 123 -67q44 67 128 67q80 0 126 -50.5t46 -141.5
v-108h-264v-57q0 -116 92 -116q93 0 96 104zM381 348v-47h186v47q0 116 -94 116q-92 0 -92 -116zM303 151v86h-80q-109 0 -109 -88q0 -43 26 -66t73 -23q42 0 66 25t24 66z" />
    <glyph glyph-name="ccedilla" unicode="&#xe7;" horiz-adv-x="435" 
d="M403 180q-2 -84 -44 -133.5t-114 -56.5l-11 -39h13q29 0 50 -18.5t21 -47.5q0 -37 -26.5 -58.5t-69.5 -21.5q-38 0 -64 20.5t-30 55.5h55q8 -26 40 -26q40 0 40 32q0 30 -37 30q-18 0 -32 -7l-17 17l18 64q-68 8 -107 57.5t-39 131.5v169q0 90 47 140t127 50
q83 0 130 -49.5t49 -140.5h-79q-4 114 -100 114q-94 0 -94 -114v-169q0 -114 94 -114q97 0 101 114h79z" />
    <glyph glyph-name="egrave" unicode="&#xe8;" horiz-adv-x="452" 
d="M282 606h-67l-89 119h81zM329 163h79q-7 -84 -54.5 -129t-129.5 -45q-81 0 -128 51t-47 142v165q0 90 48 141t129 51q83 0 131.5 -50.5t48.5 -141.5v-117h-277v-48q0 -116 97 -116q48 0 72.5 23t30.5 74zM227 464q-98 0 -98 -116v-53h199v53q0 116 -101 116z" />
    <glyph glyph-name="eacute" unicode="&#xe9;" horiz-adv-x="452" 
d="M325 725l-89 -119h-67l75 119h81zM329 163h79q-7 -84 -54.5 -129t-129.5 -45q-81 0 -128 51t-47 142v165q0 90 48 141t129 51q83 0 131.5 -50.5t48.5 -141.5v-117h-277v-48q0 -116 97 -116q48 0 72.5 23t30.5 74zM227 464q-98 0 -98 -116v-53h199v53q0 116 -101 116z" />
    <glyph glyph-name="ecircumflex" unicode="&#xea;" horiz-adv-x="452" 
d="M225 675l-54 -70h-64l81 119h73l81 -119h-64zM329 163h79q-7 -84 -54.5 -129t-129.5 -45q-81 0 -128 51t-47 142v165q0 90 48 141t129 51q83 0 131.5 -50.5t48.5 -141.5v-117h-277v-48q0 -116 97 -116q48 0 72.5 23t30.5 74zM227 464q-98 0 -98 -116v-53h199v53
q0 116 -101 116z" />
    <glyph glyph-name="edieresis" unicode="&#xeb;" horiz-adv-x="452" 
d="M160 623q-20 0 -32.5 12t-12.5 33q0 20 12.5 32t32.5 12t32.5 -12t12.5 -32q0 -21 -12.5 -33t-32.5 -12zM289 623q-21 0 -33.5 12t-12.5 33q0 20 13 32t33 12q21 0 33.5 -12t12.5 -32q0 -21 -12.5 -33t-33.5 -12zM329 163h79q-7 -84 -54.5 -129t-129.5 -45q-81 0 -128 51
t-47 142v165q0 90 48 141t129 51q83 0 131.5 -50.5t48.5 -141.5v-117h-277v-48q0 -116 97 -116q48 0 72.5 23t30.5 74zM227 464q-98 0 -98 -116v-53h199v53q0 116 -101 116z" />
    <glyph glyph-name="igrave" unicode="&#xec;" horiz-adv-x="203" 
d="M159 610h-67l-89 119h81zM62 0v526h79v-526h-79z" />
    <glyph glyph-name="iacute" unicode="&#xed;" horiz-adv-x="203" 
d="M46 610l75 119h81l-89 -119h-67zM62 0v526h79v-526h-79z" />
    <glyph glyph-name="icircumflex" unicode="&#xee;" horiz-adv-x="231" 
d="M152 728l78 -119h-63l-51 70l-51 -70h-63l77 119h73zM76 0v526h79v-526h-79z" />
    <glyph glyph-name="idieresis" unicode="&#xef;" horiz-adv-x="217" 
d="M48 628q-20 0 -32 11.5t-12 31.5t12 32t32 12t31.5 -12t11.5 -32t-11.5 -31.5t-31.5 -11.5zM169 628q-20 0 -32.5 11.5t-12.5 31.5t12.5 32t32.5 12t32 -12t12 -32t-12 -31.5t-32 -11.5zM69 0v526h78v-526h-78z" />
    <glyph glyph-name="eth" unicode="&#xf0;" horiz-adv-x="453" 
d="M335 628q68 -85 68 -205v-239q0 -93 -47.5 -144t-130.5 -51q-81 0 -128.5 51t-47.5 144v133q0 92 45.5 143t119.5 51q65 0 107 -40q-9 71 -55 121l-79 -41l-17 35l65 34q-38 30 -93 47l26 67q82 -22 139 -76l69 36l17 -35zM323 184v133q0 59 -25.5 88.5t-71.5 29.5
q-97 0 -97 -118v-133q0 -118 96 -118q98 0 98 118z" />
    <glyph glyph-name="ntilde" unicode="&#xf1;" horiz-adv-x="466" 
d="M197 649q-18 0 -21 -28h-60q2 40 22 62.5t52 22.5q23 0 46 -15.5t32 -15.5q21 0 24 28h57q-4 -39 -23.5 -62t-50.5 -23q-22 0 -45.5 15.5t-32.5 15.5zM265 539q144 0 144 -206v-333h-78v327q0 71 -20.5 104t-65.5 33q-48 0 -76.5 -37.5t-28.5 -104.5v-322h-78v526h59
l10 -62q44 75 134 75z" />
    <glyph glyph-name="ograve" unicode="&#xf2;" horiz-adv-x="460" 
d="M287 610h-67l-89 119h81zM230 -12q-84 0 -132.5 51t-48.5 144v161q0 93 48.5 144t132.5 51t132 -51t48 -144v-161q0 -93 -48 -144t-132 -51zM230 64q101 0 101 119v161q0 118 -101 118t-101 -118v-161q0 -119 101 -119z" />
    <glyph glyph-name="oacute" unicode="&#xf3;" horiz-adv-x="460" 
d="M174 610l75 119h81l-89 -119h-67zM230 -12q-84 0 -132.5 51t-48.5 144v161q0 93 48.5 144t132.5 51t132 -51t48 -144v-161q0 -93 -48 -144t-132 -51zM230 64q101 0 101 119v161q0 118 -101 118t-101 -118v-161q0 -119 101 -119z" />
    <glyph glyph-name="ocircumflex" unicode="&#xf4;" horiz-adv-x="460" 
d="M230 679l-54 -70h-64l81 119h73l81 -119h-64zM230 539q84 0 132 -51t48 -144v-161q0 -93 -48 -144t-132 -51t-132.5 51t-48.5 144v161q0 93 48.5 144t132.5 51zM331 183v161q0 118 -101 118t-101 -118v-161q0 -119 101 -119t101 119z" />
    <glyph glyph-name="otilde" unicode="&#xf5;" horiz-adv-x="460" 
d="M272 621q-22 0 -45.5 15.5t-32.5 15.5q-18 0 -21 -28h-60q2 40 22 62.5t52 22.5q23 0 46 -15.5t32 -15.5q21 0 24 28h57q-4 -39 -23.5 -62t-50.5 -23zM230 -12q-84 0 -132.5 51t-48.5 144v161q0 93 48.5 144t132.5 51t132 -51t48 -144v-161q0 -93 -48 -144t-132 -51z
M230 64q101 0 101 119v161q0 118 -101 118t-101 -118v-161q0 -119 101 -119z" />
    <glyph glyph-name="odieresis" unicode="&#xf6;" horiz-adv-x="460" 
d="M165 627q-20 0 -32.5 12t-12.5 33q0 20 12.5 32t32.5 12t32.5 -12t12.5 -32q0 -21 -12.5 -33t-32.5 -12zM294 627q-21 0 -33.5 12t-12.5 33q0 20 13 32t33 12q21 0 33.5 -12t12.5 -32q0 -21 -12.5 -33t-33.5 -12zM230 -12q-84 0 -132.5 51t-48.5 144v161q0 93 48.5 144
t132.5 51t132 -51t48 -144v-161q0 -93 -48 -144t-132 -51zM230 64q101 0 101 119v161q0 118 -101 118t-101 -118v-161q0 -119 101 -119z" />
    <glyph glyph-name="divide" unicode="&#xf7;" horiz-adv-x="452" 
d="M226 402q-22 0 -37 15t-15 37q0 23 14.5 38t37.5 15t38 -15t15 -38q0 -22 -15.5 -37t-37.5 -15zM45 272v71h362v-71h-362zM226 101q-22 0 -37 14.5t-15 37.5t15 37.5t37 14.5q23 0 38 -15t15 -37t-15 -37t-38 -15z" />
    <glyph glyph-name="oslash" unicode="&#xf8;" horiz-adv-x="460" 
d="M354 496q56 -51 56 -152v-159q0 -93 -48 -144.5t-132 -51.5q-40 0 -73 12l-26 -65h-62l38 95q-58 52 -58 154v159q0 93 48.5 144t132.5 51q42 0 74 -13l26 65h62zM129 185q0 -41 12 -68l134 337q-21 8 -45 8q-101 0 -101 -118v-159zM331 185v159q0 38 -11 65l-134 -335
q21 -8 44 -8q101 0 101 119z" />
    <glyph glyph-name="ugrave" unicode="&#xf9;" horiz-adv-x="466" 
d="M289 606h-67l-89 119h81zM326 526h78v-526h-59l-10 62q-44 -75 -133 -75q-145 0 -145 206v333h78v-326q0 -72 20.5 -105t65.5 -33q48 0 76.5 37.5t28.5 104.5v322z" />
    <glyph glyph-name="uacute" unicode="&#xfa;" horiz-adv-x="466" 
d="M331 725l-89 -119h-67l75 119h81zM326 526h78v-526h-59l-10 62q-44 -75 -133 -75q-145 0 -145 206v333h78v-326q0 -72 20.5 -105t65.5 -33q48 0 76.5 37.5t28.5 104.5v322z" />
    <glyph glyph-name="ucircumflex" unicode="&#xfb;" horiz-adv-x="466" 
d="M232 675l-54 -70h-64l81 119h73l81 -119h-64zM326 526h78v-526h-59l-10 62q-44 -75 -133 -75q-145 0 -145 206v333h78v-326q0 -72 20.5 -105t65.5 -33q48 0 76.5 37.5t28.5 104.5v322z" />
    <glyph glyph-name="udieresis" unicode="&#xfc;" horiz-adv-x="466" 
d="M166 623q-20 0 -32.5 12t-12.5 33q0 20 12.5 32t32.5 12t32.5 -12t12.5 -32q0 -21 -12.5 -33t-32.5 -12zM295 623q-21 0 -33.5 12t-12.5 33q0 20 13 32t33 12q21 0 33.5 -12t12.5 -32q0 -21 -12.5 -33t-33.5 -12zM326 526h78v-526h-59l-10 62q-44 -75 -133 -75
q-145 0 -145 206v333h78v-326q0 -72 20.5 -105t65.5 -33q48 0 76.5 37.5t28.5 104.5v322z" />
    <glyph glyph-name="yacute" unicode="&#xfd;" horiz-adv-x="402" 
d="M306 730l-89 -119h-67l75 119h81zM315 526h81l-174 -578q-22 -69 -52 -103.5t-84 -34.5h-43v76h30q30 0 46.5 19t27.5 56l27 90l-168 475h85l76 -222l42 -133l39 132z" />
    <glyph glyph-name="thorn" unicode="&#xfe;" horiz-adv-x="461" 
d="M250 539q76 0 119 -52t43 -148v-136q0 -96 -43 -148t-119 -52q-69 0 -111 50v-233h-77v901h77v-232q42 50 111 50zM332 203v136q0 126 -96 126q-45 0 -71 -34.5t-26 -91.5v-136q0 -57 26 -91.5t71 -34.5q96 0 96 126z" />
    <glyph glyph-name="ydieresis" unicode="&#xff;" horiz-adv-x="402" 
d="M141 628q-20 0 -32.5 12t-12.5 33q0 20 12.5 32t32.5 12t32.5 -12t12.5 -32q0 -21 -12.5 -33t-32.5 -12zM270 628q-21 0 -33.5 12t-12.5 33q0 20 13 32t33 12q21 0 33.5 -12t12.5 -32q0 -21 -12.5 -33t-33.5 -12zM315 526h81l-174 -578q-22 -69 -52 -103.5t-84 -34.5h-43
v76h30q30 0 46.5 19t27.5 56l27 90l-168 475h85l76 -222l42 -133l39 132z" />
    <glyph glyph-name="Amacron" unicode="&#x100;" horiz-adv-x="467" 
d="M330 856v-61h-193v61h193zM372 0l-37 152h-203l-37 -152h-86l180 700h89l180 -700h-86zM150 228h167l-57 237q-14 58 -25 131h-3q-11 -73 -25 -131z" />
    <glyph glyph-name="amacron" unicode="&#x101;" horiz-adv-x="451" 
d="M318 697v-60h-193v60h193zM223 539q79 0 122.5 -48t43.5 -134v-357h-65l-7 51q-42 -64 -119 -64q-73 0 -118.5 44t-45.5 119q0 77 49 118t137 41h90v47q0 107 -89 107q-39 0 -64 -21t-28 -60h-79q3 72 50 114.5t123 42.5zM310 160v81h-91q-105 0 -105 -92q0 -43 26.5 -66
t72.5 -23q45 0 71 27t26 73z" />
    <glyph glyph-name="Abreve" unicode="&#x102;" horiz-adv-x="467" 
d="M234 767q-53 0 -84 31t-33 87h60q5 -60 56 -60q53 0 56 60h61q-2 -56 -33 -87t-83 -31zM372 0l-37 152h-203l-37 -152h-86l180 700h89l180 -700h-86zM150 228h167l-57 237q-14 58 -25 131h-3q-11 -73 -25 -131z" />
    <glyph glyph-name="abreve" unicode="&#x103;" horiz-adv-x="451" 
d="M223 608q-53 0 -84 31t-33 87h60q5 -59 56 -59q53 0 56 59h61q-2 -56 -33 -87t-83 -31zM223 539q79 0 122.5 -48t43.5 -134v-357h-65l-7 51q-42 -64 -119 -64q-73 0 -118.5 44t-45.5 119q0 77 49 118t137 41h90v47q0 107 -89 107q-39 0 -64 -21t-28 -60h-79
q3 72 50 114.5t123 42.5zM310 160v81h-91q-105 0 -105 -92q0 -43 26.5 -66t72.5 -23q45 0 71 27t26 73z" />
    <glyph glyph-name="Aogonek" unicode="&#x104;" horiz-adv-x="468" 
d="M387 -93q0 -33 36 -33q22 0 31 3v-62q-20 -8 -51 -8q-45 0 -67.5 23.5t-22.5 58.5q0 60 59 111l-37 152h-203l-37 -152h-86l180 700h89l180 -700h-16q-24 -19 -39.5 -46t-15.5 -47zM150 228h167l-57 237q-14 58 -25 131h-3q-11 -73 -25 -131z" />
    <glyph glyph-name="aogonek" unicode="&#x105;" horiz-adv-x="452" 
d="M340 -193q-44 0 -66.5 24t-22.5 59q0 58 73 110l-5 49q-41 -62 -121 -62q-73 0 -118.5 44t-45.5 119q0 77 49.5 118.5t137.5 41.5h90v46q0 107 -90 107q-39 0 -64 -21t-28 -60h-79q3 72 50 114.5t123 42.5q80 0 123.5 -48t43.5 -134v-357q-30 -20 -48.5 -46t-18.5 -48
q0 -33 35 -33q20 0 32 4v-62q-20 -8 -50 -8zM214 60q45 0 71 25.5t26 67.5v87h-91q-51 0 -78.5 -23.5t-27.5 -67.5q0 -43 26.5 -66t73.5 -23z" />
    <glyph glyph-name="Cacute" unicode="&#x106;" horiz-adv-x="486" 
d="M191 769l92 119h83l-107 -119h-68zM251 -12q-90 0 -143.5 56t-53.5 158v296q0 102 53 158.5t142 56.5q91 0 143.5 -54t57.5 -155h-81q-9 132 -121 132q-52 0 -82 -35t-30 -103v-296q0 -68 31 -102.5t84 -34.5q111 0 123 131h81q-6 -100 -59 -154t-145 -54z" />
    <glyph glyph-name="cacute" unicode="&#x107;" horiz-adv-x="435" 
d="M169 610l75 119h81l-89 -119h-67zM223 -11q-80 0 -127 50.5t-47 140.5v169q0 90 47 140t127 50q83 0 130 -49.5t49 -140.5h-79q-4 114 -100 114q-94 0 -94 -114v-169q0 -114 94 -114q97 0 101 114h79q-2 -91 -50 -141t-130 -50z" />
    <glyph glyph-name="Cdotaccent" unicode="&#x10a;" horiz-adv-x="486" 
d="M244 786q-25 0 -40 15.5t-15 39.5t15 39.5t40 15.5q24 0 39.5 -15.5t15.5 -39.5t-15.5 -39.5t-39.5 -15.5zM251 -12q-90 0 -143.5 56t-53.5 158v296q0 102 53 158.5t142 56.5q91 0 143.5 -54t57.5 -155h-81q-9 132 -121 132q-52 0 -82 -35t-30 -103v-296q0 -68 31 -102.5
t84 -34.5q111 0 123 131h81q-6 -100 -59 -154t-145 -54z" />
    <glyph glyph-name="cdotaccent" unicode="&#x10b;" horiz-adv-x="435" 
d="M225 619q-25 0 -40 15t-15 39q0 25 15 40t40 15q24 0 39.5 -15t15.5 -40q0 -23 -15.5 -38.5t-39.5 -15.5zM223 -11q-80 0 -127 50.5t-47 140.5v169q0 90 47 140t127 50q83 0 130 -49.5t49 -140.5h-79q-4 114 -100 114q-94 0 -94 -114v-169q0 -114 94 -114q97 0 101 114
h79q-2 -91 -50 -141t-130 -50z" />
    <glyph glyph-name="Ccaron" unicode="&#x10c;" horiz-adv-x="486" 
d="M281 769h-74l-81 119h65l54 -70l53 70h64zM374 196h81q-6 -100 -59 -154t-145 -54q-90 0 -143.5 56t-53.5 158v296q0 102 53 158.5t142 56.5q91 0 143.5 -54t57.5 -155h-81q-9 132 -121 132q-52 0 -82 -35t-30 -103v-296q0 -68 31 -102.5t84 -34.5q111 0 123 131z" />
    <glyph glyph-name="ccaron" unicode="&#x10d;" horiz-adv-x="435" 
d="M262 610h-73l-81 119h64l54 -70l53 70h64zM324 180h79q-2 -91 -50 -141t-130 -50q-80 0 -127 50.5t-47 140.5v169q0 90 47 140t127 50q83 0 130 -49.5t49 -140.5h-79q-4 114 -100 114q-94 0 -94 -114v-169q0 -114 94 -114q97 0 101 114z" />
    <glyph glyph-name="Dcaron" unicode="&#x10e;" horiz-adv-x="505" 
d="M272 769h-74l-81 119h65l54 -70l53 70h64zM239 700q101 0 156.5 -56t55.5 -156v-276q0 -100 -56 -156t-155 -56h-167v700h166zM369 215v271q0 67 -33 101.5t-96 34.5h-85v-544h85q62 0 95.5 34.5t33.5 102.5z" />
    <glyph glyph-name="dcaron" unicode="&#x10f;" horiz-adv-x="511" 
d="M462 768h77l-37 -177h-51zM326 489v235h77v-724h-59l-8 49q-20 -28 -52.5 -44.5t-68.5 -16.5q-75 0 -120.5 53.5t-45.5 149.5v148q0 96 44.5 148t121.5 52q67 0 111 -50zM326 190v149q0 57 -26 91.5t-71 34.5q-100 0 -100 -126v-148q0 -129 100 -129q43 0 70 32.5
t27 95.5z" />
    <glyph glyph-name="Dcroat" unicode="&#x110;" horiz-adv-x="518" 
d="M249 700q102 0 158.5 -54t56.5 -153v-286q0 -98 -57 -152.5t-157 -54.5h-165v325h-75v62h75v313h164zM381 210v281q0 131 -129 131h-85v-235h92v-62h-92v-247h85q129 0 129 132z" />
    <glyph glyph-name="dcroat" unicode="&#x111;" horiz-adv-x="469" 
d="M464 659v-51h-61v-608h-59l-8 49q-20 -28 -52.5 -44.5t-68.5 -16.5q-75 0 -120.5 53.5t-45.5 149.5v148q0 96 44.5 148t121.5 52q67 0 111 -50v119h-96v51h96v65h77v-65h61zM326 190v149q0 57 -26 91.5t-71 34.5q-100 0 -100 -126v-148q0 -129 100 -129q43 0 70 32.5
t27 95.5z" />
    <glyph glyph-name="Emacron" unicode="&#x112;" horiz-adv-x="458" 
d="M342 856v-61h-193v61h193zM155 77h264v-77h-346v700h335v-76h-253v-231h235v-75h-235v-241z" />
    <glyph glyph-name="emacron" unicode="&#x113;" horiz-adv-x="452" 
d="M321 693v-60h-193v60h193zM329 163h79q-7 -84 -54.5 -129t-129.5 -45q-81 0 -128 51t-47 142v165q0 90 48 141t129 51q83 0 131.5 -50.5t48.5 -141.5v-117h-277v-48q0 -116 97 -116q48 0 72.5 23t30.5 74zM227 464q-98 0 -98 -116v-53h199v53q0 116 -101 116z" />
    <glyph glyph-name="Edotaccent" unicode="&#x116;" horiz-adv-x="458" 
d="M245 786q-25 0 -40 15.5t-15 39.5t15 39.5t40 15.5q24 0 39.5 -15.5t15.5 -39.5t-15.5 -39.5t-39.5 -15.5zM155 77h264v-77h-346v700h335v-76h-253v-231h235v-75h-235v-241z" />
    <glyph glyph-name="edotaccent" unicode="&#x117;" horiz-adv-x="452" 
d="M224 615q-25 0 -40 15t-15 39q0 25 15 40t40 15q24 0 39.5 -15t15.5 -40q0 -23 -15.5 -38.5t-39.5 -15.5zM329 163h79q-7 -84 -54.5 -129t-129.5 -45q-81 0 -128 51t-47 142v165q0 90 48 141t129 51q83 0 131.5 -50.5t48.5 -141.5v-117h-277v-48q0 -116 97 -116
q48 0 72.5 23t30.5 74zM227 464q-98 0 -98 -116v-53h199v53q0 116 -101 116z" />
    <glyph glyph-name="Eogonek" unicode="&#x118;" horiz-adv-x="464" 
d="M394 -126q22 0 31 3v-62q-20 -8 -51 -8q-44 0 -67 24t-23 59q0 58 65 110h-276v700h335v-76h-253v-231h235v-75h-235v-241h264v-77q-27 -20 -44 -45t-17 -45q0 -36 36 -36z" />
    <glyph glyph-name="eogonek" unicode="&#x119;" horiz-adv-x="456" 
d="M307 -193q-44 0 -66.5 23.5t-22.5 60.5q0 51 48 101v1q-24 -4 -41 -4q-82 0 -129 51t-47 142v165q0 91 47 141.5t129 50.5t130.5 -50.5t48.5 -141.5v-117h-275v-48q0 -116 99 -116q93 0 105 97h78q-4 -45 -17 -72t-37 -55q-69 -76 -69 -122q0 -40 38 -40q24 0 33 3v-62
q-24 -8 -52 -8zM129 295h197v53q0 116 -100 116q-97 0 -97 -116v-53z" />
    <glyph glyph-name="Ecaron" unicode="&#x11a;" horiz-adv-x="458" 
d="M281 769h-74l-81 119h65l54 -70l53 70h64zM155 77h264v-77h-346v700h335v-76h-253v-231h235v-75h-235v-241z" />
    <glyph glyph-name="ecaron" unicode="&#x11b;" horiz-adv-x="452" 
d="M261 606h-73l-81 119h64l54 -70l53 70h64zM329 163h79q-7 -84 -54.5 -129t-129.5 -45q-81 0 -128 51t-47 142v165q0 90 48 141t129 51q83 0 131.5 -50.5t48.5 -141.5v-117h-277v-48q0 -116 97 -116q48 0 72.5 23t30.5 74zM227 464q-98 0 -98 -116v-53h199v53
q0 116 -101 116z" />
    <glyph glyph-name="Gbreve" unicode="&#x11e;" horiz-adv-x="501" 
d="M247 767q-53 0 -84 31t-33 87h60q5 -60 56 -60q53 0 56 60h61q-2 -56 -33 -87t-83 -31zM255 -11q-92 0 -146.5 57t-54.5 159v291q0 104 52.5 159.5t144.5 55.5q90 0 142.5 -53.5t56.5 -153.5h-81q-6 129 -118 129q-115 0 -115 -138v-290q0 -68 32 -103t87 -35
q56 0 88.5 33.5t32.5 97.5v106h-123v73h202v-179q-1 -98 -55 -153.5t-145 -55.5z" />
    <glyph glyph-name="gbreve" unicode="&#x11f;" horiz-adv-x="467" 
d="M230 608q-53 0 -84 31t-33 87h60q5 -59 56 -59q53 0 56 59h61q-2 -56 -33 -87t-83 -31zM345 526h60v-557q0 -74 -46.5 -118t-125.5 -44q-76 0 -122 42.5t-50 115.5h77q3 -41 27.5 -63t67.5 -22q44 0 68.5 23.5t24.5 65.5v91q-41 -41 -107 -41q-77 0 -123.5 51t-46.5 139
v130q0 94 46 147t122 53t119 -60zM232 93q94 0 94 116v138q0 57 -26 87t-68 30q-103 0 -103 -125v-130q0 -116 103 -116z" />
    <glyph glyph-name="Gdotaccent" unicode="&#x120;" horiz-adv-x="501" 
d="M245 786q-25 0 -40 15.5t-15 39.5t15 39.5t40 15.5q24 0 39.5 -15.5t15.5 -39.5t-15.5 -39.5t-39.5 -15.5zM255 -11q-92 0 -146.5 57t-54.5 159v291q0 104 52.5 159.5t144.5 55.5q90 0 142.5 -53.5t56.5 -153.5h-81q-6 129 -118 129q-115 0 -115 -138v-290q0 -68 32 -103
t87 -35q56 0 88.5 33.5t32.5 97.5v106h-123v73h202v-179q-1 -98 -55 -153.5t-145 -55.5z" />
    <glyph glyph-name="gdotaccent" unicode="&#x121;" horiz-adv-x="467" 
d="M228 619q-25 0 -40 15t-15 39q0 25 15 40t40 15q24 0 39.5 -15t15.5 -40q0 -23 -15.5 -38.5t-39.5 -15.5zM345 526h60v-557q0 -74 -46.5 -118t-125.5 -44q-76 0 -122 42.5t-50 115.5h77q3 -41 27.5 -63t67.5 -22q44 0 68.5 23.5t24.5 65.5v91q-41 -41 -107 -41
q-77 0 -123.5 51t-46.5 139v130q0 94 46 147t122 53t119 -60zM232 93q94 0 94 116v138q0 57 -26 87t-68 30q-103 0 -103 -125v-130q0 -116 103 -116z" />
    <glyph glyph-name="uni0122" unicode="&#x122;" horiz-adv-x="501" 
d="M255 -11q-92 0 -146.5 57t-54.5 159v291q0 104 52.5 159.5t144.5 55.5q90 0 142.5 -53.5t56.5 -153.5h-81q-6 129 -118 129q-115 0 -115 -138v-290q0 -68 32 -103t87 -35q56 0 88.5 33.5t32.5 97.5v106h-123v73h202v-179q-1 -98 -55 -153.5t-145 -55.5zM192 -257l18 187
h77l-41 -187h-54z" />
    <glyph glyph-name="uni0123" unicode="&#x123;" horiz-adv-x="467" 
d="M272 605h-82l-18 187h53zM345 526h60v-557q0 -74 -46.5 -118t-125.5 -44q-76 0 -122 42.5t-50 115.5h77q3 -41 27.5 -63t67.5 -22q44 0 68.5 23.5t24.5 65.5v91q-41 -41 -107 -41q-77 0 -123.5 51t-46.5 139v130q0 94 46 147t122 53t119 -60zM232 93q94 0 94 116v138
q0 57 -26 87t-68 30q-103 0 -103 -125v-130q0 -116 103 -116z" />
    <glyph glyph-name="Hbar" unicode="&#x126;" horiz-adv-x="561" 
d="M543 576v-51h-68v-525h-83v317h-222v-317h-83v525h-68v51h68v124h83v-124h222v124h83v-124h68zM392 394v131h-222v-131h222z" />
    <glyph glyph-name="hbar" unicode="&#x127;" horiz-adv-x="464" 
d="M264 539q144 0 144 -220v-319h-79v315q0 79 -20.5 114t-64.5 35q-48 0 -76.5 -37.5t-28.5 -104.5v-322h-79v607h-64v51h64v66h79v-66h95v-51h-95v-139q45 71 125 71z" />
    <glyph glyph-name="Imacron" unicode="&#x12a;" horiz-adv-x="229" 
d="M21 795v61h193v-61h-193zM73 0v700h82v-700h-82z" />
    <glyph glyph-name="imacron" unicode="&#x12b;" horiz-adv-x="200" 
d="M10 635v62h181v-62h-181zM61 0v526h78v-526h-78z" />
    <glyph glyph-name="Iogonek" unicode="&#x12e;" horiz-adv-x="226" 
d="M143 -126q22 0 31 3v-62q-26 -8 -52 -8q-47 0 -70.5 24.5t-23.5 62.5q0 57 50 106h-6v700h82v-700h-6q-20 -19 -33.5 -44.5t-13.5 -44.5q0 -37 42 -37z" />
    <glyph glyph-name="iogonek" unicode="&#x12f;" horiz-adv-x="200" 
d="M99 621q-21 0 -34.5 14t-13.5 34q0 21 13.5 34.5t34.5 13.5q20 0 34 -13.5t14 -34.5q0 -20 -14 -34t-34 -14zM127 -126q22 0 31 3v-62q-20 -8 -53 -8q-45 0 -67.5 23.5t-22.5 58.5q0 58 45 110v524h78v-523l-8 -1q-41 -45 -41 -85t38 -40z" />
    <glyph glyph-name="Idotaccent" unicode="&#x130;" horiz-adv-x="229" 
d="M116 786q-25 0 -40 15.5t-15 39.5t15 39.5t40 15.5q24 0 39.5 -15.5t15.5 -39.5t-15.5 -39.5t-39.5 -15.5zM73 0v700h82v-700h-82z" />
    <glyph glyph-name="dotlessi" unicode="&#x131;" horiz-adv-x="203" 
d="M62 0v526h79v-526h-79z" />
    <glyph glyph-name="uni0136" unicode="&#x136;" horiz-adv-x="492" 
d="M252 395l240 -395h-95l-194 324l-48 -70v-254h-82v700h82v-320l52 84l158 236h99zM208 -257l18 187h77l-41 -187h-54z" />
    <glyph glyph-name="uni0137" unicode="&#x137;" horiz-adv-x="433" 
d="M238 314l197 -314h-92l-158 254l-45 -50v-204h-78v724h78v-419l174 221h95zM176 -257l18 187h77l-40 -187h-55z" />
    <glyph glyph-name="Lacute" unicode="&#x139;" horiz-adv-x="407" 
d="M244 888l-107 -119h-68l92 119h83zM155 78h244v-78h-326v700h82v-622z" />
    <glyph glyph-name="lacute" unicode="&#x13a;" horiz-adv-x="203" 
d="M49 769l93 119h82l-107 -119h-68zM63 0v724h78v-724h-78z" />
    <glyph glyph-name="uni013B" unicode="&#x13b;" horiz-adv-x="407" 
d="M155 78h244v-78h-326v700h82v-622zM183 -257l18 187h77l-41 -187h-54z" />
    <glyph glyph-name="uni013C" unicode="&#x13c;" horiz-adv-x="221" 
d="M67 0v724h78v-724h-78zM64 -257l17 187h77l-40 -187h-54z" />
    <glyph glyph-name="Lcaron" unicode="&#x13d;" horiz-adv-x="395" 
d="M155 77h228v-77h-310v700h82v-623zM343 700l-36 -173h-51l9 173h78z" />
    <glyph glyph-name="lcaron" unicode="&#x13e;" horiz-adv-x="249" 
d="M189 587l11 180h77l-37 -180h-51zM63 0v724h78v-724h-78z" />
    <glyph glyph-name="Lslash" unicode="&#x141;" horiz-adv-x="422" 
d="M212 94l-128 -31v167l-43 -14v219l43 14v169l128 31v-158l70 23v-219l-70 -23v-178zM160 77h255v-77h-255v77z" />
    <glyph glyph-name="lslash" unicode="&#x142;" horiz-adv-x="246" 
d="M234 476v-67l-73 -25v-384h-79v357l-69 -24v68l69 23v297h79v-270z" />
    <glyph glyph-name="Nacute" unicode="&#x143;" horiz-adv-x="548" 
d="M221 769l92 119h83l-107 -119h-68zM73 0v700h83l175 -382q34 -72 70 -163l3 1q-11 134 -11 220v324h81v-700h-83l-172 376q-36 81 -69 170l-3 -1q8 -124 8 -215v-330h-82z" />
    <glyph glyph-name="nacute" unicode="&#x144;" horiz-adv-x="466" 
d="M333 725l-89 -119h-67l75 119h81zM265 539q144 0 144 -206v-333h-78v327q0 71 -20.5 104t-65.5 33q-48 0 -76.5 -37.5t-28.5 -104.5v-322h-78v526h59l10 -62q44 75 134 75z" />
    <glyph glyph-name="uni0145" unicode="&#x145;" horiz-adv-x="548" 
d="M73 0v700h83l175 -382q34 -72 70 -163l3 1q-11 134 -11 220v324h81v-700h-83l-172 376q-36 81 -69 170l-3 -1q8 -124 8 -215v-330h-82zM220 -257l18 187h77l-41 -187h-54z" />
    <glyph glyph-name="uni0146" unicode="&#x146;" horiz-adv-x="466" 
d="M265 539q144 0 144 -206v-333h-78v327q0 71 -20.5 104t-65.5 33q-48 0 -76.5 -37.5t-28.5 -104.5v-322h-78v526h59l10 -62q44 75 134 75zM182 -257l18 187h77l-41 -187h-54z" />
    <glyph glyph-name="Ncaron" unicode="&#x147;" horiz-adv-x="548" 
d="M310 769h-74l-81 119h65l54 -70l53 70h64zM393 700h81v-700h-83l-172 376q-36 81 -69 170l-3 -1q8 -124 8 -215v-330h-82v700h83l175 -382q34 -72 70 -163l3 1q-11 134 -11 220v324z" />
    <glyph glyph-name="ncaron" unicode="&#x148;" horiz-adv-x="466" 
d="M270 606h-73l-81 119h64l54 -70l53 70h64zM265 539q144 0 144 -206v-333h-78v327q0 71 -20.5 104t-65.5 33q-48 0 -76.5 -37.5t-28.5 -104.5v-322h-78v526h59l10 -62q44 75 134 75z" />
    <glyph glyph-name="Eng" unicode="&#x14a;" horiz-adv-x="548" 
d="M393 700h81v-718q0 -82 -44.5 -128t-131.5 -47v76q98 1 98 97v13l-180 389q-26 58 -66 164l-3 -1q8 -124 8 -215v-330h-82v700h83l180 -388l67 -169l3 1q-13 117 -13 228v328z" />
    <glyph glyph-name="eng" unicode="&#x14b;" horiz-adv-x="466" 
d="M232 -202v75q99 1 99 97v357q0 71 -20.5 104t-65.5 33q-48 0 -76.5 -37.5t-28.5 -104.5v-322h-78v526h59l10 -62q44 75 134 75q144 0 144 -206v-361q0 -82 -45 -128t-132 -46z" />
    <glyph glyph-name="Omacron" unicode="&#x14c;" horiz-adv-x="523" 
d="M166 795v61h193v-61h-193zM262 -13q-97 0 -152.5 62.5t-55.5 170.5v261q0 108 55.5 170t152.5 62t152 -62t55 -170v-261q0 -108 -55 -170.5t-152 -62.5zM262 67q60 0 91.5 39.5t31.5 113.5v261q0 73 -31.5 112.5t-91.5 39.5q-61 0 -92.5 -39.5t-31.5 -112.5v-261
q0 -74 31.5 -113.5t92.5 -39.5z" />
    <glyph glyph-name="omacron" unicode="&#x14d;" horiz-adv-x="460" 
d="M133 637v60h193v-60h-193zM230 -12q-84 0 -132.5 51t-48.5 144v161q0 93 48.5 144t132.5 51t132 -51t48 -144v-161q0 -93 -48 -144t-132 -51zM230 64q101 0 101 119v161q0 118 -101 118t-101 -118v-161q0 -119 101 -119z" />
    <glyph glyph-name="Ohungarumlaut" unicode="&#x150;" horiz-adv-x="523" 
d="M157 769l70 119h76l-85 -119h-61zM268 769l75 119h75l-89 -119h-61zM262 -13q-97 0 -152.5 62.5t-55.5 170.5v261q0 108 55.5 170t152.5 62t152 -62t55 -170v-261q0 -108 -55 -170.5t-152 -62.5zM262 67q60 0 91.5 39.5t31.5 113.5v261q0 73 -31.5 112.5t-91.5 39.5
q-61 0 -92.5 -39.5t-31.5 -112.5v-261q0 -74 31.5 -113.5t92.5 -39.5z" />
    <glyph glyph-name="ohungarumlaut" unicode="&#x151;" horiz-adv-x="460" 
d="M122 610l70 119h76l-85 -119h-61zM233 610l75 119h75l-89 -119h-61zM230 -12q-84 0 -132.5 51t-48.5 144v161q0 93 48.5 144t132.5 51t132 -51t48 -144v-161q0 -93 -48 -144t-132 -51zM230 64q101 0 101 119v161q0 118 -101 118t-101 -118v-161q0 -119 101 -119z" />
    <glyph glyph-name="OE" unicode="&#x152;" horiz-adv-x="770" 
d="M468 77h263v-77h-345v47q-51 -60 -130 -60q-94 0 -148 62.5t-54 170.5v261q0 108 54 170t148 62q81 0 130 -60v47h335v-76h-253v-231h235v-75h-235v-241zM385 220v261q0 73 -32 112.5t-93 39.5q-60 0 -91 -39.5t-31 -112.5v-261q0 -74 31 -113.5t91 -39.5q61 0 93 39.5
t32 113.5z" />
    <glyph glyph-name="oe" unicode="&#x153;" horiz-adv-x="719" 
d="M596 171h79q-2 -86 -50 -134t-128 -48q-90 0 -133 75q-46 -75 -137 -75q-82 0 -130 51t-48 144v157q0 92 48 143t130 51q92 0 137 -75q43 75 134 75q81 0 128 -50.5t47 -141.5v-109h-270v-52q0 -116 95 -116t98 105zM403 344v-48h192v48q0 116 -97 116q-95 0 -95 -116z
M324 184v157q0 117 -97 117q-98 0 -98 -117v-157q0 -118 98 -118q97 0 97 118z" />
    <glyph glyph-name="Racute" unicode="&#x154;" horiz-adv-x="494" 
d="M357 888l-107 -119h-68l92 119h83zM379 0l-153 264h-71v-264h-82v700h171q99 0 152 -55.5t53 -156.5q0 -86 -36.5 -141.5t-102.5 -74.5l162 -272h-93zM155 623v-282h88q60 0 91.5 37t31.5 107q0 138 -122 138h-89z" />
    <glyph glyph-name="racute" unicode="&#x155;" horiz-adv-x="336" 
d="M285 729l-89 -119h-67l75 119h81zM268 538q32 0 54 -7v-80q-30 11 -66 11q-53 0 -84.5 -38.5t-31.5 -106.5v-317h-78v526h59l11 -65q43 77 136 77z" />
    <glyph glyph-name="uni0156" unicode="&#x156;" horiz-adv-x="494" 
d="M310 272l162 -272h-93l-153 264h-71v-264h-82v700h171q99 0 152 -55.5t53 -156.5q0 -86 -36.5 -141.5t-102.5 -74.5zM155 623v-282h88q60 0 91.5 37t31.5 107q0 138 -122 138h-89zM193 -257l18 187h77l-41 -187h-54z" />
    <glyph glyph-name="uni0157" unicode="&#x157;" horiz-adv-x="336" 
d="M268 538q32 0 54 -7v-80q-30 11 -66 11q-53 0 -84.5 -38.5t-31.5 -106.5v-317h-78v526h59l11 -65q43 77 136 77zM68 -257l18 187h77l-40 -187h-55z" />
    <glyph glyph-name="Rcaron" unicode="&#x158;" horiz-adv-x="494" 
d="M271 769h-74l-81 119h65l54 -70l53 70h64zM379 0l-153 264h-71v-264h-82v700h171q99 0 152 -55.5t53 -156.5q0 -86 -36.5 -141.5t-102.5 -74.5l162 -272h-93zM155 623v-282h88q60 0 91.5 37t31.5 107q0 138 -122 138h-89z" />
    <glyph glyph-name="rcaron" unicode="&#x159;" horiz-adv-x="336" 
d="M222 610h-73l-81 119h64l54 -70l53 70h64zM268 538q32 0 54 -7v-80q-30 11 -66 11q-53 0 -84.5 -38.5t-31.5 -106.5v-317h-78v526h59l11 -65q43 77 136 77z" />
    <glyph glyph-name="Sacute" unicode="&#x15a;" horiz-adv-x="458" 
d="M177 769l92 119h83l-107 -119h-68zM229 -13q-90 0 -144.5 54t-55.5 145h83q1 -58 32 -89t84 -31q55 0 84 31t29 82q0 41 -31 74.5t-75.5 59t-88.5 53.5t-75 72t-31 101q0 75 51.5 124.5t135.5 49.5q85 0 135.5 -52.5t53.5 -139.5h-83q-2 56 -30 84.5t-75 28.5
q-49 0 -77 -26t-28 -70q0 -35 22.5 -64t56 -48t72.5 -43.5t72.5 -49t56 -65t22.5 -90.5q0 -79 -52.5 -135t-143.5 -56z" />
    <glyph glyph-name="sacute" unicode="&#x15b;" horiz-adv-x="410" 
d="M148 611l75 119h81l-89 -119h-67zM210 -13q-83 0 -132 48t-50 124h78q1 -45 27.5 -71t75.5 -26q43 0 67 20.5t24 56.5q0 32 -27.5 53.5t-66 36t-77.5 31.5t-66.5 50.5t-27.5 83.5q0 66 45 105.5t120 39.5q78 0 122.5 -45t46.5 -120h-77q-1 43 -24.5 67.5t-67.5 24.5
q-40 0 -63 -19.5t-23 -53.5q0 -30 27.5 -50.5t66 -34t77.5 -31t66.5 -52.5t27.5 -87q0 -68 -46 -109.5t-123 -41.5z" />
    <glyph glyph-name="Scedilla" unicode="&#x15e;" horiz-adv-x="458" 
d="M425 178q0 -74 -45.5 -128t-126.5 -62l-11 -37h13q29 0 50 -18.5t21 -47.5q0 -37 -26.5 -58.5t-69.5 -21.5q-38 0 -64 20.5t-30 55.5h55q8 -26 40 -26q40 0 40 32q0 30 -37 30q-18 0 -32 -7l-17 17l18 61q-79 8 -126 61t-48 137h83q1 -58 32 -89t84 -31q55 0 84 31t29 82
q0 41 -31 74.5t-75.5 59t-88.5 53.5t-75 72t-31 101q0 75 51.5 124.5t135.5 49.5q85 0 135.5 -52.5t53.5 -139.5h-83q-2 56 -30 84.5t-75 28.5q-49 0 -77 -26t-28 -70q0 -35 22.5 -64t56 -48t72.5 -43.5t72.5 -49t56 -65t22.5 -90.5z" />
    <glyph glyph-name="scedilla" unicode="&#x15f;" horiz-adv-x="410" 
d="M379 138q0 -64 -41.5 -105.5t-112.5 -45.5l-10 -36h13q29 0 50 -18.5t21 -47.5q0 -37 -26.5 -58.5t-69.5 -21.5q-38 0 -64 20.5t-30 55.5h55q8 -26 40 -26q40 0 40 32q0 30 -37 30q-18 0 -32 -7l-17 17l18 62q-69 10 -108 56t-40 114h78q1 -45 27.5 -71t75.5 -26
q43 0 67 20.5t24 56.5q0 32 -27.5 53.5t-66 36t-77.5 31.5t-66.5 50.5t-27.5 83.5q0 66 45 105.5t120 39.5q78 0 122.5 -45t46.5 -120h-77q-1 43 -24.5 67.5t-67.5 24.5q-40 0 -63 -19.5t-23 -53.5q0 -30 27.5 -50.5t66 -34t77.5 -31t66.5 -52.5t27.5 -87z" />
    <glyph glyph-name="Scaron" unicode="&#x160;" horiz-adv-x="458" 
d="M266 769h-74l-81 119h65l54 -70l53 70h64zM123 538q0 -35 22.5 -64t56 -48t72.5 -43.5t72.5 -49t56 -65t22.5 -90.5q0 -79 -52.5 -135t-143.5 -56q-90 0 -144.5 54t-55.5 145h83q1 -58 32 -89t84 -31q55 0 84 31t29 82q0 41 -31 74.5t-75.5 59t-88.5 53.5t-75 72t-31 101
q0 75 51.5 124.5t135.5 49.5q85 0 135.5 -52.5t53.5 -139.5h-83q-2 56 -30 84.5t-75 28.5q-49 0 -77 -26t-28 -70z" />
    <glyph glyph-name="scaron" unicode="&#x161;" horiz-adv-x="410" 
d="M241 611h-73l-81 119h64l54 -70l53 70h64zM114 393q0 -30 27.5 -50.5t66 -34t77.5 -31t66.5 -52.5t27.5 -87q0 -68 -46 -109.5t-123 -41.5q-83 0 -132 48t-50 124h78q1 -45 27.5 -71t75.5 -26q43 0 67 20.5t24 56.5q0 32 -27.5 53.5t-66 36t-77.5 31.5t-66.5 50.5
t-27.5 83.5q0 66 45 105.5t120 39.5q78 0 122.5 -45t46.5 -120h-77q-1 43 -24.5 67.5t-67.5 24.5q-40 0 -63 -19.5t-23 -53.5z" />
    <glyph glyph-name="uni0162" unicode="&#x162;" horiz-adv-x="417" 
d="M250 0h-15l-14 -49h13q29 0 50 -18.5t21 -47.5q0 -37 -26.5 -58.5t-69.5 -21.5q-38 0 -64 20.5t-30 55.5h55q8 -26 40 -26q40 0 40 32q0 30 -37 30q-18 0 -32 -7l-17 17l21 73h-18v623h-150v77h383v-77h-150v-623z" />
    <glyph glyph-name="uni0163" unicode="&#x163;" horiz-adv-x="307" 
d="M251 -6q-21 0 -44 5l-17 -48h13q30 0 51 -19t21 -50q0 -38 -27 -60.5t-70 -22.5q-38 0 -64 21t-29 57h54q8 -28 41 -28q18 0 29 9.5t11 25.5q0 33 -38 33q-19 0 -32 -8l-17 17l30 89q-70 42 -70 148v291h-78v72h78v123h78v-123h102v-72h-102v-291q0 -95 82 -95h31v-74
h-33z" />
    <glyph glyph-name="Tcaron" unicode="&#x164;" horiz-adv-x="417" 
d="M245 769h-74l-81 119h65l54 -70l53 70h64zM400 700v-77h-150v-623h-83v623h-150v77h383z" />
    <glyph glyph-name="tcaron" unicode="&#x165;" horiz-adv-x="335" 
d="M312 768l-36 -177h-52l12 177h76zM171 163q0 -95 82 -95h31v-74h-33q-75 0 -116.5 45t-41.5 124v291h-78v72h78v123h78v-123h102v-72h-102v-291z" />
    <glyph glyph-name="Tbar" unicode="&#x166;" horiz-adv-x="417" 
d="M400 623h-150v-239h82v-53h-82v-331h-83v331h-82v53h82v239h-150v77h383v-77z" />
    <glyph glyph-name="tbar" unicode="&#x167;" horiz-adv-x="307" 
d="M253 68h31v-74h-33q-75 0 -116.5 45t-41.5 124v99h-60v56h60v136h-78v72h78v123h78v-123h102v-72h-102v-136h77v-56h-77v-99q0 -95 82 -95z" />
    <glyph glyph-name="Umacron" unicode="&#x16a;" horiz-adv-x="521" 
d="M165 795v61h193v-61h-193zM260 -10q-90 0 -144 57.5t-54 161.5v491h83v-491q0 -69 30.5 -104t84.5 -35t85 35t31 104v491h83v-491q0 -105 -54 -162t-145 -57z" />
    <glyph glyph-name="umacron" unicode="&#x16b;" horiz-adv-x="466" 
d="M327 693v-60h-193v60h193zM326 526h78v-526h-59l-10 62q-44 -75 -133 -75q-145 0 -145 206v333h78v-326q0 -72 20.5 -105t65.5 -33q48 0 76.5 37.5t28.5 104.5v322z" />
    <glyph glyph-name="Uring" unicode="&#x16e;" horiz-adv-x="521" 
d="M261 764q-34 0 -54.5 20.5t-20.5 53.5q0 32 20.5 52t54.5 20t55 -20t21 -52q0 -33 -21 -53.5t-55 -20.5zM261 806q14 0 23 8.5t9 22.5t-9 23t-23 9t-22.5 -9t-8.5 -23q0 -31 31 -31zM260 -10q-90 0 -144 57.5t-54 161.5v491h83v-491q0 -69 30.5 -104t84.5 -35t85 35
t31 104v491h83v-491q0 -105 -54 -162t-145 -57z" />
    <glyph glyph-name="uring" unicode="&#x16f;" horiz-adv-x="466" 
d="M231 602q-34 0 -55 20.5t-21 53.5q0 32 21 52.5t55 20.5t54.5 -20.5t20.5 -52.5q0 -33 -20.5 -53.5t-54.5 -20.5zM231 707q-14 0 -23 -9t-9 -23t9 -22.5t23 -8.5t22.5 8.5t8.5 22.5t-8.5 23t-22.5 9zM326 526h78v-526h-59l-10 62q-44 -75 -133 -75q-145 0 -145 206v333
h78v-326q0 -72 20.5 -105t65.5 -33q48 0 76.5 37.5t28.5 104.5v322z" />
    <glyph glyph-name="Uhungarumlaut" unicode="&#x170;" horiz-adv-x="521" 
d="M156 769l70 119h76l-85 -119h-61zM267 769l75 119h75l-89 -119h-61zM260 -10q-90 0 -144 57.5t-54 161.5v491h83v-491q0 -69 30.5 -104t84.5 -35t85 35t31 104v491h83v-491q0 -105 -54 -162t-145 -57z" />
    <glyph glyph-name="uhungarumlaut" unicode="&#x171;" horiz-adv-x="466" 
d="M269 725l-85 -119h-61l70 119h76zM295 606h-61l75 119h75zM326 526h78v-526h-59l-10 62q-44 -75 -133 -75q-145 0 -145 206v333h78v-326q0 -72 20.5 -105t65.5 -33q48 0 76.5 37.5t28.5 104.5v322z" />
    <glyph glyph-name="Uogonek" unicode="&#x172;" horiz-adv-x="518" 
d="M325 -193q-44 0 -66.5 23.5t-22.5 59.5q0 57 58 108l-1 1q-15 -9 -37 -9q-88 0 -141 57t-53 157v496h84v-496q0 -65 30.5 -99.5t82.5 -34.5t82.5 34.5t30.5 99.5v496h84v-496q0 -105 -64 -165q-83 -83 -83 -129q0 -36 37 -36q22 0 31 3v-62q-21 -8 -52 -8z" />
    <glyph glyph-name="uogonek" unicode="&#x173;" horiz-adv-x="466" 
d="M404 0q-28 -21 -46 -47t-18 -47q0 -32 37 -32q14 0 26 3v-62q-20 -8 -49 -8q-42 0 -63.5 23.5t-21.5 57.5q0 61 75 112l-10 62q-44 -74 -132 -74q-146 0 -146 205v333h79v-326q0 -72 20 -105t65 -33q49 0 77 37.5t28 104.5v322h79v-526z" />
    <glyph glyph-name="Wcircumflex" unicode="&#x174;" horiz-adv-x="732" 
d="M369 839l-54 -70h-65l81 119h74l81 -119h-64zM638 700h85l-156 -700h-89l-76 344q-23 102 -34 223h-4q-11 -121 -34 -223l-76 -344h-89l-156 700h86l79 -407q27 -138 33 -182h4q4 28 34 190l77 388h88l77 -388l34 -190h4q6 44 33 182z" />
    <glyph glyph-name="wcircumflex" unicode="&#x175;" horiz-adv-x="623" 
d="M309 675l-54 -70h-64l81 119h73l81 -119h-64zM535 526h82l-128 -526h-86l-54 225q-29 119 -36 194h-3q-7 -75 -36 -194l-55 -225h-85l-128 526h82l56 -260q3 -13 32 -174h3q16 100 35 185l55 239h84l56 -239q23 -112 35 -185h3q12 78 32 174z" />
    <glyph glyph-name="Ycircumflex" unicode="&#x176;" horiz-adv-x="435" 
d="M218 839l-54 -70h-65l81 119h74l81 -119h-64zM345 700h86l-173 -460v-240h-82v240l-172 460h86l89 -251l38 -109h1l38 111z" />
    <glyph glyph-name="ycircumflex" unicode="&#x177;" horiz-adv-x="402" 
d="M207 680l-54 -70h-64l81 119h73l81 -119h-64zM315 526h81l-174 -578q-22 -69 -52 -103.5t-84 -34.5h-43v76h30q30 0 46.5 19t27.5 56l27 90l-168 475h85l76 -222l42 -133l39 132z" />
    <glyph glyph-name="Ydieresis" unicode="&#x178;" horiz-adv-x="435" 
d="M149 785q-20 0 -32.5 12t-12.5 32q0 21 12.5 33t32.5 12t32 -12t12 -33q0 -20 -12 -32t-32 -12zM287 785q-20 0 -33 12t-13 32q0 21 12.5 33t33.5 12q20 0 32.5 -12t12.5 -33q0 -20 -12.5 -32t-32.5 -12zM176 0v240l-172 460h86l89 -251l38 -109h1l38 111l89 249h86
l-173 -460v-240h-82z" />
    <glyph glyph-name="Zacute" unicode="&#x179;" horiz-adv-x="415" 
d="M150 769l92 119h83l-107 -119h-68zM18 0v59l264 564h-250v77h350v-56l-265 -567h270v-77h-369z" />
    <glyph glyph-name="zacute" unicode="&#x17a;" horiz-adv-x="362" 
d="M120 610l75 119h81l-89 -119h-67zM13 0v57l221 397h-208v72h305v-56l-221 -397h230v-73h-327z" />
    <glyph glyph-name="Zdotaccent" unicode="&#x17b;" horiz-adv-x="415" 
d="M202 793q-25 0 -40 15t-15 39q0 25 15 40t40 15q24 0 39.5 -15t15.5 -40q0 -23 -15.5 -38.5t-39.5 -15.5zM18 0v59l264 564h-250v77h350v-56l-265 -567h270v-77h-369z" />
    <glyph glyph-name="zdotaccent" unicode="&#x17c;" horiz-adv-x="362" 
d="M176 619q-25 0 -40 15t-15 39q0 25 15 40t40 15q24 0 39.5 -15t15.5 -40q0 -23 -15.5 -38.5t-39.5 -15.5zM13 0v57l221 397h-208v72h305v-56l-221 -397h230v-73h-327z" />
    <glyph glyph-name="Zcaron" unicode="&#x17d;" horiz-adv-x="415" 
d="M239 769h-74l-81 119h65l54 -70l53 70h64zM117 77h270v-77h-369v59l264 564h-250v77h350v-56z" />
    <glyph glyph-name="zcaron" unicode="&#x17e;" horiz-adv-x="362" 
d="M213 610h-73l-81 119h64l54 -70l53 70h64zM110 73h230v-73h-327v57l221 397h-208v72h305v-56z" />
    <glyph glyph-name="uni0218" unicode="&#x218;" horiz-adv-x="458" 
d="M229 -13q-90 0 -144.5 54t-55.5 145h83q1 -58 32 -89t84 -31q55 0 84 31t29 82q0 41 -31 74.5t-75.5 59t-88.5 53.5t-75 72t-31 101q0 75 51.5 124.5t135.5 49.5q85 0 135.5 -52.5t53.5 -139.5h-83q-2 56 -30 84.5t-75 28.5q-49 0 -77 -26t-28 -70q0 -35 22.5 -64t56 -48
t72.5 -43.5t72.5 -49t56 -65t22.5 -90.5q0 -79 -52.5 -135t-143.5 -56zM186 -257l18 187h77l-40 -187h-55z" />
    <glyph glyph-name="uni0219" unicode="&#x219;" horiz-adv-x="410" 
d="M210 -13q-83 0 -132 48t-50 124h78q1 -45 27.5 -71t75.5 -26q43 0 67 20.5t24 56.5q0 32 -27.5 53.5t-66 36t-77.5 31.5t-66.5 50.5t-27.5 83.5q0 66 45 105.5t120 39.5q78 0 122.5 -45t46.5 -120h-77q-1 43 -24.5 67.5t-67.5 24.5q-40 0 -63 -19.5t-23 -53.5
q0 -30 27.5 -50.5t66 -34t77.5 -31t66.5 -52.5t27.5 -87q0 -68 -46 -109.5t-123 -41.5zM161 -257l18 187h77l-40 -187h-55z" />
    <glyph glyph-name="uni021A" unicode="&#x21a;" horiz-adv-x="417" 
d="M17 700h383v-77h-150v-623h-83v623h-150v77zM156 -257l18 187h77l-41 -187h-54z" />
    <glyph glyph-name="uni021B" unicode="&#x21b;" horiz-adv-x="307" 
d="M253 68h31v-74h-33q-75 0 -116.5 45t-41.5 124v291h-78v72h78v123h78v-123h102v-72h-102v-291q0 -95 82 -95zM122 -257l18 187h77l-40 -187h-55z" />
    <glyph glyph-name="gravecomb" unicode="&#x300;" 
d="M1 610h-68l-89 119h81z" />
    <glyph glyph-name="acutecomb" unicode="&#x301;" 
d="M-156 610l75 119h82l-90 -119h-67z" />
    <glyph glyph-name="uni0302" unicode="&#x302;" 
d="M0 609h-64l-53 70l-54 -70h-65l82 119h73z" />
    <glyph glyph-name="tildecomb" unicode="&#x303;" 
d="M-74 624q-22 0 -45.5 15.5t-32.5 15.5q-18 0 -21 -28h-60q2 40 22 62.5t52 22.5q23 0 46 -15.5t32 -15.5q21 0 24 28h57q-4 -39 -23.5 -62t-50.5 -23z" />
    <glyph glyph-name="uni0304" unicode="&#x304;" 
d="M-193 637v60h193v-60h-193z" />
    <glyph glyph-name="uni0306" unicode="&#x306;" 
d="M-118 608q-53 0 -84 31t-33 87h60q5 -59 56 -59q53 0 56 59h61q-2 -56 -33 -87t-83 -31z" />
    <glyph glyph-name="uni0307" unicode="&#x307;" 
d="M-95 619q-25 0 -40 15t-15 39q0 25 15 40t40 15q24 0 39.5 -15t15.5 -40q0 -23 -15.5 -38.5t-39.5 -15.5z" />
    <glyph glyph-name="uni0308" unicode="&#x308;" 
d="M-175 623q-20 0 -32.5 12t-12.5 33q0 20 12.5 32t32.5 12t32.5 -12t12.5 -32q0 -21 -12.5 -33t-32.5 -12zM-46 623q-21 0 -33.5 12t-12.5 33q0 20 13 32t33 12q21 0 34 -12t13 -32q0 -21 -13 -33t-34 -12z" />
    <glyph glyph-name="uni030A" unicode="&#x30a;" 
d="M-87 606q-34 0 -55 20.5t-21 53.5q0 32 21 52.5t55 20.5t54.5 -20.5t20.5 -52.5q0 -33 -20.5 -53.5t-54.5 -20.5zM-87 648q14 0 22.5 8.5t8.5 22.5t-8.5 23t-22.5 9t-23 -9t-9 -23t9 -22.5t23 -8.5z" />
    <glyph glyph-name="uni030B" unicode="&#x30b;" 
d="M-261 610l70 119h76l-85 -119h-61zM-150 610l75 119h75l-89 -119h-61z" />
    <glyph glyph-name="uni030C" unicode="&#x30c;" 
d="M-62 729h64l-81 -119h-73l-82 119h65l54 -70z" />
    <glyph glyph-name="uni0312" unicode="&#x312;" 
d="M-82 605l-18 187h53l48 -187h-83z" />
    <glyph glyph-name="uni0326" unicode="&#x326;" 
d="M-97 -257l18 187h77l-40 -187h-55z" />
    <glyph glyph-name="uni0327" unicode="&#x327;" 
d="M-109 -195q-38 0 -64 20.5t-30 55.5h55q8 -26 40 -26q40 0 40 32q0 30 -37 30q-18 0 -32 -7l-17 17l21 73h50l-14 -49h13q29 0 50 -18.5t21 -47.5q0 -37 -26.5 -58.5t-69.5 -21.5z" />
    <glyph glyph-name="uni0328" unicode="&#x328;" 
d="M-54 -193q-44 0 -66.5 23.5t-22.5 58.5q0 61 60 111h70q-24 -19 -40 -45.5t-16 -47.5q0 -33 36 -33q22 0 31 3v-62q-20 -8 -52 -8z" />
    <glyph glyph-name="uni0335" unicode="&#x335;" 
d="M-210 372v51h200v-51h-200z" />
    <glyph glyph-name="uni0336" unicode="&#x336;" 
d="M-330 372v51h320v-51h-320z" />
    <glyph glyph-name="uni0337" unicode="&#x337;" 
d="M-255 -44l161 595h81l-161 -595h-81z" />
    <glyph glyph-name="uni0338" unicode="&#x338;" 
d="M-341 -38l214 776h80l-213 -776h-81z" />
    <glyph glyph-name="uni0401" unicode="&#x401;" horiz-adv-x="458" 
d="M178 785q-20 0 -32.5 12t-12.5 32q0 21 12.5 33t32.5 12t32 -12t12 -33q0 -20 -12 -32t-32 -12zM316 785q-20 0 -33 12t-13 32q0 21 12.5 33t33.5 12q20 0 32.5 -12t12.5 -33q0 -20 -12.5 -32t-32.5 -12zM155 77h264v-77h-346v700h335v-76h-253v-231h235v-75h-235v-241z
" />
    <glyph glyph-name="uni0402" unicode="&#x402;" horiz-adv-x="559" 
d="M333 -7v75q52 1 75 27t23 80v128q0 78 -20.5 113t-63.5 35q-48 0 -76 -36.5t-28 -101.5v-313h-83v623h-143v77h368v-77h-142v-167q43 69 124 69q143 0 143 -218v-132q0 -87 -45 -134t-132 -48z" />
    <glyph glyph-name="uni0403" unicode="&#x403;" horiz-adv-x="418" 
d="M344 888l-107 -119h-68l92 119h83zM401 700v-77h-246v-623h-82v700h328z" />
    <glyph glyph-name="uni0404" unicode="&#x404;" horiz-adv-x="486" 
d="M374 196h81q-6 -100 -59 -154t-145 -54q-90 0 -143.5 56t-53.5 158v296q0 102 53 158.5t142 56.5q91 0 143.5 -54t57.5 -155h-81q-9 132 -121 132q-52 0 -82 -35t-30 -103v-106h196v-72h-196v-118q0 -68 31 -102.5t84 -34.5q111 0 123 131z" />
    <glyph glyph-name="uni0405" unicode="&#x405;" horiz-adv-x="458" 
d="M229 -13q-90 0 -144.5 54t-55.5 145h83q1 -58 32 -89t84 -31q55 0 84 31t29 82q0 41 -31 74.5t-75.5 59t-88.5 53.5t-75 72t-31 101q0 75 51.5 124.5t135.5 49.5q85 0 135.5 -52.5t53.5 -139.5h-83q-2 56 -30 84.5t-75 28.5q-49 0 -77 -26t-28 -70q0 -35 22.5 -64t56 -48
t72.5 -43.5t72.5 -49t56 -65t22.5 -90.5q0 -79 -52.5 -135t-143.5 -56z" />
    <glyph glyph-name="uni0406" unicode="&#x406;" horiz-adv-x="229" 
d="M73 0v700h82v-700h-82z" />
    <glyph glyph-name="uni0407" unicode="&#x407;" horiz-adv-x="229" 
d="M47 785q-20 0 -32.5 12t-12.5 32q0 21 12.5 33t32.5 12t32 -12t12 -33q0 -20 -12 -32t-32 -12zM185 785q-20 0 -33 12t-13 32q0 21 12.5 33t33.5 12q20 0 32.5 -12t12.5 -33q0 -20 -12.5 -32t-32.5 -12zM73 0v700h82v-700h-82z" />
    <glyph glyph-name="uni0408" unicode="&#x408;" horiz-adv-x="266" 
d="M0 -99v77q59 0 87 30.5t28 106.5v585h82v-586q0 -213 -197 -213z" />
    <glyph glyph-name="uni0409" unicode="&#x409;" horiz-adv-x="737" 
d="M0 -10v77q61 0 75 97q13 97 29 536h315v-286h88q99 0 154 -55t55 -152q0 -99 -55 -153t-154 -54h-171v623h-154q-15 -375 -29 -476q-13 -81 -50.5 -119t-102.5 -38zM419 77h85q60 0 93.5 33.5t33.5 97.5q0 63 -33.5 95.5t-93.5 32.5h-85v-259z" />
    <glyph glyph-name="uni040A" unicode="&#x40a;" horiz-adv-x="777" 
d="M73 0v700h82v-294h218v294h82v-293h92q98 0 153.5 -53.5t55.5 -146.5q0 -99 -55 -153t-154 -54h-174v329h-218v-329h-82zM455 77h89q61 0 94 33t33 97q0 60 -33 91t-94 31h-89v-252z" />
    <glyph glyph-name="uni040B" unicode="&#x40b;" horiz-adv-x="566" 
d="M160 0v623h-143v77h368v-77h-142v-167q43 69 124 69q143 0 143 -218v-307h-79v303q0 78 -20.5 113t-63.5 35q-47 0 -75 -36.5t-29 -100.5v-314h-83z" />
    <glyph glyph-name="uni040C" unicode="&#x40c;" horiz-adv-x="492" 
d="M347 888l-107 -119h-68l92 119h83zM397 0l-194 324l-48 -70v-254h-82v700h82v-320l52 84l158 236h99l-212 -305l240 -395h-95z" />
    <glyph glyph-name="uni040D" unicode="&#x40d;" horiz-adv-x="547" 
d="M324 769h-68l-107 119h82zM73 0v700h81v-373q0 -96 -6 -168l3 -2q28 73 49 119l186 424h88v-700h-81v381q0 76 4 162l-2 2q-30 -78 -44 -110l-192 -435h-86z" />
    <glyph glyph-name="uni040E" unicode="&#x40e;" horiz-adv-x="420" 
d="M214 767q-53 0 -84 31t-33 87h60q5 -60 56 -60q53 0 56 60h61q-2 -56 -33 -87t-83 -31zM330 700h85l-172 -563q-23 -76 -62.5 -111.5t-110.5 -35.5h-24v76h26q39 0 60.5 23t36.5 73l15 49l-177 489h86l127 -367z" />
    <glyph glyph-name="uni040F" unicode="&#x40f;" horiz-adv-x="533" 
d="M227 -116v116h-154v700h82v-623h223v623h82v-700h-153v-116h-80z" />
    <glyph glyph-name="uni0410" unicode="&#x410;" horiz-adv-x="467" 
d="M372 0l-37 152h-203l-37 -152h-86l180 700h89l180 -700h-86zM150 228h167l-57 237q-14 58 -25 131h-3q-11 -73 -25 -131z" />
    <glyph glyph-name="uni0411" unicode="&#x411;" horiz-adv-x="496" 
d="M73 0v700h353v-77h-270v-203h102q95 0 150.5 -55.5t55.5 -152.5q0 -101 -55 -156.5t-151 -55.5h-185zM156 77h99q58 0 91.5 34.5t33.5 100.5q0 64 -33.5 98t-91.5 34h-99v-267z" />
    <glyph glyph-name="uni0412" unicode="&#x412;" horiz-adv-x="500" 
d="M358 361q50 -16 78 -59t28 -106q0 -93 -53.5 -144.5t-146.5 -51.5h-191v700h178q87 0 136.5 -49.5t49.5 -136.5q0 -56 -21 -96t-58 -57zM245 623h-90v-227h92q106 0 106 116q0 111 -108 111zM257 77q124 0 124 119q0 60 -35 91.5t-96 31.5h-95v-242h102z" />
    <glyph glyph-name="uni0413" unicode="&#x413;" horiz-adv-x="418" 
d="M401 700v-77h-246v-623h-82v700h328z" />
    <glyph glyph-name="uni0414" unicode="&#x414;" horiz-adv-x="537" 
d="M453 77h61v-193h-80v116h-348v-116h-80v193h40q71 71 78 264l12 359h317v-623zM371 77v546h-158l-11 -305q-6 -154 -57 -241h226z" />
    <glyph glyph-name="uni0415" unicode="&#x415;" horiz-adv-x="458" 
d="M155 77h264v-77h-346v700h335v-76h-253v-231h235v-75h-235v-241z" />
    <glyph glyph-name="uni0416" unicode="&#x416;" horiz-adv-x="709" 
d="M614 0l-187 310l-33 -49v-261h-79v260l-34 50l-186 -310h-95l234 379l-217 321h95l149 -228l54 -89v317h79v-317l58 94l145 223h95l-218 -321l235 -379h-95z" />
    <glyph glyph-name="uni0417" unicode="&#x417;" horiz-adv-x="486" 
d="M322 362q125 -33 125 -171q0 -94 -58 -149t-149 -55q-94 0 -150.5 58t-60.5 149h83q3 -57 36 -92.5t91 -35.5q56 0 90.5 34.5t34.5 92.5q0 63 -38 96.5t-99 33.5h-55v74h47q60 0 94.5 30t34.5 92q0 55 -29 85.5t-81 30.5q-107 0 -117 -130h-82q6 97 57 153t142 56
q88 0 140 -52.5t52 -145.5q0 -118 -108 -154z" />
    <glyph glyph-name="uni0418" unicode="&#x418;" horiz-adv-x="547" 
d="M73 0v700h81v-373q0 -96 -6 -168l3 -2q28 73 49 119l186 424h88v-700h-81v381q0 76 4 162l-2 2q-30 -78 -44 -110l-192 -435h-86z" />
    <glyph glyph-name="uni0419" unicode="&#x419;" horiz-adv-x="547" 
d="M276 767q-53 0 -84 31t-33 87h60q5 -60 56 -60q53 0 56 60h61q-2 -56 -33 -87t-83 -31zM73 0v700h81v-373q0 -96 -6 -168l3 -2q28 73 49 119l186 424h88v-700h-81v381q0 76 4 162l-2 2q-30 -78 -44 -110l-192 -435h-86z" />
    <glyph glyph-name="uni041A" unicode="&#x41a;" horiz-adv-x="492" 
d="M397 0l-194 324l-48 -70v-254h-82v700h82v-320l52 84l158 236h99l-212 -305l240 -395h-95z" />
    <glyph glyph-name="uni041B" unicode="&#x41b;" horiz-adv-x="505" 
d="M0 -10v77q62 0 76 96q14 107 31 537h324v-700h-82v623h-163q-18 -385 -31 -476q-22 -157 -155 -157z" />
    <glyph glyph-name="uni041C" unicode="&#x41c;" horiz-adv-x="671" 
d="M512 700h85v-700h-81v321q2 120 7 212l-4 1q-11 -31 -37.5 -100l-32.5 -84l-73 -189h-81l-74 189l-34.5 91t-34.5 93l-5 -1q7 -119 7 -212v-321h-81v700h86l121 -293q33 -81 53 -147h4q26 77 54 147z" />
    <glyph glyph-name="uni041D" unicode="&#x41d;" horiz-adv-x="534" 
d="M378 700h83v-700h-83v317h-222v-317h-83v700h83v-306h222v306z" />
    <glyph glyph-name="uni041E" unicode="&#x41e;" horiz-adv-x="523" 
d="M262 -13q-97 0 -152.5 62.5t-55.5 170.5v261q0 108 55.5 170t152.5 62t152 -62t55 -170v-261q0 -108 -55 -170.5t-152 -62.5zM262 67q60 0 91.5 39.5t31.5 113.5v261q0 73 -31.5 112.5t-91.5 39.5q-61 0 -92.5 -39.5t-31.5 -112.5v-261q0 -74 31.5 -113.5t92.5 -39.5z
" />
    <glyph glyph-name="uni041F" unicode="&#x41f;" horiz-adv-x="533" 
d="M460 700v-700h-82v623h-223v-623h-82v700h387z" />
    <glyph glyph-name="uni0420" unicode="&#x420;" horiz-adv-x="491" 
d="M250 700q100 0 154 -57.5t54 -163.5q0 -108 -54 -166t-154 -58h-95v-255h-82v700h177zM250 333q125 0 125 146q0 143 -125 143h-95v-289h95z" />
    <glyph glyph-name="uni0421" unicode="&#x421;" horiz-adv-x="486" 
d="M251 -12q-90 0 -143.5 56t-53.5 158v296q0 102 53 158.5t142 56.5q91 0 143.5 -54t57.5 -155h-81q-9 132 -121 132q-52 0 -82 -35t-30 -103v-296q0 -68 31 -102.5t84 -34.5q111 0 123 131h81q-6 -100 -59 -154t-145 -54z" />
    <glyph glyph-name="uni0422" unicode="&#x422;" horiz-adv-x="417" 
d="M400 700v-77h-150v-623h-83v623h-150v77h383z" />
    <glyph glyph-name="uni0423" unicode="&#x423;" horiz-adv-x="420" 
d="M330 700h85l-172 -563q-23 -76 -62.5 -111.5t-110.5 -35.5h-24v76h26q39 0 60.5 23t36.5 73l15 49l-177 489h86l127 -367z" />
    <glyph glyph-name="uni0424" unicode="&#x424;" horiz-adv-x="658" 
d="M288 -59v78h-18q-109 0 -173 66.5t-64 186.5v155q0 121 64 188t173 67h18v73h81v-73h18q110 0 174 -67t64 -188v-155q0 -120 -64 -186.5t-174 -66.5h-18v-78h-81zM269 98h19v505h-19q-154 0 -154 -176v-155q0 -174 154 -174zM369 98h20q154 0 154 174v155q0 176 -154 176
h-20v-505z" />
    <glyph glyph-name="uni0425" unicode="&#x425;" horiz-adv-x="465" 
d="M448 0h-91l-124 284l-124 -284h-91l168 364l-159 336h91l115 -260l115 260h90l-158 -336z" />
    <glyph glyph-name="uni0426" unicode="&#x426;" horiz-adv-x="542" 
d="M439 -116v116h-366v700h83v-623h218v623h82v-623h63v-193h-80z" />
    <glyph glyph-name="uni0427" unicode="&#x427;" horiz-adv-x="500" 
d="M345 700h82v-701h-82v267q-49 -19 -99 -19q-96 0 -151.5 57t-55.5 160v236h82v-237q0 -69 34 -104t97 -35q48 0 93 19v357z" />
    <glyph glyph-name="uni0428" unicode="&#x428;" horiz-adv-x="798" 
d="M73 0v700h82v-623h203v623h82v-623h203v623h81v-700h-651z" />
    <glyph glyph-name="uni0429" unicode="&#x429;" horiz-adv-x="808" 
d="M705 -116v116h-632v700h82v-623h203v623h81v-623h203v623h81v-623h62v-193h-80z" />
    <glyph glyph-name="uni042A" unicode="&#x42a;" horiz-adv-x="545" 
d="M140 0v624h-124v76h207v-283h90q99 0 155 -55.5t56 -151.5q0 -101 -55.5 -155.5t-155.5 -54.5h-173zM223 77h87q62 0 96 34t34 99q0 63 -34 96t-96 33h-87v-262z" />
    <glyph glyph-name="uni042B" unicode="&#x42b;" horiz-adv-x="697" 
d="M73 0v700h84v-286h85q98 0 153.5 -55t55.5 -151q0 -99 -55 -153.5t-154 -54.5h-169zM541 0v700h82v-700h-82zM157 77h82q60 0 93.5 33.5t33.5 97.5q0 63 -33.5 95.5t-93.5 32.5h-82v-259z" />
    <glyph glyph-name="uni042C" unicode="&#x42c;" horiz-adv-x="482" 
d="M73 0v700h83v-285h101q95 0 149.5 -55.5t54.5 -150.5q0 -100 -54 -154.5t-150 -54.5h-184zM156 76h98q57 0 90 34t33 99q0 62 -33 95t-90 33h-98v-261z" />
    <glyph glyph-name="uni042D" unicode="&#x42d;" horiz-adv-x="486" 
d="M238 713q89 0 141.5 -56.5t52.5 -158.5v-296q0 -102 -53.5 -158t-143.5 -56q-91 0 -144 54t-60 154h81q12 -131 123 -131q53 0 84 34.5t31 102.5v118h-196v72h196v106q0 68 -30 103t-82 35q-112 0 -121 -132h-81q5 101 58 155t144 54z" />
    <glyph glyph-name="uni042E" unicode="&#x42e;" horiz-adv-x="740" 
d="M480 710q97 0 151.5 -63.5t54.5 -176.5v-240q0 -113 -54.5 -176.5t-151.5 -63.5t-151.5 63.5t-54.5 176.5v87h-119v-317h-82v700h82v-306h119v76q0 113 54.5 176.5t151.5 63.5zM602 230v240q0 160 -122 160t-122 -160v-240q0 -160 122 -160t122 160z" />
    <glyph glyph-name="uni042F" unicode="&#x42f;" horiz-adv-x="491" 
d="M22 0l161 275q-66 16 -102.5 70.5t-36.5 135.5q0 104 54 161.5t150 57.5h170v-700h-82v265h-68l-153 -265h-93zM247 342h89v281h-87q-121 0 -121 -140q0 -68 30.5 -104.5t88.5 -36.5z" />
    <glyph glyph-name="uni0430" unicode="&#x430;" horiz-adv-x="451" 
d="M223 539q79 0 122.5 -48t43.5 -134v-357h-65l-7 51q-42 -64 -119 -64q-73 0 -118.5 44t-45.5 119q0 77 49 118t137 41h90v47q0 107 -89 107q-39 0 -64 -21t-28 -60h-79q3 72 50 114.5t123 42.5zM310 160v81h-91q-105 0 -105 -92q0 -43 26.5 -66t72.5 -23q45 0 71 27
t26 73z" />
    <glyph glyph-name="uni0431" unicode="&#x431;" horiz-adv-x="467" 
d="M239 -11q-82 0 -129.5 51t-47.5 144v286q0 159 171 211q41 12 59.5 23.5t35.5 39.5l60 -46q-32 -64 -125 -89q-27 -7 -43.5 -14t-37.5 -21.5t-31.5 -39.5t-10.5 -61v-33q42 54 117 54q73 0 117 -50.5t44 -140.5v-119q0 -93 -48 -144t-131 -51zM239 66q99 0 99 118v111
q0 123 -96 123q-44 0 -72 -28t-28 -90v-116q0 -118 97 -118z" />
    <glyph glyph-name="uni0432" unicode="&#x432;" horiz-adv-x="427" 
d="M314 279q41 -15 63 -50t22 -77q0 -72 -45 -112t-132 -40h-160v526h148q78 0 120.5 -38t42.5 -105q0 -64 -59 -104zM138 457v-151h69q43 0 65.5 19.5t22.5 55.5q0 76 -88 76h-69zM223 70q98 0 98 84q0 83 -98 83h-85v-167h85z" />
    <glyph glyph-name="uni0433" unicode="&#x433;" horiz-adv-x="344" 
d="M330 527v-76h-189v-451h-79v527h268z" />
    <glyph glyph-name="uni0434" unicode="&#x434;" horiz-adv-x="461" 
d="M0 -116v189h39q39 64 49 210q8 115 10 243h290v-453h59v-189h-76v116h-295v-116h-76zM127 73h183v380h-137q-2 -107 -8 -185q-11 -127 -38 -195z" />
    <glyph glyph-name="uni0435" unicode="&#x435;" horiz-adv-x="452" 
d="M329 163h79q-7 -84 -54.5 -129t-129.5 -45q-81 0 -128 51t-47 142v165q0 90 48 141t129 51q83 0 131.5 -50.5t48.5 -141.5v-117h-277v-48q0 -116 97 -116q48 0 72.5 23t30.5 74zM227 464q-98 0 -98 -116v-53h199v53q0 116 -101 116z" />
    <glyph glyph-name="uni0436" unicode="&#x436;" horiz-adv-x="613" 
d="M524 0l-147 238l-33 -40v-198h-75v199l-33 39l-147 -238h-91l190 298l-172 228h94l87 -124l72 -106v230h75v-230l72 106l88 124h94l-172 -227l189 -299h-91z" />
    <glyph glyph-name="uni0437" unicode="&#x437;" horiz-adv-x="412" 
d="M299 276q36 -14 60 -47t24 -76q0 -74 -49.5 -119t-129.5 -45q-83 0 -132 44.5t-52 117.5h77q3 -40 30.5 -63.5t76.5 -23.5q48 0 74.5 24t26.5 69q0 38 -26.5 60t-75.5 22h-71v65h68q41 0 65.5 20t24.5 58q0 36 -23 58t-64 22q-89 0 -95 -91h-77q4 78 48 121t123 43
q72 0 118.5 -42t46.5 -105q0 -79 -68 -112z" />
    <glyph glyph-name="uni0438" unicode="&#x438;" horiz-adv-x="461" 
d="M62 0v526h77v-260q0 -84 -2 -132l2 -2q23 62 46 114l134 280h80v-526h-76v242q0 91 4 155l-2 1q-18 -60 -51 -129l-132 -269h-80z" />
    <glyph glyph-name="uni0439" unicode="&#x439;" horiz-adv-x="461" 
d="M232 608q-53 0 -84 31t-33 87h60q5 -59 56 -59q53 0 56 59h61q-2 -56 -33 -87t-83 -31zM62 0v526h77v-260q0 -84 -2 -132l2 -2q23 62 46 114l134 280h80v-526h-76v242q0 91 4 155l-2 1q-18 -60 -51 -129l-132 -269h-80z" />
    <glyph glyph-name="uni043A" unicode="&#x43a;" horiz-adv-x="432" 
d="M340 0l-162 238l-38 -43v-195h-78v526h78v-232l70 97l101 135h97l-179 -226l204 -300h-93z" />
    <glyph glyph-name="uni043B" unicode="&#x43b;" horiz-adv-x="442" 
d="M3 -6v76q39 0 54 41t21 124q10 117 13 291h289v-526h-78v453h-135q-4 -132 -12 -231q-8 -117 -43.5 -172.5t-108.5 -55.5z" />
    <glyph glyph-name="uni043C" unicode="&#x43c;" horiz-adv-x="547" 
d="M406 526h79v-526h-74v248q0 13 6 142l-4 2q-35 -102 -45 -127l-57 -131h-75l-57 131q-21 54 -44 127l-4 -2q0 -14 2.5 -63t2.5 -79v-248h-74v526h80l93 -214q28 -69 37 -96h3q9 27 37 96z" />
    <glyph glyph-name="uni043D" unicode="&#x43d;" horiz-adv-x="454" 
d="M313 526h79v-526h-79v234h-173v-234h-78v526h78v-218h173v218z" />
    <glyph glyph-name="uni043E" unicode="&#x43e;" horiz-adv-x="460" 
d="M230 -12q-84 0 -132.5 51t-48.5 144v161q0 93 48.5 144t132.5 51t132 -51t48 -144v-161q0 -93 -48 -144t-132 -51zM230 64q101 0 101 119v161q0 118 -101 118t-101 -118v-161q0 -119 101 -119z" />
    <glyph glyph-name="uni043F" unicode="&#x43f;" horiz-adv-x="454" 
d="M62 0v526h330v-526h-79v453h-173v-453h-78z" />
    <glyph glyph-name="uni0440" unicode="&#x440;" horiz-adv-x="465" 
d="M250 538q75 0 120.5 -53.5t45.5 -149.5v-147q0 -96 -44.5 -148t-121.5 -52q-67 0 -111 50v-218h-77v707h59l8 -49q45 60 121 60zM336 188v147q0 130 -100 130q-43 0 -70 -33t-27 -95v-149q0 -57 26 -91.5t71 -34.5q100 0 100 126z" />
    <glyph glyph-name="uni0441" unicode="&#x441;" horiz-adv-x="435" 
d="M223 -11q-80 0 -127 50.5t-47 140.5v169q0 90 47 140t127 50q83 0 130 -49.5t49 -140.5h-79q-4 114 -100 114q-94 0 -94 -114v-169q0 -114 94 -114q97 0 101 114h79q-2 -91 -50 -141t-130 -50z" />
    <glyph glyph-name="uni0442" unicode="&#x442;" horiz-adv-x="350" 
d="M339 526v-73h-125v-453h-78v453h-125v73h328z" />
    <glyph glyph-name="uni0443" unicode="&#x443;" horiz-adv-x="402" 
d="M315 526h81l-174 -578q-22 -69 -52 -103.5t-84 -34.5h-43v76h30q30 0 46.5 19t27.5 56l27 90l-168 475h85l76 -222l42 -133l39 132z" />
    <glyph glyph-name="uni0444" unicode="&#x444;" horiz-adv-x="619" 
d="M371 534q87 0 142.5 -55t55.5 -152v-128q0 -96 -55.5 -151t-142.5 -55h-23v-173h-77v173h-23q-87 0 -143 55t-56 151v128q0 97 55.5 152t143.5 55h23v187h77v-187h23zM248 69h23v389h-23q-53 0 -86 -33.5t-33 -97.5v-128q0 -63 33 -96.5t86 -33.5zM490 199v128
q0 64 -33 97.5t-86 33.5h-23v-389h23q52 0 85.5 33.5t33.5 96.5z" />
    <glyph glyph-name="uni0445" unicode="&#x445;" horiz-adv-x="394" 
d="M392 0h-90l-105 201l-105 -201h-90l148 263l-139 263h88l98 -193l99 193h87l-138 -263z" />
    <glyph glyph-name="uni0446" unicode="&#x446;" horiz-adv-x="468" 
d="M372 -116v116h-310v526h78v-453h170v453h79v-453h59v-189h-76z" />
    <glyph glyph-name="uni0447" unicode="&#x447;" horiz-adv-x="429" 
d="M291 0v191q-39 -20 -97 -20q-72 0 -117.5 53t-45.5 156v146h76v-146q0 -134 94 -134q58 0 90 20v260h76v-526h-76z" />
    <glyph glyph-name="uni0448" unicode="&#x448;" horiz-adv-x="684" 
d="M56 0v526h78v-453h166v453h78v-453h166v453h78v-526h-566z" />
    <glyph glyph-name="uni0449" unicode="&#x449;" horiz-adv-x="705" 
d="M611 -116v116h-549v526h78v-453h166v453h78v-453h166v453h78v-454h57v-188h-74z" />
    <glyph glyph-name="uni044A" unicode="&#x44a;" horiz-adv-x="470" 
d="M284 345q74 0 123.5 -48t49.5 -123q0 -76 -49.5 -125t-123.5 -49h-167v454h-106v72h184v-181h89zM279 73q43 0 71 27.5t28 73.5q0 44 -28 71t-71 27h-84v-199h84z" />
    <glyph glyph-name="uni044B" unicode="&#x44b;" horiz-adv-x="615" 
d="M230 338q74 0 123.5 -47t49.5 -121t-49.5 -122t-123.5 -48h-168v523h78v-185h90zM475 523h78v-523h-78v523zM225 73q43 0 70.5 27t27.5 71q0 43 -27.5 68.5t-70.5 25.5h-85v-192h85z" />
    <glyph glyph-name="uni044C" unicode="&#x44c;" horiz-adv-x="416" 
d="M230 345q74 0 123.5 -48t49.5 -123q0 -76 -49.5 -125t-123.5 -49h-168v526h78v-181h90zM225 73q43 0 70.5 27.5t27.5 73.5q0 44 -27.5 71t-70.5 27h-85v-199h85z" />
    <glyph glyph-name="uni044D" unicode="&#x44d;" horiz-adv-x="434" 
d="M212 539q80 0 126.5 -50t46.5 -140v-169q0 -90 -46.5 -140.5t-126.5 -50.5q-82 0 -130 49.5t-50 138.5h79q4 -111 100 -111q94 0 94 114v55h-169v62h169v52q0 114 -94 114t-98 -112h-79q2 90 48.5 139t129.5 49z" />
    <glyph glyph-name="uni044E" unicode="&#x44e;" horiz-adv-x="623" 
d="M399 539q81 0 128 -51t47 -144v-160q0 -93 -47 -144t-128 -51t-127.5 51t-46.5 144v48h-86v-232h-77v526h77v-220h86v38q0 93 46.5 144t127.5 51zM495 184v160q0 118 -96 118t-96 -118v-160q0 -118 96 -118t96 118z" />
    <glyph glyph-name="uni044F" unicode="&#x44f;" horiz-adv-x="410" 
d="M200 526h153v-526h-76v185h-69l-107 -185h-91l120 193q-46 14 -74 57t-28 107q0 77 47 123t125 46zM277 254v199h-75q-46 0 -71 -25.5t-25 -72.5q0 -101 92 -101h79z" />
    <glyph glyph-name="uni0451" unicode="&#x451;" horiz-adv-x="452" 
d="M156 623q-20 0 -32.5 12t-12.5 33q0 20 12.5 32t32.5 12t32.5 -12t12.5 -32q0 -21 -12.5 -33t-32.5 -12zM285 623q-21 0 -33.5 12t-12.5 33q0 20 13 32t33 12q21 0 33.5 -12t12.5 -32q0 -21 -12.5 -33t-33.5 -12zM329 163h79q-7 -84 -54.5 -129t-129.5 -45q-81 0 -128 51
t-47 142v165q0 90 48 141t129 51q83 0 131.5 -50.5t48.5 -141.5v-117h-277v-48q0 -116 97 -116q48 0 72.5 23t30.5 74zM227 464q-98 0 -98 -116v-53h199v53q0 116 -101 116z" />
    <glyph glyph-name="uni0452" unicode="&#x452;" horiz-adv-x="468" 
d="M232 -202v75q53 1 77 25t24 72v345q0 79 -20.5 114t-64.5 35q-48 0 -76.5 -37.5t-28.5 -104.5v-322h-79v612h-63v51h63v61h79v-61h95v-51h-95v-144q43 71 125 71q144 0 144 -220v-347q0 -82 -45.5 -128t-134.5 -46z" />
    <glyph glyph-name="uni0453" unicode="&#x453;" horiz-adv-x="344" 
d="M292 729l-89 -119h-67l75 119h81zM330 527v-76h-189v-451h-79v527h268z" />
    <glyph glyph-name="uni0454" unicode="&#x454;" horiz-adv-x="434" 
d="M323 177h79q-2 -89 -49.5 -138.5t-129.5 -49.5q-80 0 -127 50.5t-47 140.5v169q0 90 47 140t127 50q82 0 128.5 -49t49.5 -139h-80q-3 112 -98 112q-94 0 -94 -114v-52h169v-62h-169v-55q0 -114 94 -114q96 0 100 111z" />
    <glyph glyph-name="uni0455" unicode="&#x455;" horiz-adv-x="410" 
d="M210 -13q-83 0 -132 48t-50 124h78q1 -45 27.5 -71t75.5 -26q43 0 67 20.5t24 56.5q0 32 -27.5 53.5t-66 36t-77.5 31.5t-66.5 50.5t-27.5 83.5q0 66 45 105.5t120 39.5q78 0 122.5 -45t46.5 -120h-77q-1 43 -24.5 67.5t-67.5 24.5q-40 0 -63 -19.5t-23 -53.5
q0 -30 27.5 -50.5t66 -34t77.5 -31t66.5 -52.5t27.5 -87q0 -68 -46 -109.5t-123 -41.5z" />
    <glyph glyph-name="uni0456" unicode="&#x456;" horiz-adv-x="203" 
d="M101 619q-25 0 -40 15t-15 39q0 25 15 40t40 15q24 0 39.5 -15t15.5 -40q0 -23 -15.5 -38.5t-39.5 -15.5zM62 0v526h79v-526h-79z" />
    <glyph glyph-name="uni0457" unicode="&#x457;" horiz-adv-x="217" 
d="M48 628q-20 0 -32 11.5t-12 31.5t12 32t32 12t31.5 -12t11.5 -32t-11.5 -31.5t-31.5 -11.5zM169 628q-20 0 -32.5 11.5t-12.5 31.5t12.5 32t32.5 12t32 -12t12 -32t-12 -31.5t-32 -11.5zM69 0v526h78v-526h-78z" />
    <glyph glyph-name="uni0458" unicode="&#x458;" horiz-adv-x="240" 
d="M123 618q-25 0 -40 15t-15 39q0 25 15 40t40 15q24 0 39.5 -15t15.5 -40q0 -23 -15.5 -38.5t-39.5 -15.5zM-17 -193v76q54 1 77.5 28.5t23.5 83.5v531h78v-529q0 -90 -44.5 -139.5t-134.5 -50.5z" />
    <glyph glyph-name="uni0459" unicode="&#x459;" horiz-adv-x="655" 
d="M3 -6v76q39 0 54.5 41.5t20.5 123.5q10 117 13 291h289v-188h89q74 0 123.5 -47t49.5 -121t-49.5 -122t-123.5 -48h-167v453h-135q-4 -132 -12 -231q-8 -116 -43.5 -172t-108.5 -56zM380 73h84q43 0 71 27t28 71q0 43 -28 68.5t-71 25.5h-84v-192z" />
    <glyph glyph-name="uni045A" unicode="&#x45a;" horiz-adv-x="665" 
d="M62 0v526h78v-205h172v205h78v-205h89q74 0 123.5 -44t49.5 -112q0 -72 -49.5 -118.5t-123.5 -46.5h-167v247h-172v-247h-78zM390 73h85q43 0 70 25.5t27 66.5q0 38 -27 60.5t-70 22.5h-85v-175z" />
    <glyph glyph-name="uni045B" unicode="&#x45b;" horiz-adv-x="464" 
d="M264 539q144 0 144 -220v-319h-79v315q0 79 -20.5 114t-64.5 35q-48 0 -76.5 -37.5t-28.5 -104.5v-322h-79v607h-64v51h64v66h79v-66h95v-51h-95v-139q45 71 125 71z" />
    <glyph glyph-name="uni045C" unicode="&#x45c;" horiz-adv-x="432" 
d="M313 729l-89 -119h-67l75 119h81zM340 0l-162 238l-38 -43v-195h-78v526h78v-232l70 97l101 135h97l-179 -226l204 -300h-93z" />
    <glyph glyph-name="uni045D" unicode="&#x45d;" horiz-adv-x="461" 
d="M288 610h-67l-89 119h81zM62 0v526h77v-260q0 -84 -2 -132l2 -2q23 62 46 114l134 280h80v-526h-76v242q0 91 4 155l-2 1q-18 -60 -51 -129l-132 -269h-80z" />
    <glyph glyph-name="uni045E" unicode="&#x45e;" horiz-adv-x="402" 
d="M208 609q-53 0 -84 31t-33 87h60q5 -59 56 -59q53 0 56 59h61q-2 -56 -33 -87t-83 -31zM315 526h81l-174 -578q-22 -69 -52 -103.5t-84 -34.5h-43v76h30q30 0 46.5 19t27.5 56l27 90l-168 475h85l76 -222l42 -133l39 132z" />
    <glyph glyph-name="uni045F" unicode="&#x45f;" horiz-adv-x="454" 
d="M392 526v-526h-126v-116h-74v116h-130v526h78v-453h173v453h79z" />
    <glyph glyph-name="uni0490" unicode="&#x490;" horiz-adv-x="418" 
d="M329 808h72v-185h-246v-623h-82v700h256v108z" />
    <glyph glyph-name="uni0491" unicode="&#x491;" horiz-adv-x="345" 
d="M261 626h69v-175h-189v-451h-79v526h199v100z" />
    <glyph glyph-name="Wgrave" unicode="&#x1e80;" horiz-adv-x="732" 
d="M418 769h-68l-107 119h82zM165 0l-156 700h86l79 -407q27 -138 33 -182h4q4 28 34 190l77 388h88l77 -388l34 -190h4q6 44 33 182l80 407h85l-156 -700h-89l-76 344q-23 102 -34 223h-4q-11 -121 -34 -223l-76 -344h-89z" />
    <glyph glyph-name="wgrave" unicode="&#x1e81;" horiz-adv-x="623" 
d="M366 606h-67l-89 119h81zM535 526h82l-128 -526h-86l-54 225q-29 119 -36 194h-3q-7 -75 -36 -194l-55 -225h-85l-128 526h82l56 -260q3 -13 32 -174h3q16 100 35 185l55 239h84l56 -239q23 -112 35 -185h3q12 78 32 174z" />
    <glyph glyph-name="Wacute" unicode="&#x1e82;" horiz-adv-x="732" 
d="M316 769l92 119h83l-107 -119h-68zM165 0l-156 700h86l79 -407q27 -138 33 -182h4q4 28 34 190l77 388h88l77 -388l34 -190h4q6 44 33 182l80 407h85l-156 -700h-89l-76 344q-23 102 -34 223h-4q-11 -121 -34 -223l-76 -344h-89z" />
    <glyph glyph-name="wacute" unicode="&#x1e83;" horiz-adv-x="623" 
d="M408 725l-89 -119h-67l75 119h81zM535 526h82l-128 -526h-86l-54 225q-29 119 -36 194h-3q-7 -75 -36 -194l-55 -225h-85l-128 526h82l56 -260q3 -13 32 -174h3q16 100 35 185l55 239h84l56 -239q23 -112 35 -185h3q12 78 32 174z" />
    <glyph glyph-name="Wdieresis" unicode="&#x1e84;" horiz-adv-x="732" 
d="M300 785q-20 0 -32.5 12t-12.5 32q0 21 12.5 33t32.5 12t32 -12t12 -33q0 -20 -12 -32t-32 -12zM438 785q-20 0 -33 12t-13 32q0 21 12.5 33t33.5 12q20 0 32.5 -12t12.5 -33q0 -20 -12.5 -32t-32.5 -12zM165 0l-156 700h86l79 -407q27 -138 33 -182h4q4 28 34 190
l77 388h88l77 -388l34 -190h4q6 44 33 182l80 407h85l-156 -700h-89l-76 344q-23 102 -34 223h-4q-11 -121 -34 -223l-76 -344h-89z" />
    <glyph glyph-name="wdieresis" unicode="&#x1e85;" horiz-adv-x="623" 
d="M244 623q-20 0 -32.5 12t-12.5 33q0 20 12.5 32t32.5 12t32.5 -12t12.5 -32q0 -21 -12.5 -33t-32.5 -12zM373 623q-21 0 -33.5 12t-12.5 33q0 20 13 32t33 12q21 0 33.5 -12t12.5 -32q0 -21 -12.5 -33t-33.5 -12zM535 526h82l-128 -526h-86l-54 225q-29 119 -36 194h-3
q-7 -75 -36 -194l-55 -225h-85l-128 526h82l56 -260q3 -13 32 -174h3q16 100 35 185l55 239h84l56 -239q23 -112 35 -185h3q12 78 32 174z" />
    <glyph glyph-name="Ygrave" unicode="&#x1ef2;" horiz-adv-x="435" 
d="M267 769h-68l-107 119h82zM176 0v240l-172 460h86l89 -251l38 -109h1l38 111l89 249h86l-173 -460v-240h-82z" />
    <glyph glyph-name="ygrave" unicode="&#x1ef3;" horiz-adv-x="402" 
d="M264 611h-67l-89 119h81zM315 526h81l-174 -578q-22 -69 -52 -103.5t-84 -34.5h-43v76h30q30 0 46.5 19t27.5 56l27 90l-168 475h85l76 -222l42 -133l39 132z" />
    <glyph glyph-name="endash" unicode="&#x2013;" horiz-adv-x="427" 
d="M42 222v71h343v-71h-343z" />
    <glyph glyph-name="emdash" unicode="&#x2014;" horiz-adv-x="552" 
d="M42 222v71h468v-71h-468z" />
    <glyph glyph-name="quoteleft" unicode="&#x2018;" horiz-adv-x="139" 
d="M19 478l51 222h51l-20 -222h-82z" />
    <glyph glyph-name="quoteright" unicode="&#x2019;" horiz-adv-x="139" 
d="M18 484l21 221h82l-52 -221h-51z" />
    <glyph glyph-name="quotesinglbase" unicode="&#x201a;" horiz-adv-x="159" 
d="M28 -133l21 222h82l-52 -222h-51z" />
    <glyph glyph-name="quotedblleft" unicode="&#x201c;" horiz-adv-x="254" 
d="M19 478l51 222h51l-20 -222h-82zM134 478l51 222h51l-20 -222h-82z" />
    <glyph glyph-name="quotedblright" unicode="&#x201d;" horiz-adv-x="254" 
d="M18 478l21 222h82l-52 -222h-51zM133 478l21 222h82l-52 -222h-51z" />
    <glyph glyph-name="quotedblbase" unicode="&#x201e;" horiz-adv-x="274" 
d="M28 -133l21 222h82l-52 -222h-51zM143 -133l21 222h82l-52 -222h-51z" />
    <glyph glyph-name="dagger" unicode="&#x2020;" horiz-adv-x="370" 
d="M344 520v-72h-121v-541h-76v541h-121v72h121v195h76v-195h121z" />
    <glyph glyph-name="daggerdbl" unicode="&#x2021;" horiz-adv-x="372" 
d="M344 448h-120v-262h120v-72h-120v-207h-77v207h-120v72h120v262h-120v72h120v195h77v-195h120v-72z" />
    <glyph glyph-name="bullet" unicode="&#x2022;" horiz-adv-x="192" 
d="M96 177q-33 0 -53.5 20.5t-20.5 53.5q0 32 20.5 52.5t53.5 20.5q32 0 52.5 -20.5t20.5 -52.5q0 -33 -20.5 -53.5t-52.5 -20.5z" />
    <glyph glyph-name="ellipsis" unicode="&#x2026;" horiz-adv-x="523" 
d="M94 -10q-24 0 -39 15t-15 39t15 39t39 15t39 -15t15 -39t-15 -39t-39 -15zM262 -10q-25 0 -39.5 15t-14.5 39t14.5 39t39.5 15q24 0 39 -15t15 -39t-15 -39t-39 -15zM429 -10q-24 0 -39 15t-15 39t15 39t39 15t39 -15t15 -39t-15 -39t-39 -15z" />
    <glyph glyph-name="perthousand" unicode="&#x2030;" horiz-adv-x="845" 
d="M117 391q-45 0 -72.5 28.5t-27.5 80.5v100q0 52 27.5 81t72.5 29q44 0 71.5 -29t27.5 -81v-100q0 -52 -27.5 -80.5t-71.5 -28.5zM11 0l485 700h66l-485 -700h-66zM117 444q42 0 42 55v102q0 56 -42 56q-43 0 -43 -56v-102q0 -55 43 -55zM455 -9q-45 0 -72.5 28.5
t-27.5 80.5v100q0 52 27.5 81t72.5 29q44 0 71.5 -29t27.5 -81v-100q0 -52 -27.5 -80.5t-71.5 -28.5zM708 -9q-45 0 -72.5 28.5t-27.5 80.5v100q0 52 27.5 81t72.5 29q43 0 70.5 -29t27.5 -81v-100q0 -52 -27.5 -80.5t-70.5 -28.5zM455 44q42 0 42 55v102q0 56 -42 56
q-43 0 -43 -56v-102q0 -55 43 -55zM708 44q42 0 42 55v102q0 56 -42 56q-43 0 -43 -56v-102q0 -55 43 -55z" />
    <glyph glyph-name="guilsinglleft" unicode="&#x2039;" horiz-adv-x="282" 
d="M161 88l-119 152v34l119 152h79l-131 -169l131 -169h-79z" />
    <glyph glyph-name="guilsinglright" unicode="&#x203a;" horiz-adv-x="282" 
d="M120 88h-78l131 169l-131 169h78l120 -152v-34z" />
    <glyph glyph-name="fraction" unicode="&#x2044;" horiz-adv-x="553" 
d="M13 0l453 700h75l-454 -700h-74z" />
    <glyph glyph-name="Euro" unicode="&#x20ac;" horiz-adv-x="549" 
d="M438 196h80q-6 -100 -59 -154t-144 -54q-90 0 -144 56t-54 158v65h-81v54h81v60h-81v54h81v63q0 102 53 158.5t142 56.5q91 0 144 -54.5t57 -154.5h-80q-10 132 -121 132q-52 0 -82.5 -35t-30.5 -103v-63h158v-54h-158v-60h158v-54h-158v-65q0 -68 31 -102.5t85 -34.5
q110 0 123 131z" />
    <glyph glyph-name="trademark" unicode="&#x2122;" horiz-adv-x="471" 
d="M28 658v42h157v-42h-56v-228h-45v228h-56zM389 700h48v-270h-44v66q0 20 4 128l-2 1q-9 -20 -24 -62l-24 -63h-42l-24 63q-15 42 -24 62l-2 -1q3 -81 3 -128v-66h-43v270h48l32 -76q15 -35 31 -82q6 18 30 82z" />
    <glyph glyph-name="partialdiff" unicode="&#x2202;" horiz-adv-x="452" 
d="M168 734q102 -27 168 -107.5t67 -203.5v-239q0 -93 -47.5 -144t-130.5 -51q-81 0 -128.5 51t-47.5 144v133q0 92 45.5 143t119.5 51q65 0 107 -40q-20 146 -179 196zM323 184v133q0 59 -25.5 88.5t-71.5 29.5q-97 0 -97 -118v-133q0 -118 96 -118q98 0 98 118z" />
    <glyph glyph-name="emptyset" unicode="&#x2205;" horiz-adv-x="810" 
d="M760 731l-100 -121q95 -98 95 -260t-97 -261t-256 -99q-119 0 -204 57l-64 -78h-82l97 117q-100 100 -100 264q0 163 97 261.5t256 98.5q122 0 210 -60l66 81h82zM115 350q0 -131 76 -212l379 461q-71 48 -168 48q-130 0 -208.5 -81.5t-78.5 -215.5zM690 350
q0 127 -72 208l-379 -461q71 -44 163 -44q130 0 209 81.5t79 215.5z" />
    <glyph glyph-name="product" unicode="&#x220f;" horiz-adv-x="507" 
d="M73 -100v800h361v-800h-80v723h-201v-723h-80z" />
    <glyph glyph-name="summation" unicode="&#x2211;" horiz-adv-x="369" 
d="M38 -1v69l154 282l-154 282v69h294v-73h-209l140 -255v-46l-140 -255h209v-73h-294z" />
    <glyph glyph-name="minus" unicode="&#x2212;" horiz-adv-x="452" 
d="M45 273v73h362v-73h-362z" />
    <glyph glyph-name="radical" unicode="&#x221a;" horiz-adv-x="471" 
d="M185 0l-84 429h-86v71h150l81 -422l133 716h79l-152 -794h-121z" />
    <glyph glyph-name="infinity" unicode="&#x221e;" horiz-adv-x="630" 
d="M440 405q59 0 99.5 -42.5t40.5 -111.5q0 -68 -40 -109.5t-99 -41.5q-80 0 -126 80q-46 -80 -126 -80q-59 0 -99.5 42t-40.5 109q0 69 41 111.5t100 42.5q79 0 125 -73q46 73 125 73zM192 170q30 0 47 21t36 64q-17 39 -35 59.5t-48 20.5q-31 0 -50 -21t-19 -62
q0 -38 19 -60t50 -22zM437 170q31 0 50.5 22t19.5 60q0 41 -19 62t-51 21q-29 0 -47 -20.5t-35 -59.5q12 -28 21 -43.5t25 -28.5t36 -13z" />
    <glyph glyph-name="integral" unicode="&#x222b;" horiz-adv-x="310" 
d="M20 -190v76q96 1 96 93v558q0 81 44.5 127t130.5 46v-75q-96 -1 -96 -93v-558q0 -81 -45 -127t-130 -47z" />
    <glyph glyph-name="approxequal" unicode="&#x2248;" horiz-adv-x="465" 
d="M324 318q-34 0 -93.5 22.5t-82.5 22.5q-37 0 -62 -35l-40 57q40 51 96 51q33 0 93 -22.5t83 -22.5q35 0 62 35l40 -55q-39 -53 -96 -53zM324 158q-34 0 -93.5 22.5t-82.5 22.5q-37 0 -62 -35l-40 57q40 51 96 51q33 0 93 -22.5t83 -22.5q35 0 62 35l40 -55
q-39 -53 -96 -53z" />
    <glyph glyph-name="notequal" unicode="&#x2260;" horiz-adv-x="465" 
d="M414 381h-125l-42 -86h167v-73h-203l-37 -74h-71l37 74h-89v73h125l42 86h-167v73h203l37 74h71l-37 -74h89v-73z" />
    <glyph glyph-name="lessequal" unicode="&#x2264;" horiz-adv-x="422" 
d="M377 532v-75l-253 -104l253 -103v-76l-332 138v82zM45 68v70h332v-70h-332z" />
    <glyph glyph-name="greaterequal" unicode="&#x2265;" horiz-adv-x="422" 
d="M45 532l332 -138v-82l-332 -138v76l252 103l-252 104v75zM45 68v70h332v-70h-332z" />
    <glyph glyph-name="lozenge" unicode="&#x25ca;" horiz-adv-x="461" 
d="M188 -1l-139 332v38l139 331h85l138 -331v-38l-138 -332h-85zM230 75l111 275l-111 276l-110 -276z" />
    <glyph glyph-name="i.loclTRK" horiz-adv-x="203" 
d="M101 619q-25 0 -40 15t-15 39q0 25 15 40t40 15q24 0 39.5 -15t15.5 -40q0 -23 -15.5 -38.5t-39.5 -15.5zM62 0v526h79v-526h-79z" />
    <glyph glyph-name="uni0414.loclBGR" horiz-adv-x="496" 
d="M2 -116v193h49l153 623h88l153 -623h48v-193h-80v116h-331v-116h-80zM134 77h229l-73 317q-10 44 -41 204h-2q-27 -144 -40 -203z" />
    <glyph glyph-name="uni041B.loclBGR" horiz-adv-x="460" 
d="M184 700h92l175 -700h-87l-94 411l-38 182h-4l-17.5 -85.5l-20.5 -96.5l-95 -411h-86z" />
    <glyph glyph-name="uni0432.loclBGR" horiz-adv-x="456" 
d="M304 391q113 -36 113 -185q0 -104 -52 -160.5t-138 -56.5q-168 0 -168 215v333q0 92 44.5 144.5t123.5 52.5q76 0 120 -49t44 -131q0 -116 -87 -163zM222 658q-40 0 -63 -31t-23 -90v-130l57 5q57 4 88.5 40.5t31.5 95.5q0 110 -91 110zM226 66q112 0 112 136
q0 76 -32 108.5t-98 27.5l-72 -5v-140q0 -67 22.5 -97t67.5 -30z" />
    <glyph glyph-name="uni0433.loclBGR" horiz-adv-x="407" 
d="M202 -11q-79 0 -125 40t-46 109q0 48 26.5 82.5t64 53t75.5 34t64.5 36.5t26.5 50q0 34 -21 52.5t-59 18.5q-89 0 -89 -90h-77q2 74 46 119t120 45q73 0 116 -38.5t43 -105.5q0 -40 -19 -70.5t-47.5 -47t-62 -32.5t-62 -28t-47.5 -32t-19 -46q0 -35 26 -55t67 -20
q93 0 98 95h78q-2 -75 -50 -122.5t-127 -47.5z" />
    <glyph glyph-name="uni0434.loclBGR" horiz-adv-x="467" 
d="M345 526h60v-557q0 -74 -46.5 -118t-125.5 -44q-76 0 -122 42.5t-50 115.5h77q3 -41 27.5 -63t67.5 -22q44 0 68.5 23.5t24.5 65.5v91q-41 -41 -107 -41q-77 0 -123.5 51t-46.5 139v130q0 94 46 147t122 53t119 -60zM232 93q94 0 94 116v138q0 57 -26 87t-68 30
q-103 0 -103 -125v-130q0 -116 103 -116z" />
    <glyph glyph-name="uni0436.loclBGR" horiz-adv-x="612" 
d="M523 0l-146 241l-33 -38v-203h-76v203l-33 39l-146 -242h-91l188 303l-170 223h93l114 -158l45 -67v422h76v-422l44 66l115 159h93l-169 -224l186 -302h-90z" />
    <glyph glyph-name="uni0437.loclBGR" horiz-adv-x="433" 
d="M289 190q105 -38 105 -180q0 -95 -49 -148.5t-139 -53.5q-83 0 -129.5 48.5t-50.5 142.5h77q7 -115 103 -115q52 0 80 34t28 96q0 65 -31.5 100.5t-89.5 35.5h-57v72h50q54 0 84 33t30 94q0 54 -25 84.5t-70 30.5q-86 0 -95 -113h-76q4 91 49 139.5t124 48.5
q80 0 124.5 -49t44.5 -136q0 -62 -19 -101.5t-68 -62.5z" />
    <glyph glyph-name="uni0438.loclBGR" horiz-adv-x="466" 
d="M326 526h78v-526h-59l-10 62q-44 -75 -133 -75q-145 0 -145 206v333h78v-326q0 -72 20.5 -105t65.5 -33q48 0 76.5 37.5t28.5 104.5v322z" />
    <glyph glyph-name="uni0439.loclBGR" horiz-adv-x="466" 
d="M230 608q-53 0 -84 31t-33 87h60q5 -59 56 -59q53 0 56 59h61q-2 -56 -33 -87t-83 -31zM326 526h78v-526h-59l-10 62q-44 -75 -133 -75q-145 0 -145 206v333h78v-326q0 -72 20.5 -105t65.5 -33q48 0 76.5 37.5t28.5 104.5v322z" />
    <glyph glyph-name="uni045D.loclBGR" horiz-adv-x="471" 
d="M282 610h-67l-89 119h81zM332 526h78v-526h-59l-10 62q-44 -75 -134 -75q-144 0 -144 206v333h78v-326q0 -72 20.5 -105t65.5 -33q48 0 76.5 37.5t28.5 104.5v322z" />
    <glyph glyph-name="uni043A.loclBGR" horiz-adv-x="433" 
d="M343 0l-158 254l-45 -50v-204h-78v724h78v-419l174 221h95l-171 -212l197 -314h-92z" />
    <glyph glyph-name="uni043B.loclBGR" horiz-adv-x="393" 
d="M153 526h87l147 -526h-83l-70 271q-17 72 -35 158h-5q-18 -86 -35 -158l-70 -271h-83z" />
    <glyph glyph-name="uni043F.loclBGR" horiz-adv-x="466" 
d="M265 539q144 0 144 -206v-333h-78v327q0 71 -20.5 104t-65.5 33q-48 0 -76.5 -37.5t-28.5 -104.5v-322h-78v526h59l10 -62q44 75 134 75z" />
    <glyph glyph-name="uni0442.loclBGR" horiz-adv-x="719" 
d="M523 539q66 0 103 -52.5t37 -154.5v-332h-78v328q0 136 -80 136q-47 0 -75 -38t-28 -104v-322h-78v328q0 136 -82 136q-46 0 -74 -37.5t-28 -104.5v-322h-78v526h59l10 -63q42 76 128 76q91 0 125 -90q41 90 139 90z" />
    <glyph glyph-name="uni0446.loclBGR" horiz-adv-x="481" 
d="M386 -116v116q-40 17 -51 68q-42 -80 -135 -80q-144 0 -144 205v333h79v-326q0 -72 20 -105t64 -33q48 0 76.5 38t28.5 104v322h78v-381q0 -47 12.5 -62.5t46.5 -15.5v-183h-75z" />
    <glyph glyph-name="uni0448.loclBGR" horiz-adv-x="720" 
d="M579 526h78v-526h-59l-10 63q-42 -76 -128 -76q-90 0 -124 91q-41 -91 -140 -91q-66 0 -103 52.5t-37 154.5v332h78v-328q0 -136 80 -136q47 0 75.5 37.5t28.5 104.5v322h78v-328q0 -136 82 -136q46 0 73.5 38t27.5 104v322z" />
    <glyph glyph-name="uni0449.loclBGR" horiz-adv-x="735" 
d="M639 -116v116q-41 17 -51 69q-39 -81 -129 -81q-88 0 -122 89q-40 -89 -140 -89q-66 0 -103.5 52t-37.5 155v331h78v-328q0 -136 81 -136q47 0 74.5 38t27.5 104v322h78v-328q0 -136 82 -136q46 0 73 38t27 104v322h78v-381q0 -47 12.5 -62.5t47.5 -15.5v-183h-76z" />
    <glyph glyph-name="uni044C.loclBGR" horiz-adv-x="417" 
d="M240 364q73 2 118.5 -48.5t45.5 -136.5q0 -88 -48.5 -140t-127.5 -52t-125.5 48t-46.5 128v363h78v-207q39 45 106 45zM228 63q96 0 96 116q0 111 -95 111q-45 0 -70 -29t-25 -84q0 -56 24.5 -85t69.5 -29z" />
    <glyph glyph-name="uni044A.loclBGR" horiz-adv-x="472" 
d="M295 364q73 2 118.5 -48.5t45.5 -136.5q0 -88 -48 -140t-127 -52t-125.5 47.5t-46.5 128.5v291h-106v72h184v-206q39 44 105 44zM284 63q46 0 70.5 29.5t24.5 86.5q0 111 -95 111q-45 0 -69.5 -29t-24.5 -84q0 -114 94 -114z" />
    <glyph glyph-name="uni044E.loclBGR" horiz-adv-x="624" 
d="M400 535q81 0 127.5 -50.5t46.5 -143.5v-157q0 -93 -46.5 -144t-127.5 -51t-128 51t-47 144v48h-86v-232h-76v721h76v-415h86v35q0 93 47 143.5t128 50.5zM495 184v157q0 117 -95 117q-96 0 -96 -117v-157q0 -118 96 -118q95 0 95 118z" />
    <glyph glyph-name="uni0432.ss01" horiz-adv-x="456" 
d="M304 391q113 -36 113 -185q0 -104 -52 -160.5t-138 -56.5q-168 0 -168 215v333q0 92 44.5 144.5t123.5 52.5q76 0 120 -49t44 -131q0 -116 -87 -163zM222 658q-40 0 -63 -31t-23 -90v-130l57 5q57 4 88.5 40.5t31.5 95.5q0 110 -91 110zM226 66q112 0 112 136
q0 76 -32 108.5t-98 27.5l-72 -5v-140q0 -67 22.5 -97t67.5 -30z" />
    <glyph glyph-name="uni0433.ss01" horiz-adv-x="407" 
d="M202 -11q-79 0 -125 40t-46 109q0 48 26.5 82.5t64 53t75.5 34t64.5 36.5t26.5 50q0 34 -21 52.5t-59 18.5q-89 0 -89 -90h-77q2 74 46 119t120 45q73 0 116 -38.5t43 -105.5q0 -40 -19 -70.5t-47.5 -47t-62 -32.5t-62 -28t-47.5 -32t-19 -46q0 -35 26 -55t67 -20
q93 0 98 95h78q-2 -75 -50 -122.5t-127 -47.5z" />
    <glyph glyph-name="uni0434.ss01" horiz-adv-x="467" 
d="M345 526h60v-557q0 -74 -46.5 -118t-125.5 -44q-76 0 -122 42.5t-50 115.5h77q3 -41 27.5 -63t67.5 -22q44 0 68.5 23.5t24.5 65.5v91q-41 -41 -107 -41q-77 0 -123.5 51t-46.5 139v130q0 94 46 147t122 53t119 -60zM232 93q94 0 94 116v138q0 57 -26 87t-68 30
q-103 0 -103 -125v-130q0 -116 103 -116z" />
    <glyph glyph-name="uni0436.ss01" horiz-adv-x="612" 
d="M523 0l-146 241l-33 -38v-203h-76v203l-33 39l-146 -242h-91l188 303l-170 223h93l114 -158l45 -67v422h76v-422l44 66l115 159h93l-169 -224l186 -302h-90z" />
    <glyph glyph-name="uni0437.ss01" horiz-adv-x="433" 
d="M289 190q105 -38 105 -180q0 -95 -49 -148.5t-139 -53.5q-83 0 -129.5 48.5t-50.5 142.5h77q7 -115 103 -115q52 0 80 34t28 96q0 65 -31.5 100.5t-89.5 35.5h-57v72h50q54 0 84 33t30 94q0 54 -25 84.5t-70 30.5q-86 0 -95 -113h-76q4 91 49 139.5t124 48.5
q80 0 124.5 -49t44.5 -136q0 -62 -19 -101.5t-68 -62.5z" />
    <glyph glyph-name="uni0438.ss01" horiz-adv-x="466" 
d="M326 526h78v-526h-59l-10 62q-44 -75 -133 -75q-145 0 -145 206v333h78v-326q0 -72 20.5 -105t65.5 -33q48 0 76.5 37.5t28.5 104.5v322z" />
    <glyph glyph-name="uni0439.ss01" horiz-adv-x="466" 
d="M230 608q-53 0 -84 31t-33 87h60q5 -59 56 -59q53 0 56 59h61q-2 -56 -33 -87t-83 -31zM326 526h78v-526h-59l-10 62q-44 -75 -133 -75q-145 0 -145 206v333h78v-326q0 -72 20.5 -105t65.5 -33q48 0 76.5 37.5t28.5 104.5v322z" />
    <glyph glyph-name="uni045D.ss01" horiz-adv-x="471" 
d="M282 610h-67l-89 119h81zM332 526h78v-526h-59l-10 62q-44 -75 -134 -75q-144 0 -144 206v333h78v-326q0 -72 20.5 -105t65.5 -33q48 0 76.5 37.5t28.5 104.5v322z" />
    <glyph glyph-name="uni043A.ss01" horiz-adv-x="433" 
d="M343 0l-158 254l-45 -50v-204h-78v724h78v-419l174 221h95l-171 -212l197 -314h-92z" />
    <glyph glyph-name="uni043B.ss01" horiz-adv-x="393" 
d="M153 526h87l147 -526h-83l-70 271q-17 72 -35 158h-5q-18 -86 -35 -158l-70 -271h-83z" />
    <glyph glyph-name="uni043F.ss01" horiz-adv-x="466" 
d="M265 539q144 0 144 -206v-333h-78v327q0 71 -20.5 104t-65.5 33q-48 0 -76.5 -37.5t-28.5 -104.5v-322h-78v526h59l10 -62q44 75 134 75z" />
    <glyph glyph-name="uni0442.ss01" horiz-adv-x="719" 
d="M523 539q66 0 103 -52.5t37 -154.5v-332h-78v328q0 136 -80 136q-47 0 -75 -38t-28 -104v-322h-78v328q0 136 -82 136q-46 0 -74 -37.5t-28 -104.5v-322h-78v526h59l10 -63q42 76 128 76q91 0 125 -90q41 90 139 90z" />
    <glyph glyph-name="uni0446.ss01" horiz-adv-x="481" 
d="M386 -116v116q-40 17 -51 68q-42 -80 -135 -80q-144 0 -144 205v333h79v-326q0 -72 20 -105t64 -33q48 0 76.5 38t28.5 104v322h78v-381q0 -47 12.5 -62.5t46.5 -15.5v-183h-75z" />
    <glyph glyph-name="uni0448.ss01" horiz-adv-x="720" 
d="M579 526h78v-526h-59l-10 63q-42 -76 -128 -76q-90 0 -124 91q-41 -91 -140 -91q-66 0 -103 52.5t-37 154.5v332h78v-328q0 -136 80 -136q47 0 75.5 37.5t28.5 104.5v322h78v-328q0 -136 82 -136q46 0 73.5 38t27.5 104v322z" />
    <glyph glyph-name="uni0449.ss01" horiz-adv-x="735" 
d="M639 -116v116q-41 17 -51 69q-39 -81 -129 -81q-88 0 -122 89q-40 -89 -140 -89q-66 0 -103.5 52t-37.5 155v331h78v-328q0 -136 81 -136q47 0 74.5 38t27.5 104v322h78v-328q0 -136 82 -136q46 0 73 38t27 104v322h78v-381q0 -47 12.5 -62.5t47.5 -15.5v-183h-76z" />
    <glyph glyph-name="uni044C.ss01" horiz-adv-x="417" 
d="M240 364q73 2 118.5 -48.5t45.5 -136.5q0 -88 -48.5 -140t-127.5 -52t-125.5 48t-46.5 128v363h78v-207q39 45 106 45zM228 63q96 0 96 116q0 111 -95 111q-45 0 -70 -29t-25 -84q0 -56 24.5 -85t69.5 -29z" />
    <glyph glyph-name="uni044A.ss01" horiz-adv-x="472" 
d="M295 364q73 2 118.5 -48.5t45.5 -136.5q0 -88 -48 -140t-127 -52t-125.5 47.5t-46.5 128.5v291h-106v72h184v-206q39 44 105 44zM284 63q46 0 70.5 29.5t24.5 86.5q0 111 -95 111q-45 0 -69.5 -29t-24.5 -84q0 -114 94 -114z" />
    <glyph glyph-name="uni044E.ss01" horiz-adv-x="624" 
d="M400 535q81 0 127.5 -50.5t46.5 -143.5v-157q0 -93 -46.5 -144t-127.5 -51t-128 51t-47 144v48h-86v-232h-76v721h76v-415h86v35q0 93 47 143.5t128 50.5zM495 184v157q0 117 -95 117q-96 0 -96 -117v-157q0 -118 96 -118q95 0 95 118z" />
    <glyph glyph-name="zero.lf" horiz-adv-x="464" 
d="M232 -10q-81 0 -129.5 51.5t-48.5 137.5v341q0 87 48.5 138.5t129.5 51.5t129.5 -51.5t48.5 -138.5v-341q0 -86 -48.5 -137.5t-129.5 -51.5zM232 65q48 0 74.5 30t26.5 84v340q0 55 -26.5 85.5t-74.5 30.5t-74.5 -30.5t-26.5 -85.5v-340q0 -54 26.5 -84t74.5 -30z" />
    <glyph glyph-name="one.lf" horiz-adv-x="288" 
d="M148 700h66v-700h-78v594l-111 -84v93z" />
    <glyph glyph-name="two.lf" horiz-adv-x="412" 
d="M30 0v59q0 65 27.5 124t66 103.5l77.5 85.5t66.5 85.5t27.5 87.5q0 40 -24.5 66t-67.5 26q-42 0 -66 -27.5t-25 -80.5h-77q5 84 49.5 133t118.5 49q79 0 125 -47.5t46 -116.5q0 -46 -19.5 -90.5t-48.5 -79l-63.5 -73l-63.5 -72t-48.5 -75.5t-19.5 -83h269v-74h-350z" />
    <glyph glyph-name="three.lf" horiz-adv-x="414" 
d="M206 415q80 -1 122 -49t42 -128v-49q0 -97 -46 -148.5t-130 -51.5q-80 0 -128.5 51t-49.5 147h79q5 -122 98 -122q99 0 99 125v47q0 114 -109 114h-63v59l135 217h-215v73h314v-54z" />
    <glyph glyph-name="four.lf" horiz-adv-x="420" 
d="M418 254v-74h-82v-180h-77v180h-249v43l153 477h81l-145 -446h161l4 237h72v-237h82z" />
    <glyph glyph-name="five.lf" horiz-adv-x="415" 
d="M227 471q70 0 111 -50t41 -141v-75q0 -108 -43 -162t-122 -54q-75 0 -120 48.5t-48 134.5h78q4 -106 90 -106q43 0 64 32t21 108v71q0 62 -20.5 90.5t-64.5 28.5q-66 0 -84 -71h-75v375h303v-72h-226v-191q37 34 95 34z" />
    <glyph glyph-name="six.lf" horiz-adv-x="440" 
d="M239 460q69 0 117.5 -49t48.5 -125v-116q0 -82 -49.5 -131.5t-125.5 -49.5t-126 49.5t-50 131.5v364q0 80 49 128.5t125 48.5q73 0 121 -47.5t52 -125.5h-78q-3 45 -29.5 70.5t-65.5 25.5q-43 0 -69 -26.5t-26 -72.5v-118q41 43 106 43zM327 170v114q0 47 -28.5 74
t-72.5 27q-42 0 -67.5 -27.5t-25.5 -75.5v-112q0 -49 27 -76.5t70 -27.5t70 27.5t27 76.5z" />
    <glyph glyph-name="seven.lf" horiz-adv-x="361" 
d="M61 0l184 626h-246v74h336v-50l-191 -650h-83z" />
    <glyph glyph-name="eight.lf" horiz-adv-x="459" 
d="M329 363q40 -21 62 -63t22 -96v-20q0 -91 -49 -143t-134 -52q-86 0 -135 52t-49 143v20q0 54 22 96t62 63q-72 50 -72 150v15q0 85 46 134t126 49q79 0 125 -49t46 -134v-15q0 -99 -72 -150zM137 526v-14q0 -55 24.5 -84.5t68.5 -29.5t68.5 29.5t24.5 84.5v14
q0 52 -24.5 80t-68.5 28t-68.5 -28t-24.5 -80zM334 184v20q0 57 -27 88t-77 31t-77.5 -31t-27.5 -88v-20q0 -56 27.5 -87t77.5 -31t77 31t27 87z" />
    <glyph glyph-name="nine.lf" horiz-adv-x="440" 
d="M210 711q76 0 126 -49.5t50 -131.5v-364q0 -80 -49 -128.5t-125 -48.5q-72 0 -120.5 47.5t-52.5 125.5h78q3 -45 29.5 -70.5t65.5 -25.5q43 0 69 26.5t26 72.5v119q-41 -43 -106 -43q-69 0 -117.5 48.5t-48.5 124.5v116q0 82 49.5 131.5t125.5 49.5zM214 315
q42 0 67.5 27.5t25.5 75.5v112q0 49 -27 76.5t-70 27.5t-70 -27.5t-27 -76.5v-113q0 -47 28.5 -74.5t72.5 -27.5z" />
    <glyph glyph-name="zero.lf.zero" horiz-adv-x="464" 
d="M232 710q81 0 129.5 -51.5t48.5 -138.5v-341q0 -86 -48.5 -137.5t-129.5 -51.5t-129.5 51.5t-48.5 137.5v341q0 87 48.5 138.5t129.5 51.5zM232 635q-48 0 -74.5 -30.5t-26.5 -85.5v-252l202 256q-1 54 -27.5 83t-73.5 29zM232 65q48 0 74.5 30t26.5 84v254l-202 -256
q1 -53 27.5 -82.5t73.5 -29.5z" />
    <glyph glyph-name="zero.tf" horiz-adv-x="453" 
d="M230 -10q-81 0 -129.5 51t-48.5 137v343q0 86 48.5 137.5t129.5 51.5t129.5 -51.5t48.5 -137.5v-343q0 -86 -48.5 -137t-129.5 -51zM230 65q48 0 74.5 30t26.5 84v341q0 55 -26.5 85t-74.5 30t-74 -30t-26 -85v-341q0 -54 26 -84t74 -30z" />
    <glyph glyph-name="one.tf" horiz-adv-x="453" 
d="M280 74h111v-74h-305v74h115v520l-110 -84v93l122 97h67v-626z" />
    <glyph glyph-name="two.tf" horiz-adv-x="453" 
d="M61 0v59q0 65 27.5 124t66.5 103.5l78 85.5t66.5 85.5t27.5 87.5q0 40 -24.5 66t-67.5 26q-42 0 -66.5 -28t-25.5 -80h-77q5 84 49.5 133t119.5 49q79 0 125 -47.5t46 -116.5q0 -54 -27 -106t-66 -94.5l-78 -84t-66 -90.5t-27 -98h270v-74h-351z" />
    <glyph glyph-name="three.tf" horiz-adv-x="453" 
d="M234 415q81 -1 122.5 -49t41.5 -128v-49q0 -97 -46 -148.5t-131 -51.5q-80 0 -128.5 51t-49.5 147h79q5 -122 98 -122q100 0 100 125v47q0 114 -110 114h-64v59l137 217h-216v73h315v-54z" />
    <glyph glyph-name="four.tf" horiz-adv-x="453" 
d="M434 254v-74h-80v-180h-78v180h-249v43l154 477h80l-144 -446h160l5 237h72v-237h80z" />
    <glyph glyph-name="five.tf" horiz-adv-x="453" 
d="M248 471q70 0 111 -50t41 -141v-75q0 -108 -43 -162t-122 -54q-75 0 -120 48.5t-48 134.5h78q4 -106 90 -106q43 0 64 32t21 108v71q0 62 -20.5 90.5t-64.5 28.5q-66 0 -84 -71h-75v375h303v-72h-226v-191q37 34 95 34z" />
    <glyph glyph-name="six.tf" horiz-adv-x="453" 
d="M238 460q69 0 117.5 -49t48.5 -125v-116q0 -82 -49.5 -131.5t-125.5 -49.5t-126 49.5t-50 131.5v364q0 80 48.5 128.5t125.5 48.5q73 0 121 -47.5t52 -125.5h-78q-3 45 -29.5 70.5t-65.5 25.5q-43 0 -69 -26.5t-26 -72.5v-118q41 43 106 43zM326 170v114q0 47 -28.5 74
t-72.5 27q-42 0 -67.5 -27.5t-25.5 -75.5v-112q0 -49 27 -76.5t70 -27.5t70 27.5t27 76.5z" />
    <glyph glyph-name="seven.tf" horiz-adv-x="453" 
d="M110 0l199 626h-259v74h348v-50l-205 -650h-83z" />
    <glyph glyph-name="eight.tf" horiz-adv-x="453" 
d="M327 363q41 -21 64 -63t23 -96v-20q0 -91 -49 -143t-135 -52t-135 52t-49 143v20q0 54 22.5 95.5t63.5 63.5q-35 23 -54.5 63t-19.5 87v15q0 85 46 134t126 49t126 -49t46 -134v-15q0 -99 -75 -150zM136 526v-14q0 -54 25 -84t69 -30q45 0 69.5 29.5t24.5 84.5v14
q0 52 -24.5 80t-69.5 28t-69.5 -28t-24.5 -80zM335 184v20q0 57 -27.5 88t-77.5 31t-77.5 -31t-27.5 -88v-20q0 -56 27.5 -87t77.5 -31t77.5 31t27.5 87z" />
    <glyph glyph-name="nine.tf" horiz-adv-x="453" 
d="M224 716q76 0 125.5 -49.5t49.5 -131.5v-364q0 -80 -48.5 -128.5t-125.5 -48.5q-72 0 -120.5 48t-52.5 125h79q3 -45 29.5 -70.5t65.5 -25.5q43 0 69 26.5t26 72.5v119q-41 -43 -106 -43q-70 0 -118.5 48.5t-48.5 124.5v116q0 82 50 131.5t126 49.5zM228 320
q41 0 67 27.5t26 75.5v112q0 49 -27 76.5t-70 27.5t-70 -27.5t-27 -76.5v-113q0 -47 28.5 -74.5t72.5 -27.5z" />
    <glyph glyph-name="zero.tf.zero" horiz-adv-x="453" 
d="M230 710q81 0 129.5 -51.5t48.5 -137.5v-343q0 -86 -48.5 -137t-129.5 -51t-129.5 51t-48.5 137v343q0 86 48.5 137.5t129.5 51.5zM230 635q-48 0 -74 -30t-26 -85v-252l201 255q-1 53 -27.5 82.5t-73.5 29.5zM230 65q48 0 74.5 30t26.5 84v254l-201 -255q0 -53 26 -83
t74 -30z" />
    <glyph glyph-name="zero.zero" horiz-adv-x="459" 
d="M232 710q81 0 129.5 -51.5t48.5 -138.5v-341q0 -86 -48.5 -137.5t-129.5 -51.5t-129.5 51.5t-48.5 137.5v341q0 87 48.5 138.5t129.5 51.5zM232 635q-48 0 -74.5 -30.5t-26.5 -85.5v-252l202 256q-1 54 -27.5 83t-73.5 29zM232 65q48 0 74.5 30t26.5 84v254l-202 -256
q1 -53 27.5 -82.5t73.5 -29.5z" />
    <glyph glyph-name="hyphen.case" horiz-adv-x="327" 
d="M42 322v71h243v-71h-243z" />
    <glyph glyph-name="endash.case" horiz-adv-x="427" 
d="M42 322v71h343v-71h-343z" />
    <glyph glyph-name="emdash.case" horiz-adv-x="552" 
d="M42 322v71h468v-71h-468z" />
    <glyph glyph-name="guillemotleft.case" horiz-adv-x="452" 
d="M161 148l-119 152v34l119 152h79l-131 -169l131 -169h-79zM332 148l-120 152v34l120 152h78l-131 -169l131 -169h-78z" />
    <glyph glyph-name="guillemotright.case" horiz-adv-x="452" 
d="M120 148h-78l131 169l-131 169h78l120 -152v-34zM291 148h-79l131 169l-131 169h79l119 -152v-34z" />
    <glyph glyph-name="guilsinglleft.case" horiz-adv-x="282" 
d="M161 148l-119 152v34l119 152h79l-131 -169l131 -169h-79z" />
    <glyph glyph-name="guilsinglright.case" horiz-adv-x="282" 
d="M120 148h-78l131 169l-131 169h78l120 -152v-34z" />
    <glyph glyph-name="uni0308.case" 
d="M-179 785q-20 0 -33 12t-13 32q0 21 12.5 33t33.5 12q20 0 32 -12t12 -33q0 -20 -12 -32t-32 -12zM-41 785q-20 0 -33 12t-13 32q0 21 12.5 33t33.5 12t33.5 -12t12.5 -33q0 -20 -13 -32t-33 -12z" />
    <glyph glyph-name="uni0307.case" 
d="M-51 786q-25 0 -40 15.5t-15 39.5t15 39.5t40 15.5q24 0 39.5 -15.5t15.5 -39.5t-15.5 -39.5t-39.5 -15.5z" />
    <glyph glyph-name="gravecomb.case" 
d="M-11 769h-68l-107 119h82z" />
    <glyph glyph-name="acutecomb.case" 
d="M-175 769l92 119h84l-108 -119h-68z" />
    <glyph glyph-name="uni030B.case" 
d="M-247 769l70 119h76l-85 -119h-61zM-136 769l75 119h75l-89 -119h-61z" />
    <glyph glyph-name="uni0302.case" 
d="M-7 769h-64l-53 70l-54 -70h-65l81 119h74z" />
    <glyph glyph-name="uni030C.case" 
d="M-74 888h64l-81 -119h-74l-81 119h65l54 -70z" />
    <glyph glyph-name="uni0306.case" 
d="M-116 767q-53 0 -84 31t-33 87h60q5 -60 56 -60q53 0 56 60h62q-3 -57 -34 -87.5t-83 -30.5z" />
    <glyph glyph-name="uni030A.case" 
d="M-72 764q-34 0 -55 20.5t-21 53.5q0 32 21 52t55 20t55 -20t21 -52q0 -33 -21 -53.5t-55 -20.5zM-72 806q14 0 23 8.5t9 22.5t-9 23t-23 9t-22.5 -9t-8.5 -23q0 -31 31 -31z" />
    <glyph glyph-name="tildecomb.case" 
d="M-67 792q-22 0 -45.5 15.5t-32.5 15.5q-18 0 -21 -28h-60q2 39 22 62t52 23q23 0 46 -15.5t32 -15.5q21 0 24 28h58q-4 -40 -24 -62.5t-51 -22.5z" />
    <glyph glyph-name="uni0304.case" 
d="M-191 795v61h193v-61h-193z" />
    <glyph glyph-name="uni0312.case" 
d="M-103 773l-18 186h54l46 -186h-82z" />
    <glyph glyph-name="uni0326.case" 
d="M-105 -257l18 187h77l-41 -187h-54z" />
    <glyph glyph-name="uni0327.case" 
d="M-106 -195q-38 0 -64 20.5t-30 55.5h55q8 -26 40 -26q40 0 40 32q0 30 -37 30q-18 0 -32 -7l-17 17l21 73h50l-14 -49h13q29 0 50 -18.5t21 -47.5q0 -37 -26.5 -58.5t-69.5 -21.5z" />
    <glyph glyph-name="uni0328.case" 
d="M-50 -193q-45 0 -67.5 23.5t-22.5 58.5q0 61 60 111h70q-24 -19 -40 -46t-16 -47q0 -33 36 -33q22 0 31 3v-62q-20 -8 -51 -8z" />
    <glyph glyph-name="uni0337.case" 
d="M-243 -44l161 595h83l-162 -595h-82z" />
    <glyph glyph-name="uni0338.case" 
d="M-430 -38l214 776h80l-213 -776h-81z" />
    <glyph glyph-name="brevecombcy" 
d="M-116 608q-53 0 -84 31t-33 87h60q5 -59 56 -59q53 0 56 59h61q-2 -56 -33 -87t-83 -31z" />
    <glyph glyph-name="brevecombcy.case" 
d="M-116 767q-53 0 -84 31t-33 87h60q5 -60 56 -60q53 0 56 60h62q-3 -57 -34 -87.5t-83 -30.5z" />
    </font>
</defs>
</svg>
