<?xml version="1.0" standalone="no"?>
<!DOCTYPE svg PUBLIC "-//W3C//DTD SVG 1.1//EN" "http://www.w3.org/Graphics/SVG/1.1/DTD/svg11.dtd" >
<svg>
<metadata>
Created by FontForge 20090622 at Wed Sep 26 07:08:16 2018
 By deploy user
Copyright (c) 2016 by Fontfabric LLC. All rights reserved.
</metadata>
<defs>
<font id="Akrobat-Regular" horiz-adv-x="0" >
  <font-face 
    font-family="Akrobat"
    font-weight="500"
    font-stretch="normal"
    units-per-em="1000"
    panose-1="0 0 6 0 0 0 0 0 0 0"
    ascent="800"
    descent="-200"
    x-height="525"
    cap-height="700"
    bbox="-381 -249 802 946"
    underline-thickness="50"
    underline-position="-50"
    unicode-range="U+0020-U+25CA"
  />
<missing-glyph horiz-adv-x="500" 
d="M410 800v-1000h-317v1000h317zM333 733h-165v-33h65v-37h-66v-33h166v33h-66v37h66v33zM267 604h-100v-104h166v34h-66v70zM233 570v-36h-33v36h33zM333 473h-166v-33h66v-37h-66v-33h100v70h66v33zM333 413h-33v-66h-133v-34h166v100zM333 291h-100v-56h34v23h33v-47
h-100v80h-33v-113h166v113zM333 118h-166v-113h166v113zM300 85v-47h-100v47h100zM333 -18h-166v-33h70l-70 -47v-33h166v33h-102l70 47h32v33z" />
    <glyph glyph-name=".notdef" horiz-adv-x="500" 
d="M410 800v-1000h-317v1000h317zM333 733h-165v-33h65v-37h-66v-33h166v33h-66v37h66v33zM267 604h-100v-104h166v34h-66v70zM233 570v-36h-33v36h33zM333 473h-166v-33h66v-37h-66v-33h100v70h66v33zM333 413h-33v-66h-133v-34h166v100zM333 291h-100v-56h34v23h33v-47
h-100v80h-33v-113h166v113zM333 118h-166v-113h166v113zM300 85v-47h-100v47h100zM333 -18h-166v-33h70l-70 -47v-33h166v33h-102l70 47h32v33z" />
    <glyph glyph-name=".null" 
 />
    <glyph glyph-name="nonmarkingreturn" horiz-adv-x="333" 
 />
    <glyph glyph-name="space" unicode=" " horiz-adv-x="229" 
 />
    <glyph glyph-name="exclam" unicode="!" horiz-adv-x="220" 
d="M80 144v556h60v-556h-60zM110 -10q-21 0 -34 13t-13 34t13 34t34 13t34 -13t13 -34t-13 -34t-34 -13z" />
    <glyph glyph-name="quotedbl" unicode="&#x22;" horiz-adv-x="225" 
d="M16 492l21 208h67l-46 -208h-42zM116 492l21 208h67l-46 -208h-42z" />
    <glyph glyph-name="numbersign" unicode="#" horiz-adv-x="565" 
d="M95 0l43 189h-124l12 49h123l49 213h-124l11 49h124l46 200h54l-46 -200h108l46 200h55l-46 -200h125l-11 -49h-125l-49 -213h126l-12 -49h-125l-43 -189h-55l43 189h-108l-43 -189h-54zM203 238h108l49 213h-108z" />
    <glyph glyph-name="dollar" unicode="$" horiz-adv-x="451" 
d="M415 176q0 -73 -46.5 -128.5t-127.5 -60.5v-72h-45v74q-74 10 -118 61t-46 130h62q2 -64 37 -98.5t94 -34.5q62 0 94.5 35t32.5 94q0 44 -32 79.5t-77.5 61.5l-91 54t-77.5 71.5t-32 99.5q0 67 42.5 114t111.5 55v74h45v-73q73 -6 117 -57t48 -130h-62q-3 64 -35 96
t-84 32q-56 0 -88 -30t-32 -81q0 -44 32 -79t77.5 -60.5l91 -53t77.5 -71.5t32 -102z" />
    <glyph glyph-name="percent" unicode="%" horiz-adv-x="566" 
d="M112 393q-43 0 -70 28.5t-27 79.5v99q0 51 27 80t70 29q42 0 69 -29t27 -80v-99q0 -51 -27 -79.5t-69 -28.5zM26 0l456 700h58l-456 -700h-58zM112 440q47 0 47 61v99q0 62 -47 62q-48 0 -48 -62v-99q0 -61 48 -61zM456 -9q-43 0 -70 28.5t-27 79.5v99q0 51 27 80t70 29
q42 0 69 -29t27 -80v-99q0 -51 -27 -79.5t-69 -28.5zM456 38q47 0 47 61v99q0 62 -47 62q-48 0 -48 -62v-99q0 -61 48 -61z" />
    <glyph glyph-name="ampersand" unicode="&#x26;" horiz-adv-x="572" 
d="M542 0h-73l-58 84q-76 -97 -174 -97q-70 0 -115 45.5t-45 123.5q0 66 32.5 117t91.5 105q-78 123 -78 197q0 60 37 99t103 39q70 0 106 -43.5t34 -105.5q-1 -38 -21 -76t-41.5 -61t-59.5 -59q51 -77 124 -175q22 45 35 88h69q-30 -88 -63 -145q53 -70 96 -136zM185 573
q0 -49 62 -153q46 42 70 75t24 71q0 37 -21 62t-57 25t-57 -23t-21 -57zM243 47q68 0 129 90l-137 189q-92 -88 -92 -163q0 -51 28.5 -83.5t71.5 -32.5z" />
    <glyph glyph-name="quotesingle" unicode="'" horiz-adv-x="125" 
d="M16 492l21 208h67l-46 -208h-42z" />
    <glyph glyph-name="parenleft" unicode="(" horiz-adv-x="275" 
d="M222 -120q-65 4 -105 49t-40 114v615q0 68 40.5 113t104.5 49v-57q-39 -3 -62 -31.5t-23 -73.5v-615q0 -45 23 -73.5t62 -32.5v-57z" />
    <glyph glyph-name="parenright" unicode=")" horiz-adv-x="275" 
d="M53 -120v57q39 4 62 32.5t23 73.5v615q0 45 -23 73.5t-62 31.5v57q64 -4 104.5 -49t40.5 -113v-615q0 -69 -40 -114t-105 -49z" />
    <glyph glyph-name="asterisk" unicode="*" horiz-adv-x="292" 
d="M93 492l-37 26l53 73l-84 27l13 43l85 -28v89h45v-89l85 27l14 -42l-86 -27l53 -73l-36 -27l-53 73z" />
    <glyph glyph-name="plus" unicode="+" horiz-adv-x="442" 
d="M396 337v-56h-147v-150h-56v150h-147v56h147v150h56v-150h147z" />
    <glyph glyph-name="comma" unicode="," horiz-adv-x="148" 
d="M30 -130l21 208h67l-46 -208h-42z" />
    <glyph glyph-name="hyphen" unicode="-" horiz-adv-x="332" 
d="M46 229v56h240v-56h-240z" />
    <glyph glyph-name="period" unicode="." horiz-adv-x="182" 
d="M91 -10q-21 0 -34 13t-13 34t13 34t34 13t34 -13t13 -34t-13 -34t-34 -13z" />
    <glyph glyph-name="slash" unicode="/" horiz-adv-x="406" 
d="M10 -115l327 925h59l-327 -925h-59z" />
    <glyph glyph-name="zero" unicode="0" horiz-adv-x="450" 
d="M228 -10q-76 0 -123 50t-47 132v355q0 82 46.5 132.5t123.5 50.5t123.5 -50.5t46.5 -132.5v-355q0 -82 -47 -132t-123 -50zM228 48q52 0 81.5 32.5t29.5 91.5v355q0 59 -29 92t-82 33t-82 -33t-29 -92v-355q0 -59 29.5 -91.5t81.5 -32.5z" />
    <glyph glyph-name="one" unicode="1" horiz-adv-x="278" 
d="M141 700h60v-700h-60v621l-115 -96v76z" />
    <glyph glyph-name="two" unicode="2" horiz-adv-x="403" 
d="M32 0v50q0 66 28 126t67.5 105.5l79 87.5t67.5 89t28 94q0 45 -28 73.5t-76 28.5q-47 0 -74 -30.5t-28 -88.5h-60q5 79 48.5 127t113.5 48q74 0 119 -45t45 -113q0 -55 -28 -108t-67.5 -96l-79 -86t-67.5 -96.5t-28 -109.5h277v-56h-337z" />
    <glyph glyph-name="three" unicode="3" horiz-adv-x="407" 
d="M185 409q88 0 131.5 -46t43.5 -130v-51q0 -92 -46 -142.5t-124 -50.5q-76 0 -124 50t-48 146h60q5 -138 111 -138q112 0 112 135v51q0 62 -32 93t-89 31h-63v50l149 237h-224v56h301v-43l-159 -248h1z" />
    <glyph glyph-name="four" unicode="4" horiz-adv-x="407" 
d="M405 245v-58h-85v-187h-60v187h-249v33l162 480h63l-154 -455h178v245h60v-245h85z" />
    <glyph glyph-name="five" unicode="5" horiz-adv-x="400" 
d="M214 467q70 0 110 -49.5t40 -139.5v-70q0 -218 -156 -218q-73 0 -115.5 46t-45.5 130h59q4 -118 102 -118q48 0 72 37t24 123v69q0 68 -23.5 100.5t-74.5 32.5q-73 0 -93 -76h-57v366h288v-56h-229v-216q37 39 99 39z" />
    <glyph glyph-name="six" unicode="6" horiz-adv-x="432" 
d="M231 460q67 0 115.5 -48t48.5 -124v-122q0 -80 -48 -128t-120 -48t-120.5 48t-48.5 128v373q0 77 47 124t120 47q67 0 114 -46t52 -120h-60q-3 51 -33 79.5t-73 28.5q-48 0 -77.5 -30t-29.5 -82v-127q45 47 113 47zM335 166v122q0 53 -32.5 83.5t-81.5 30.5
q-45 0 -74 -30.5t-29 -85.5v-120q0 -56 30.5 -87t78.5 -31q47 0 77.5 31t30.5 87z" />
    <glyph glyph-name="seven" unicode="7" horiz-adv-x="352" 
d="M66 0l186 642h-252v58h322v-33l-193 -667h-63z" />
    <glyph glyph-name="eight" unicode="8" horiz-adv-x="456" 
d="M314 361q43 -20 67.5 -63.5t24.5 -100.5v-17q0 -89 -47 -139.5t-131 -50.5t-131 50.5t-47 139.5v17q0 57 24.5 100.5t67.5 63.5q-38 21 -59 62.5t-21 94.5v12q0 85 44 132.5t122 47.5t122 -47.5t44 -132.5v-12q0 -53 -21 -94.5t-59 -62.5zM122 530v-12q0 -61 28 -95
t78 -34t78 34t28 95v12q0 58 -28 90t-78 32t-78 -32t-28 -90zM346 180v17q0 63 -31.5 98.5t-86.5 35.5t-86.5 -35.5t-31.5 -98.5v-17q0 -62 31 -97t87 -35t87 35t31 97z" />
    <glyph glyph-name="nine" unicode="9" horiz-adv-x="450" 
d="M222 710q72 0 120.5 -48t48.5 -128v-373q0 -77 -47 -124t-120 -47q-67 0 -114 46t-52 120h60q3 -51 33 -79.5t73 -28.5q48 0 77.5 30t29.5 82v127q-45 -47 -113 -47q-67 0 -115.5 48t-48.5 124v122q0 80 48 128t120 48zM228 298q45 0 74 30.5t29 85.5v120q0 56 -30.5 87
t-78.5 31q-47 0 -77.5 -31t-30.5 -87v-122q0 -53 32.5 -83.5t81.5 -30.5z" />
    <glyph glyph-name="colon" unicode=":" horiz-adv-x="175" 
d="M88 337q-21 0 -34 13t-13 34t13 34t34 13t34 -13t13 -34t-13 -34t-34 -13zM88 -10q-21 0 -34 13t-13 34t13 34t34 13t34 -13t13 -34t-13 -34t-34 -13z" />
    <glyph glyph-name="semicolon" unicode=";" horiz-adv-x="158" 
d="M81 337q-21 0 -34 13t-13 34t13 34t34 13t34 -13t13 -34t-13 -34t-34 -13zM30 -130l21 208h67l-46 -208h-42z" />
    <glyph glyph-name="less" unicode="&#x3c;" horiz-adv-x="412" 
d="M366 481v-59l-257 -113l257 -113v-59l-320 139v66z" />
    <glyph glyph-name="equal" unicode="=" horiz-adv-x="442" 
d="M46 350v56h350v-56h-350zM46 201v56h350v-56h-350z" />
    <glyph glyph-name="greater" unicode="&#x3e;" horiz-adv-x="412" 
d="M46 481l320 -139v-66l-320 -139v59l257 113l-257 113v59z" />
    <glyph glyph-name="question" unicode="?" horiz-adv-x="374" 
d="M139 144v63q0 46 15 83.5t36.5 63.5l43 51.5t36.5 60t15 75.5q0 51 -29.5 82t-75.5 31t-75.5 -32t-29.5 -90h-60q3 82 48.5 130t116.5 48q72 0 118.5 -47.5t46.5 -121.5q0 -49 -15 -87.5t-36.5 -65l-43 -52t-36.5 -60t-15 -76.5v-56h-60zM171 -10q-21 0 -34 13t-13 34
t13 34t34 13t34 -13t13 -34t-13 -34t-34 -13z" />
    <glyph glyph-name="at" unicode="@" horiz-adv-x="760" 
d="M384 -96q-153 0 -242 94t-89 261v131q0 161 89 251.5t247 90.5q152 0 235 -84t83 -246v-108q0 -82 -38 -126.5t-99 -44.5q-72 -2 -100 51q-31 -60 -101 -60q-55 0 -90 38.5t-35 109.5v108q0 70 34 107.5t90 37.5q64 0 94 -47l6 38h45v-274q0 -56 57 -57q83 0 83 119v108
q0 137 -69 207.5t-195 70.5q-133 0 -207.5 -76.5t-74.5 -213.5v-131q0 -142 74.5 -222.5t201.5 -80.5q132 0 203 58l27 -46q-83 -64 -229 -64zM377 167q38 0 60.5 23.5t22.5 70.5v109q0 38 -22 65.5t-64 27.5q-76 0 -76 -93v-108q0 -95 79 -95z" />
    <glyph glyph-name="A" unicode="A" horiz-adv-x="458" 
d="M381 0l-41 164h-222l-41 -164h-66l184 700h68l184 -700h-66zM132 220h194l-72 290q-15 58 -24 110h-2q-9 -52 -24 -110z" />
    <glyph glyph-name="B" unicode="B" horiz-adv-x="493" 
d="M336 363q56 -13 88 -57.5t32 -114.5q0 -93 -52.5 -142t-146.5 -49h-180v700h164q88 0 137 -47.5t49 -134.5q0 -64 -24.5 -103.5t-66.5 -51.5zM241 642h-102v-254h104q121 0 121 130q0 124 -123 124zM257 58q69 0 102.5 32.5t33.5 100.5q0 67 -39.5 103t-107.5 36h-107
v-272h118z" />
    <glyph glyph-name="C" unicode="C" horiz-adv-x="480" 
d="M249 -12q-86 0 -138.5 55.5t-52.5 154.5v304q0 99 51.5 154.5t135.5 55.5q86 0 137.5 -52.5t56.5 -149.5h-60q-10 146 -134 146q-58 0 -92.5 -39t-34.5 -115v-304q0 -76 35.5 -115t95.5 -39q121 0 136 146h60q-8 -96 -59 -149t-137 -53z" />
    <glyph glyph-name="D" unicode="D" horiz-adv-x="500" 
d="M77 0v700h157q99 0 153.5 -53.5t54.5 -151.5v-291q0 -96 -55 -150t-153 -54h-157zM139 59h95q70 0 108 37.5t38 110.5v285q0 74 -37.5 111.5t-108.5 37.5h-95v-582z" />
    <glyph glyph-name="E" unicode="E" horiz-adv-x="454" 
d="M139 57h275v-57h-337v700h326v-57h-264v-259h247v-57h-247v-270z" />
    <glyph glyph-name="F" unicode="F" horiz-adv-x="420" 
d="M393 643h-254v-269h237v-57h-237v-317h-62v700h316v-57z" />
    <glyph glyph-name="G" unicode="G" horiz-adv-x="496" 
d="M252 -10q-88 0 -141 55.5t-53 156.5v297q0 102 50.5 156.5t138.5 54.5q86 0 137.5 -52.5t55.5 -147.5h-60q-4 71 -38.5 106.5t-94.5 35.5q-62 0 -95.5 -38.5t-33.5 -115.5v-296q0 -76 36 -115t98 -39t98.5 37t36.5 107v125h-136v56h195v-181q0 -94 -53.5 -148t-140.5 -54
z" />
    <glyph glyph-name="H" unicode="H" horiz-adv-x="527" 
d="M388 700h62v-700h-62v327h-249v-327h-62v700h62v-315h249v315z" />
    <glyph glyph-name="I" unicode="I" horiz-adv-x="216" 
d="M77 0v700h62v-700h-62z" />
    <glyph glyph-name="J" unicode="J" horiz-adv-x="248" 
d="M0 -81v59q58 0 85.5 31.5t27.5 107.5v583h62v-583q0 -198 -175 -198z" />
    <glyph glyph-name="K" unicode="K" horiz-adv-x="480" 
d="M406 0l-217 341l-50 -68v-273h-62v700h62v-334l57 82l179 252h77l-223 -305l251 -395h-74z" />
    <glyph glyph-name="L" unicode="L" horiz-adv-x="403" 
d="M139 59h256v-59h-318v700h62v-641z" />
    <glyph glyph-name="M" unicode="M" horiz-adv-x="652" 
d="M509 700h66v-700h-62v370q0 105 6 198l-4 1q-10 -29 -37.5 -97t-34.5 -87l-86 -220h-62l-86 220q-7 19 -34.5 87t-37.5 97l-4 -1q6 -93 6 -198v-370h-62v700h66l125 -302q24 -60 56 -156h4q32 96 56 156z" />
    <glyph glyph-name="N" unicode="N" horiz-adv-x="540" 
d="M77 0v700h64l189 -408q41 -85 76 -173l3 1q-8 136 -8 202v378h62v-700h-64l-191 411q-38 81 -71 170l-3 -1q5 -132 5 -188v-392h-62z" />
    <glyph glyph-name="O" unicode="O" horiz-adv-x="518" 
d="M259 -13q-94 0 -147.5 62t-53.5 168v266q0 106 53.5 168t147.5 62t147.5 -62t53.5 -168v-266q0 -106 -53.5 -168t-147.5 -62zM259 47q68 0 103 44t35 126v266q0 82 -35 126t-103 44t-103 -44t-35 -126v-266q0 -82 35 -126t103 -44z" />
    <glyph glyph-name="P" unicode="P" horiz-adv-x="480" 
d="M245 700q96 0 148 -56t52 -159q0 -108 -51.5 -164t-148.5 -56h-106v-265h-62v700h168zM245 324q71 0 104.5 39t33.5 122q0 156 -138 156h-106v-317h106z" />
    <glyph glyph-name="Q" unicode="Q" horiz-adv-x="519" 
d="M461 -23l-40 -35l-58 71q-44 -26 -104 -26q-94 0 -147.5 62t-53.5 168v266q0 106 53.5 168t147.5 62t147.5 -62t53.5 -168v-266q0 -109 -56 -171zM259 47q37 0 65 14l-71 86l40 35l72 -87q32 44 32 122v266q0 82 -35 126t-103 44t-103 -44t-35 -126v-266q0 -82 35 -126
t103 -44z" />
    <glyph glyph-name="R" unicode="R" horiz-adv-x="483" 
d="M383 0l-167 273h-77v-273h-62v700h160q96 0 148 -53.5t52 -151.5q0 -91 -40.5 -147.5t-113.5 -70.5l172 -277h-72zM139 642v-311h97q68 0 103 41t35 119q0 151 -137 151h-98z" />
    <glyph glyph-name="S" unicode="S" horiz-adv-x="451" 
d="M227 -13q-87 0 -140 53t-55 140h62q2 -64 37 -98.5t94 -34.5q62 0 94.5 35t32.5 94q0 44 -32 79.5t-77.5 61.5l-91 54t-77.5 71.5t-32 99.5q0 73 50.5 122t130.5 49q81 0 130 -52t53 -136h-62q-3 64 -35 96t-84 32q-56 0 -88 -30t-32 -81q0 -44 32 -79t77.5 -60.5l91 -53
t77.5 -71.5t32 -102q0 -77 -50.5 -133t-137.5 -56z" />
    <glyph glyph-name="T" unicode="T" horiz-adv-x="406" 
d="M388 700v-58h-154v-642h-62v642h-154v58h370z" />
    <glyph glyph-name="U" unicode="U" horiz-adv-x="514" 
d="M257 -9q-87 0 -139 55.5t-52 157.5v496h62v-496q0 -77 34.5 -115t94.5 -38t94.5 38t34.5 115v496h62v-496q0 -102 -52 -157.5t-139 -55.5z" />
    <glyph glyph-name="V" unicode="V" horiz-adv-x="450" 
d="M189 0l-178 700h66l105 -438l20.5 -90l20.5 -87h4l20.5 87l20.5 90l105 438h66l-178 -700h-72z" />
    <glyph glyph-name="W" unicode="W" horiz-adv-x="712" 
d="M166 0l-155 700h65l88 -432q32 -164 34 -178h4l36 188l84 411h68l84 -411l36 -188h4q2 14 34 178l88 432h65l-155 -700h-69l-85 381q-23 100 -34 220h-4q-11 -119 -34 -220l-85 -381h-69z" />
    <glyph glyph-name="X" unicode="X" horiz-adv-x="449" 
d="M430 0h-69l-136 305l-136 -305h-69l169 364l-160 336h69l127 -279l127 279h69l-160 -336z" />
    <glyph glyph-name="Y" unicode="Y" horiz-adv-x="422" 
d="M180 0v251l-175 449h66l100 -270l40 -108l40 109l100 269h66l-175 -449v-251h-62z" />
    <glyph glyph-name="Z" unicode="Z" horiz-adv-x="409" 
d="M20 0v47l278 595h-265v58h340v-42l-280 -600h285v-58h-358z" />
    <glyph glyph-name="bracketleft" unicode="[" horiz-adv-x="275" 
d="M77 -120v940h145v-56h-85v-828h85v-56h-145z" />
    <glyph glyph-name="backslash" unicode="\" horiz-adv-x="478" 
d="M432 -115h-59l-327 925h59z" />
    <glyph glyph-name="bracketright" unicode="]" horiz-adv-x="275" 
d="M198 820v-940h-145v56h85v828h-85v56h145z" />
    <glyph glyph-name="asciicircum" unicode="^" horiz-adv-x="309" 
d="M294 478h-61l-78 169l-79 -169h-61l106 222h67z" />
    <glyph glyph-name="underscore" unicode="_" horiz-adv-x="406" 
d="M23 -64v55h360v-55h-360z" />
    <glyph glyph-name="a" unicode="a" horiz-adv-x="447" 
d="M220 537q75 0 118 -47t43 -127v-363h-51l-5 50q-44 -62 -121 -62q-74 0 -120 43t-46 118q0 76 47 116.5t133 40.5h104v56q0 118 -104 118q-45 0 -73.5 -24.5t-31.5 -67.5h-59q3 68 48 108.5t118 40.5zM213 46q50 0 79.5 30t29.5 82v93h-106q-118 0 -118 -103
q0 -50 31 -76t84 -26z" />
    <glyph glyph-name="b" unicode="b" horiz-adv-x="462" 
d="M246 537q77 0 120 -50.5t43 -146.5v-151q0 -97 -44.5 -149t-118.5 -52q-80 0 -124 61l-8 -49h-48v724h58v-246q43 59 122 59zM349 189v151q0 74 -28.5 108t-87.5 34q-49 0 -79 -39.5t-30 -102.5v-153q0 -70 30.5 -107t78.5 -37q116 0 116 146z" />
    <glyph glyph-name="c" unicode="c" horiz-adv-x="432" 
d="M221 -10q-77 0 -122.5 49t-45.5 138v173q0 89 45.5 138t122.5 49q79 0 125.5 -49t48.5 -138h-60q-4 129 -114 129q-108 0 -108 -129v-173q0 -129 108 -129q111 0 115 129h60q-2 -89 -48.5 -138t-126.5 -49z" />
    <glyph glyph-name="d" unicode="d" horiz-adv-x="462" 
d="M338 724h58v-724h-48l-8 49q-44 -61 -124 -61q-74 0 -118.5 52t-44.5 149v151q0 96 43 146.5t120 50.5q79 0 122 -59v246zM229 43q48 0 78.5 37t30.5 107v153q0 63 -30 102.5t-79 39.5q-59 0 -87.5 -34t-28.5 -108v-151q0 -146 116 -146z" />
    <glyph glyph-name="e" unicode="e" horiz-adv-x="450" 
d="M342 161h59q-6 -83 -52 -127t-127 -44q-78 0 -123.5 49t-45.5 138v173q0 89 46.5 138t125.5 49q80 0 127.5 -49t47.5 -138v-116h-287v-57q0 -129 111 -129q55 0 83.5 27.5t34.5 85.5zM226 479q-54 0 -83.5 -32t-29.5 -97v-61h228v61q0 129 -115 129z" />
    <glyph glyph-name="f" unicode="f" horiz-adv-x="290" 
d="M251 683q-98 0 -98 -114v-44h115v-54h-115v-471h-59v471h-80v54h80v44q0 80 41 124t116 44h28v-54h-28z" />
    <glyph glyph-name="g" unicode="g" horiz-adv-x="463" 
d="M348 525h49v-561q0 -71 -45.5 -114t-121.5 -43q-73 0 -118 41t-49 111h57q4 -47 32.5 -72t77.5 -25q50 0 79 27t29 75v102q-41 -50 -116 -50q-77 0 -123 49t-46 138v135q0 96 45.5 147.5t121.5 51.5q77 0 120 -65zM232 72q106 0 106 131v145q0 65 -30 99t-76 34
q-119 0 -119 -143v-135q0 -65 31 -98t88 -33z" />
    <glyph glyph-name="h" unicode="h" horiz-adv-x="462" 
d="M261 537q141 0 141 -220v-317h-59v312q0 90 -23.5 129.5t-73.5 39.5q-55 0 -88 -43.5t-33 -120.5v-317h-59v720h59v-261q45 78 136 78z" />
    <glyph glyph-name="i" unicode="i" horiz-adv-x="191" 
d="M95 622q-22 0 -35 13t-13 35t13 35t35 13t35 -13t13 -35t-13 -35t-35 -13zM66 0v525h59v-525h-59z" />
    <glyph glyph-name="j" unicode="j" horiz-adv-x="233" 
d="M119 621q-22 0 -35 13t-13 35t13 35t35 13t35 -13t13 -35t-13 -35t-35 -13zM-20 -192v57q60 1 84.5 32t24.5 93v535h59v-535q0 -86 -41.5 -133.5t-126.5 -48.5z" />
    <glyph glyph-name="k" unicode="k" horiz-adv-x="425" 
d="M354 0l-177 267l-52 -57v-210h-59v724h59v-433l199 234h75l-182 -212l208 -313h-71z" />
    <glyph glyph-name="l" unicode="l" horiz-adv-x="197" 
d="M69 0v723h59v-723h-59z" />
    <glyph glyph-name="m" unicode="m" horiz-adv-x="723" 
d="M527 537q63 0 99.5 -51t36.5 -152v-334h-59v329q0 152 -90 152q-54 0 -87 -43.5t-33 -119.5v-318h-59v329q0 152 -93 152q-53 0 -85 -43.5t-32 -119.5v-318h-59v525h49l9 -68q42 80 131 80q94 0 126 -101q40 101 146 101z" />
    <glyph glyph-name="n" unicode="n" horiz-adv-x="462" 
d="M261 537q141 0 141 -201v-336h-59v327q0 80 -23 117t-74 37q-55 0 -88 -43.5t-33 -119.5v-318h-59v525h49l10 -65q44 77 136 77z" />
    <glyph glyph-name="o" unicode="o" horiz-adv-x="456" 
d="M228 -12q-80 0 -127.5 49.5t-47.5 140.5v169q0 91 47.5 140.5t127.5 49.5t127.5 -49.5t47.5 -140.5v-169q0 -91 -47.5 -140.5t-127.5 -49.5zM228 46q115 0 115 132v169q0 132 -115 132t-115 -132v-169q0 -132 115 -132z" />
    <glyph glyph-name="p" unicode="p" horiz-adv-x="462" 
d="M246 537q74 0 118.5 -52t44.5 -149v-151q0 -96 -43 -146.5t-120 -50.5q-79 0 -122 59v-227h-58v705h48l8 -49q44 61 124 61zM349 185v151q0 146 -116 146q-48 0 -78.5 -37t-30.5 -107v-153q0 -63 30 -102.5t79 -39.5q59 0 87.5 34t28.5 108z" />
    <glyph glyph-name="q" unicode="q" horiz-adv-x="462" 
d="M348 525h48v-705h-58v227q-43 -59 -122 -59q-77 0 -120 50.5t-43 146.5v151q0 97 44.5 149t118.5 52q80 0 124 -61zM229 43q49 0 79 39.5t30 102.5v153q0 70 -30.5 107t-78.5 37q-116 0 -116 -146v-151q0 -74 28.5 -108t87.5 -34z" />
    <glyph glyph-name="r" unicode="r" horiz-adv-x="331" 
d="M262 536q33 0 53 -5v-64q-30 11 -66 11q-57 0 -90.5 -43t-33.5 -117v-318h-59v525h49l10 -66v-1q45 78 137 78z" />
    <glyph glyph-name="s" unicode="s" horiz-adv-x="402" 
d="M205 -12q-78 0 -126 46t-48 122h59q0 -52 30.5 -81t84.5 -29q49 0 76 23.5t27 65.5q0 35 -28 58.5t-67.5 38t-79 31t-67.5 50t-28 83.5q0 64 43.5 102.5t114.5 38.5q74 0 118.5 -44t44.5 -117h-59q0 49 -27.5 76.5t-76.5 27.5q-46 0 -72 -22.5t-26 -63.5q0 -34 28 -56
t67.5 -36.5t79 -31.5t67.5 -51.5t28 -85.5q0 -65 -45 -105t-118 -40z" />
    <glyph glyph-name="t" unicode="t" horiz-adv-x="297" 
d="M247 51h30v-56h-30q-72 0 -110.5 42.5t-38.5 118.5v314h-80v55h80v121h59v-121h108v-55h-108v-314q0 -105 90 -105z" />
    <glyph glyph-name="u" unicode="u" horiz-adv-x="462" 
d="M337 525h59v-525h-49l-10 65q-44 -77 -136 -77q-141 0 -141 201v336h59v-327q0 -80 23 -117t74 -37q55 0 88 43.5t33 119.5v318z" />
    <glyph glyph-name="v" unicode="v" horiz-adv-x="378" 
d="M157 0l-149 525h62l83 -307q5 -19 11.5 -46.5l13.5 -57l9 -37.5h4l9 37.5l13.5 57t11.5 46.5l83 307h62l-149 -525h-64z" />
    <glyph glyph-name="w" unicode="w" horiz-adv-x="608" 
d="M538 525h62l-130 -525h-65l-64 261q-28 114 -36 178h-2q-8 -64 -36 -178l-64 -261h-65l-130 525h62l65 -286q6 -24 13 -57.5l13.5 -67t7.5 -40.5h2q20 107 38 185l63 256h64l63 -256q18 -78 38 -185h2q1 7 7.5 40.5l13.5 67t13 57.5z" />
    <glyph glyph-name="x" unicode="x" horiz-adv-x="380" 
d="M375 0h-69l-116 214l-116 -214h-69l151 262l-144 263h67l111 -206l111 206h67l-143 -263z" />
    <glyph glyph-name="y" unicode="y" horiz-adv-x="387" 
d="M317 525h62l-178 -589q-20 -65 -47.5 -96t-78.5 -31h-34v58h26q32 0 47.5 19.5t27.5 58.5l32 107l-166 473h65l85 -244l44 -135z" />
    <glyph glyph-name="z" unicode="z" horiz-adv-x="357" 
d="M16 0v48l236 422h-225v55h296v-47l-236 -423h244v-55h-315z" />
    <glyph glyph-name="braceleft" unicode="{" horiz-adv-x="337" 
d="M194 484q0 -87 -69 -130q69 -43 69 -130v-184q0 -46 26 -75t64 -29v-56q-62 0 -105 45.5t-43 114.5v184q0 42 -23.5 67t-59.5 33v60q36 8 59.5 33t23.5 67v176q0 69 43 114.5t105 45.5v-56q-38 0 -64 -29t-26 -75v-176z" />
    <glyph glyph-name="bar" unicode="|" horiz-adv-x="195" 
d="M69 -85v880h57v-880h-57z" />
    <glyph glyph-name="braceright" unicode="}" horiz-adv-x="337" 
d="M201 477q0 -42 23.5 -67t59.5 -33v-60q-36 -8 -59.5 -33t-23.5 -67v-176q0 -69 -43 -114.5t-105 -45.5v56q38 0 64 29t26 75v176q0 87 69 130q-69 43 -69 130v184q0 46 -26 75t-64 29v56q62 0 105 -45.5t43 -114.5v-184z" />
    <glyph glyph-name="asciitilde" unicode="~" horiz-adv-x="460" 
d="M317 247q-32 0 -91 24t-81 24q-39 0 -64 -37l-31 45q40 51 91 51q32 0 91 -24t81 -24q39 0 64 37l32 -42q-38 -54 -92 -54z" />
    <glyph glyph-name="uni00A0" unicode="&#xa0;" horiz-adv-x="229" 
 />
    <glyph glyph-name="exclamdown" unicode="&#xa1;" horiz-adv-x="220" 
d="M110 441q-21 0 -34 13t-13 34t13 34t34 13t34 -13t13 -34t-13 -34t-34 -13zM80 -180v561h60v-561h-60z" />
    <glyph glyph-name="cent" unicode="&#xa2;" horiz-adv-x="425" 
d="M219 48q52 0 81 32t29 97h60q0 -81 -39 -129.5t-107 -56.5v-65h-53v66q-64 9 -100.5 57t-36.5 128v168q0 80 36.5 128t100.5 57v66h53v-65q68 -8 107 -56.5t39 -129.5h-60q0 65 -29 97t-81 32q-106 0 -106 -129v-168q0 -129 106 -129z" />
    <glyph glyph-name="sterling" unicode="&#xa3;" horiz-adv-x="471" 
d="M126 60h310v-60h-404v52q68 27 68 114v160h-70v56h70v136q0 87 44.5 139.5t118.5 52.5q75 0 120.5 -52t48.5 -143h-60q-3 67 -31.5 103t-77.5 36q-48 0 -75.5 -36t-27.5 -100v-136h189v-56h-189v-154q0 -72 -34 -112z" />
    <glyph glyph-name="currency" unicode="&#xa4;" horiz-adv-x="474" 
d="M79 109l-38 33l52 62q-21 37 -21 93v60q0 56 21 93l-52 62l38 33l45 -53q43 40 113 40q68 0 113 -40l45 53l38 -33l-52 -61q21 -37 21 -94v-60q0 -57 -21 -94l52 -61l-38 -33l-45 53q-45 -40 -113 -40q-70 0 -113 40zM237 176q50 0 78.5 32t28.5 89v60q0 57 -28.5 89
t-78.5 32t-78.5 -32t-28.5 -89v-60q0 -57 28.5 -89t78.5 -32z" />
    <glyph glyph-name="yen" unicode="&#xa5;" horiz-adv-x="422" 
d="M417 700l-157 -403h136v-48h-154v-61h154v-48h-154v-140h-62v140h-154v48h154v61h-154v48h136l-157 403h66l100 -270l40 -108l40 109l100 269h66z" />
    <glyph glyph-name="brokenbar" unicode="&#xa6;" horiz-adv-x="175" 
d="M59 507v288h57v-288h-57zM59 -65v288h57v-288h-57z" />
    <glyph glyph-name="section" unicode="&#xa7;" horiz-adv-x="411" 
d="M289 211q71 -43 71 -119q0 -64 -43 -103.5t-114 -39.5q-75 0 -121 45.5t-46 120.5h59q0 -51 28.5 -79.5t79.5 -28.5q46 0 71.5 22.5t25.5 63.5q0 34 -27.5 58.5t-67 40t-79 33t-67 50.5t-27.5 81q0 47 25 80.5t68 47.5q-74 44 -74 118q0 60 42 97.5t109 37.5
q71 0 112.5 -42.5t41.5 -113.5h-59q0 47 -24.5 73t-69.5 26q-43 0 -67.5 -21.5t-24.5 -56.5q0 -31 27 -54t66 -39.5t78 -35t66 -52.5t27 -81q0 -91 -86 -129zM92 359q0 -36 31 -61.5t98 -48.5q44 3 69 26t25 57q0 41 -30 66t-86 49q-44 2 -75.5 -22t-31.5 -66z" />
    <glyph glyph-name="copyright" unicode="&#xa9;" horiz-adv-x="718" 
d="M360 -12q-143 0 -222.5 84t-79.5 236v90q0 149 79.5 231.5t222.5 82.5q142 0 221 -82.5t79 -231.5v-90q0 -152 -79 -236t-221 -84zM360 34q121 0 186.5 71.5t65.5 202.5v90q0 128 -65.5 198t-186.5 70q-122 0 -188 -70t-66 -198v-90q0 -131 66 -202.5t188 -71.5zM358 145
q-59 0 -94.5 37.5t-35.5 103.5v128q0 66 35.5 103t94.5 37t94 -37t35 -103h-51q0 45 -21 67.5t-57 22.5q-78 0 -78 -90v-128q0 -90 78 -90q37 0 58.5 23t21.5 67h52q0 -66 -36.5 -103.5t-95.5 -37.5z" />
    <glyph glyph-name="guillemotleft" unicode="&#xab;" horiz-adv-x="434" 
d="M168 89l-122 153v30l122 153h60l-133 -168l133 -168h-60zM328 89l-122 153v30l122 153h60l-133 -168l133 -168h-60z" />
    <glyph glyph-name="logicalnot" unicode="&#xac;" horiz-adv-x="460" 
d="M356 198v82h-301v56h355v-138h-54z" />
    <glyph glyph-name="registered" unicode="&#xae;" horiz-adv-x="465" 
d="M236 712q82 0 128 -48t46 -134v-54q0 -88 -46 -137.5t-128 -49.5q-83 0 -129 49.5t-46 137.5v54q0 86 46.5 134t128.5 48zM382 476v54q0 73 -38.5 113.5t-107.5 40.5t-108 -40.5t-39 -113.5v-54q0 -75 39 -117t108 -42t107.5 42t38.5 117zM316 550q0 -64 -55 -77l60 -101
h-34l-57 99h-26v-99h-30v254h65q37 0 57 -20t20 -56zM204 596v-95h35q47 0 47 49q0 46 -47 46h-35z" />
    <glyph glyph-name="degree" unicode="&#xb0;" horiz-adv-x="316" 
d="M158 458q-56 0 -90 35t-34 92t34 92t90 35t90 -35t34 -92t-34 -92t-90 -35zM158 503q35 0 56.5 22.5t21.5 59.5t-21.5 59.5t-56.5 22.5t-56.5 -22.5t-21.5 -59.5t21.5 -59.5t56.5 -22.5z" />
    <glyph glyph-name="plusminus" unicode="&#xb1;" horiz-adv-x="460" 
d="M258 373h147v-56h-147v-150h-56v150h-147v56h147v150h56v-150zM55 68v56h350v-56h-350z" />
    <glyph glyph-name="paragraph" unicode="&#xb6;" horiz-adv-x="570" 
d="M212 -94v484q-71 0 -115 42t-44 113t44 113t115 42h281v-794h-61v736h-159v-736h-61z" />
    <glyph glyph-name="periodcentered" unicode="&#xb7;" horiz-adv-x="182" 
d="M91 211q-21 0 -34 13t-13 34t13 34t34 13t34 -13t13 -34t-13 -34t-34 -13z" />
    <glyph glyph-name="guillemotright" unicode="&#xbb;" horiz-adv-x="434" 
d="M106 89h-60l133 168l-133 168h60l122 -153v-30zM266 89h-60l133 168l-133 168h60l122 -153v-30z" />
    <glyph glyph-name="questiondown" unicode="&#xbf;" horiz-adv-x="374" 
d="M203 442q-21 0 -34 13t-13 34t13 34t34 13t34 -13t13 -34t-13 -34t-34 -13zM194 -184q-72 0 -118.5 47.5t-46.5 121.5q0 49 15 87.5t36.5 65l43 52t36.5 60t15 76.5v56h60v-63q0 -46 -15 -83.5t-36.5 -63.5l-43 -51.5t-36.5 -60t-15 -75.5q0 -51 29.5 -82t75.5 -31
t75.5 32t29.5 90h60q-3 -82 -48.5 -130t-116.5 -48z" />
    <glyph glyph-name="Agrave" unicode="&#xc0;" horiz-adv-x="458" 
d="M268 769h-59l-105 113h72zM381 0l-41 164h-222l-41 -164h-66l184 700h68l184 -700h-66zM132 220h194l-72 290q-15 58 -24 110h-2q-9 -52 -24 -110z" />
    <glyph glyph-name="Aacute" unicode="&#xc1;" horiz-adv-x="458" 
d="M343 882l-105 -113h-59l92 113h72zM381 0l-41 164h-222l-41 -164h-66l184 700h68l184 -700h-66zM132 220h194l-72 290q-15 58 -24 110h-2q-9 -52 -24 -110z" />
    <glyph glyph-name="Acircumflex" unicode="&#xc2;" horiz-adv-x="458" 
d="M227 839l-57 -70h-56l81 113h64l81 -113h-56zM381 0l-41 164h-222l-41 -164h-66l184 700h68l184 -700h-66zM132 220h194l-72 290q-15 58 -24 110h-2q-9 -52 -24 -110z" />
    <glyph glyph-name="Atilde" unicode="&#xc3;" horiz-adv-x="458" 
d="M192 827q-16 0 -19 -29h-54q2 36 20 57t48 21q23 0 46.5 -16t31.5 -16q20 0 23 29h50q-4 -37 -21.5 -57.5t-46.5 -20.5q-22 0 -45.5 16t-32.5 16zM381 0l-41 164h-222l-41 -164h-66l184 700h68l184 -700h-66zM132 220h194l-72 290q-15 58 -24 110h-2q-9 -52 -24 -110z
" />
    <glyph glyph-name="Adieresis" unicode="&#xc4;" horiz-adv-x="458" 
d="M162 788q-18 0 -29 10.5t-11 28.5t11 28.5t29 10.5q17 0 28 -10.5t11 -28.5t-11 -28.5t-28 -10.5zM292 788q-18 0 -29.5 10.5t-11.5 28.5t11.5 28.5t29.5 10.5t29 -10.5t11 -28.5t-11 -28.5t-29 -10.5zM381 0l-41 164h-222l-41 -164h-66l184 700h68l184 -700h-66z
M132 220h194l-72 290q-15 58 -24 110h-2q-9 -52 -24 -110z" />
    <glyph glyph-name="Aring" unicode="&#xc5;" horiz-adv-x="458" 
d="M227 764q-31 0 -50.5 19t-19.5 50q0 30 19.5 48.5t50.5 18.5t50.5 -18.5t19.5 -48.5q0 -31 -19.5 -50t-50.5 -19zM227 863q-14 0 -22.5 -8.5t-8.5 -22.5q0 -31 31 -31q14 0 22.5 8.5t8.5 22.5t-9 22.5t-22 8.5zM381 0l-41 164h-222l-41 -164h-66l184 700h68l184 -700h-66
zM132 220h194l-72 290q-15 58 -24 110h-2q-9 -52 -24 -110z" />
    <glyph glyph-name="AE" unicode="&#xc6;" horiz-adv-x="700" 
d="M398 57h262v-57h-324v184h-187l-79 -184h-70l309 700h340v-57h-251v-259h234v-57h-234v-270zM172 240h164v392h-1l-41 -107z" />
    <glyph glyph-name="Ccedilla" unicode="&#xc7;" horiz-adv-x="480" 
d="M445 190q-7 -91 -53 -143.5t-124 -57.5l-12 -39q4 1 14 1q29 0 50 -18.5t21 -46.5q0 -36 -25.5 -56.5t-66.5 -20.5q-36 0 -60.5 19.5t-27.5 53.5h49q6 -28 41 -28q42 0 42 33q0 32 -39 32q-19 0 -31 -7l-17 16l19 61q-76 8 -121.5 62.5t-45.5 146.5v304q0 99 51.5 154.5
t135.5 55.5q86 0 137.5 -52.5t56.5 -149.5h-60q-10 146 -134 146q-58 0 -92.5 -39t-34.5 -115v-304q0 -76 35.5 -115t95.5 -39q121 0 136 146h60z" />
    <glyph glyph-name="Egrave" unicode="&#xc8;" horiz-adv-x="454" 
d="M285 769h-59l-105 113h72zM139 57h275v-57h-337v700h326v-57h-264v-259h247v-57h-247v-270z" />
    <glyph glyph-name="Eacute" unicode="&#xc9;" horiz-adv-x="454" 
d="M326 882l-105 -113h-59l92 113h72zM139 57h275v-57h-337v700h326v-57h-264v-259h247v-57h-247v-270z" />
    <glyph glyph-name="Ecircumflex" unicode="&#xca;" horiz-adv-x="454" 
d="M244 839l-57 -70h-56l81 113h64l81 -113h-56zM139 57h275v-57h-337v700h326v-57h-264v-259h247v-57h-247v-270z" />
    <glyph glyph-name="Edieresis" unicode="&#xcb;" horiz-adv-x="454" 
d="M179 788q-18 0 -29 10.5t-11 28.5t11 28.5t29 10.5q17 0 28 -10.5t11 -28.5t-11 -28.5t-28 -10.5zM309 788q-18 0 -29.5 10.5t-11.5 28.5t11.5 28.5t29.5 10.5t29 -10.5t11 -28.5t-11 -28.5t-29 -10.5zM139 57h275v-57h-337v700h326v-57h-264v-259h247v-57h-247v-270z
" />
    <glyph glyph-name="Igrave" unicode="&#xcc;" horiz-adv-x="216" 
d="M151 769h-59l-105 113h72zM77 0v700h62v-700h-62z" />
    <glyph glyph-name="Iacute" unicode="&#xcd;" horiz-adv-x="216" 
d="M62 769l92 113h72l-105 -113h-59zM77 0v700h62v-700h-62z" />
    <glyph glyph-name="Icircumflex" unicode="&#xce;" horiz-adv-x="216" 
d="M142 882l81 -113h-56l-57 70l-57 -70h-56l81 113h64zM77 0v700h62v-700h-62z" />
    <glyph glyph-name="Idieresis" unicode="&#xcf;" horiz-adv-x="232" 
d="M60 788q-18 0 -29 10.5t-11 28.5t11 28.5t29 10.5q17 0 28 -10.5t11 -28.5t-11 -28.5t-28 -10.5zM172 788q-18 0 -29.5 10.5t-11.5 28.5t11.5 28.5t29.5 10.5t29 -10.5t11 -28.5t-11 -28.5t-29 -10.5zM83 0v700h62v-700h-62z" />
    <glyph glyph-name="Eth" unicode="&#xd0;" horiz-adv-x="514" 
d="M248 700q99 0 153.5 -53.5t54.5 -151.5v-291q0 -96 -55 -150t-153 -54h-157v327h-79v55h79v318h157zM394 207v285q0 74 -37.5 111.5t-108.5 37.5h-95v-259h99v-55h-99v-268h95q70 0 108 37.5t38 110.5z" />
    <glyph glyph-name="Ntilde" unicode="&#xd1;" horiz-adv-x="540" 
d="M313 795q-22 0 -45.5 16t-32.5 16q-16 0 -19 -29h-54q2 36 20 57t48 21q23 0 46.5 -16t31.5 -16q20 0 23 29h50q-4 -37 -21.5 -57.5t-46.5 -20.5zM77 0v700h64l189 -408q41 -85 76 -173l3 1q-8 136 -8 202v378h62v-700h-64l-191 411q-38 81 -71 170l-3 -1q5 -132 5 -188
v-392h-62z" />
    <glyph glyph-name="Ograve" unicode="&#xd2;" horiz-adv-x="518" 
d="M300 769h-59l-105 113h72zM259 -13q-94 0 -147.5 62t-53.5 168v266q0 106 53.5 168t147.5 62t147.5 -62t53.5 -168v-266q0 -106 -53.5 -168t-147.5 -62zM259 47q68 0 103 44t35 126v266q0 82 -35 126t-103 44t-103 -44t-35 -126v-266q0 -82 35 -126t103 -44z" />
    <glyph glyph-name="Oacute" unicode="&#xd3;" horiz-adv-x="518" 
d="M211 769l92 113h72l-105 -113h-59zM259 -13q-94 0 -147.5 62t-53.5 168v266q0 106 53.5 168t147.5 62t147.5 -62t53.5 -168v-266q0 -106 -53.5 -168t-147.5 -62zM259 47q68 0 103 44t35 126v266q0 82 -35 126t-103 44t-103 -44t-35 -126v-266q0 -82 35 -126t103 -44z" />
    <glyph glyph-name="Ocircumflex" unicode="&#xd4;" horiz-adv-x="518" 
d="M259 839l-57 -70h-56l81 113h64l81 -113h-56zM259 713q94 0 147.5 -62t53.5 -168v-266q0 -106 -53.5 -168t-147.5 -62t-147.5 62t-53.5 168v266q0 106 53.5 168t147.5 62zM397 217v266q0 82 -35 126t-103 44t-103 -44t-35 -126v-266q0 -82 35 -126t103 -44t103 44t35 126
z" />
    <glyph glyph-name="Otilde" unicode="&#xd5;" horiz-adv-x="518" 
d="M302 795q-22 0 -45.5 16t-32.5 16q-16 0 -19 -29h-54q2 36 20 57t48 21q23 0 46.5 -16t31.5 -16q20 0 23 29h50q-4 -37 -21.5 -57.5t-46.5 -20.5zM259 -13q-94 0 -147.5 62t-53.5 168v266q0 106 53.5 168t147.5 62t147.5 -62t53.5 -168v-266q0 -106 -53.5 -168
t-147.5 -62zM259 47q68 0 103 44t35 126v266q0 82 -35 126t-103 44t-103 -44t-35 -126v-266q0 -82 35 -126t103 -44z" />
    <glyph glyph-name="Odieresis" unicode="&#xd6;" horiz-adv-x="518" 
d="M194 788q-18 0 -29 10.5t-11 28.5t11 28.5t29 10.5q17 0 28 -10.5t11 -28.5t-11 -28.5t-28 -10.5zM324 788q-18 0 -29.5 10.5t-11.5 28.5t11.5 28.5t29.5 10.5t29 -10.5t11 -28.5t-11 -28.5t-29 -10.5zM259 -13q-94 0 -147.5 62t-53.5 168v266q0 106 53.5 168t147.5 62
t147.5 -62t53.5 -168v-266q0 -106 -53.5 -168t-147.5 -62zM259 47q68 0 103 44t35 126v266q0 82 -35 126t-103 44t-103 -44t-35 -126v-266q0 -82 35 -126t103 -44z" />
    <glyph glyph-name="multiply" unicode="&#xd7;" horiz-adv-x="449" 
d="M82 119l-40 40l143 142l-142 142l38 41l144 -143l143 142l39 -40l-142 -142l142 -142l-39 -40l-143 143z" />
    <glyph glyph-name="Oslash" unicode="&#xd8;" horiz-adv-x="512" 
d="M388 664q66 -61 66 -182v-264q0 -106 -52.5 -168t-145.5 -62q-40 0 -73 12l-18 -60h-59l27 88q-75 61 -75 190v264q0 106 52.5 168t145.5 62q47 0 82 -16l20 64h59zM121 218q0 -80 33 -123l166 543q-28 14 -64 14q-66 0 -100.5 -44t-34.5 -126v-264zM391 218v264
q0 71 -25 112l-165 -536q23 -10 55 -10q66 0 100.5 44t34.5 126z" />
    <glyph glyph-name="Ugrave" unicode="&#xd9;" horiz-adv-x="514" 
d="M298 769h-59l-105 113h72zM257 -9q-87 0 -139 55.5t-52 157.5v496h62v-496q0 -77 34.5 -115t94.5 -38t94.5 38t34.5 115v496h62v-496q0 -102 -52 -157.5t-139 -55.5z" />
    <glyph glyph-name="Uacute" unicode="&#xda;" horiz-adv-x="514" 
d="M209 769l92 113h72l-105 -113h-59zM257 -9q-87 0 -139 55.5t-52 157.5v496h62v-496q0 -77 34.5 -115t94.5 -38t94.5 38t34.5 115v496h62v-496q0 -102 -52 -157.5t-139 -55.5z" />
    <glyph glyph-name="Ucircumflex" unicode="&#xdb;" horiz-adv-x="514" 
d="M257 839l-57 -70h-56l81 113h64l81 -113h-56zM386 700h62v-496q0 -102 -52 -157.5t-139 -55.5t-139 55.5t-52 157.5v496h62v-496q0 -77 34.5 -115t94.5 -38t94.5 38t34.5 115v496z" />
    <glyph glyph-name="Udieresis" unicode="&#xdc;" horiz-adv-x="514" 
d="M192 788q-18 0 -29 10.5t-11 28.5t11 28.5t29 10.5q17 0 28 -10.5t11 -28.5t-11 -28.5t-28 -10.5zM322 788q-18 0 -29.5 10.5t-11.5 28.5t11.5 28.5t29.5 10.5t29 -10.5t11 -28.5t-11 -28.5t-29 -10.5zM257 -9q-87 0 -139 55.5t-52 157.5v496h62v-496q0 -77 34.5 -115
t94.5 -38t94.5 38t34.5 115v496h62v-496q0 -102 -52 -157.5t-139 -55.5z" />
    <glyph glyph-name="Yacute" unicode="&#xdd;" horiz-adv-x="422" 
d="M163 769l92 113h72l-105 -113h-59zM180 0v251l-175 449h66l100 -270l40 -108l40 109l100 269h66l-175 -449v-251h-62z" />
    <glyph glyph-name="Thorn" unicode="&#xde;" horiz-adv-x="468" 
d="M245 578q96 0 148 -56t52 -159q0 -108 -51.5 -164t-148.5 -56h-106v-143h-62v700h62v-122h106zM245 202q71 0 104.5 39t33.5 122q0 156 -138 156h-106v-317h106z" />
    <glyph glyph-name="germandbls" unicode="&#xdf;" horiz-adv-x="462" 
d="M315 366q52 -13 81.5 -58t29.5 -117q0 -92 -49 -141.5t-137 -49.5h-64v59h64q63 0 93 32.5t30 101.5q0 140 -123 140h-64v58h47q111 0 111 132t-106 132q-53 0 -77.5 -34.5t-24.5 -106.5v-514h-60v514q0 94 42 146t121 52t122.5 -51t43.5 -139q0 -64 -21.5 -104.5
t-58.5 -51.5z" />
    <glyph glyph-name="agrave" unicode="&#xe0;" horiz-adv-x="447" 
d="M266 610h-58l-87 113h70zM220 537q75 0 118 -47t43 -127v-363h-51l-5 50q-44 -62 -121 -62q-74 0 -120 43t-46 118q0 76 47 116.5t133 40.5h104v56q0 118 -104 118q-45 0 -73.5 -24.5t-31.5 -67.5h-59q3 68 48 108.5t118 40.5zM213 46q50 0 79.5 30t29.5 82v93h-106
q-118 0 -118 -103q0 -50 31 -76t84 -26z" />
    <glyph glyph-name="aacute" unicode="&#xe1;" horiz-adv-x="447" 
d="M310 723l-87 -113h-58l75 113h70zM220 537q75 0 118 -47t43 -127v-363h-51l-5 50q-44 -62 -121 -62q-74 0 -120 43t-46 118q0 76 47 116.5t133 40.5h104v56q0 118 -104 118q-45 0 -73.5 -24.5t-31.5 -67.5h-59q3 68 48 108.5t118 40.5zM213 46q50 0 79.5 30t29.5 82v93
h-106q-118 0 -118 -103q0 -50 31 -76t84 -26z" />
    <glyph glyph-name="acircumflex" unicode="&#xe2;" horiz-adv-x="447" 
d="M218 679l-57 -70h-56l81 113h64l81 -113h-56zM220 537q75 0 118 -47t43 -127v-363h-51l-5 50q-44 -62 -121 -62q-74 0 -120 43t-46 118q0 76 47 116.5t133 40.5h104v56q0 118 -104 118q-45 0 -73.5 -24.5t-31.5 -67.5h-59q3 68 48 108.5t118 40.5zM213 46q50 0 79.5 30
t29.5 82v93h-106q-118 0 -118 -103q0 -50 31 -76t84 -26z" />
    <glyph glyph-name="atilde" unicode="&#xe3;" horiz-adv-x="447" 
d="M181 657q-16 0 -19 -29h-54q2 36 20 57t48 21q23 0 46.5 -16t31.5 -16q20 0 23 29h50q-4 -37 -21.5 -57.5t-46.5 -20.5q-22 0 -45.5 16t-32.5 16zM220 537q75 0 118 -47t43 -127v-363h-51l-5 50q-44 -62 -121 -62q-74 0 -120 43t-46 118q0 76 47 116.5t133 40.5h104v56
q0 118 -104 118q-45 0 -73.5 -24.5t-31.5 -67.5h-59q3 68 48 108.5t118 40.5zM213 46q50 0 79.5 30t29.5 82v93h-106q-118 0 -118 -103q0 -50 31 -76t84 -26z" />
    <glyph glyph-name="adieresis" unicode="&#xe4;" horiz-adv-x="447" 
d="M159 631q-18 0 -29 10.5t-11 28.5t11 28.5t29 10.5q17 0 28 -10.5t11 -28.5t-11 -28.5t-28 -10.5zM277 631q-18 0 -29.5 10.5t-11.5 28.5t11.5 28.5t29.5 10.5t29 -10.5t11 -28.5t-11 -28.5t-29 -10.5zM220 537q75 0 118 -47t43 -127v-363h-51l-5 50q-44 -62 -121 -62
q-74 0 -120 43t-46 118q0 76 47 116.5t133 40.5h104v56q0 118 -104 118q-45 0 -73.5 -24.5t-31.5 -67.5h-59q3 68 48 108.5t118 40.5zM213 46q50 0 79.5 30t29.5 82v93h-106q-118 0 -118 -103q0 -50 31 -76t84 -26z" />
    <glyph glyph-name="aring" unicode="&#xe5;" horiz-adv-x="447" 
d="M218 606q-31 0 -50.5 19t-19.5 50q0 30 19.5 48.5t50.5 18.5t50.5 -18.5t19.5 -48.5q0 -31 -19.5 -50t-50.5 -19zM218 705q-14 0 -22.5 -8.5t-8.5 -22.5q0 -31 31 -31q14 0 22.5 8.5t8.5 22.5t-8.5 22.5t-22.5 8.5zM220 537q75 0 118 -47t43 -127v-363h-51l-5 50
q-44 -62 -121 -62q-74 0 -120 43t-46 118q0 76 47 116.5t133 40.5h104v56q0 118 -104 118q-45 0 -73.5 -24.5t-31.5 -67.5h-59q3 68 48 108.5t118 40.5zM213 46q50 0 79.5 30t29.5 82v93h-106q-118 0 -118 -103q0 -50 31 -76t84 -26z" />
    <glyph glyph-name="ae" unicode="&#xe6;" horiz-adv-x="690" 
d="M582 171h59q0 -86 -45 -133.5t-121 -47.5q-93 0 -135 72q-17 -32 -54.5 -51.5t-86.5 -19.5q-71 0 -116 43t-45 115q0 74 47.5 112.5t137.5 38.5h88v72q0 50 -25 78.5t-70 28.5q-46 0 -73 -24t-30 -67h-59q3 68 47.5 108.5t117.5 40.5q84 0 124 -72q43 72 132 72
q75 0 119.5 -49t44.5 -138v-104h-268v-69q0 -129 104 -129q107 0 107 123zM371 350v-52h209v52q0 129 -105 129q-104 0 -104 -129zM311 146v100h-91q-122 0 -122 -98q0 -50 30 -76t84 -26q46 0 72.5 27.5t26.5 72.5z" />
    <glyph glyph-name="ccedilla" unicode="&#xe7;" horiz-adv-x="432" 
d="M396 177q-2 -85 -44 -133t-115 -53l-12 -41q4 1 14 1q29 0 50 -18.5t21 -46.5q0 -36 -25.5 -56.5t-66.5 -20.5q-36 0 -60.5 19.5t-27.5 53.5h49q6 -28 41 -28q42 0 42 33q0 32 -39 32q-19 0 -31 -7l-17 16l19 64q-66 8 -103.5 56.5t-37.5 128.5v173q0 89 45.5 138
t122.5 49q79 0 125.5 -49t48.5 -138h-60q-4 129 -114 129q-108 0 -108 -129v-173q0 -129 108 -129q111 0 115 129h60z" />
    <glyph glyph-name="egrave" unicode="&#xe8;" horiz-adv-x="450" 
d="M271 605h-58l-87 113h70zM342 161h59q-6 -83 -52 -127t-127 -44q-78 0 -123.5 49t-45.5 138v173q0 89 46.5 138t125.5 49q80 0 127.5 -49t47.5 -138v-116h-287v-57q0 -129 111 -129q55 0 83.5 27.5t34.5 85.5zM226 479q-54 0 -83.5 -32t-29.5 -97v-61h228v61
q0 129 -115 129z" />
    <glyph glyph-name="eacute" unicode="&#xe9;" horiz-adv-x="450" 
d="M315 718l-87 -113h-58l75 113h70zM342 161h59q-6 -83 -52 -127t-127 -44q-78 0 -123.5 49t-45.5 138v173q0 89 46.5 138t125.5 49q80 0 127.5 -49t47.5 -138v-116h-287v-57q0 -129 111 -129q55 0 83.5 27.5t34.5 85.5zM226 479q-54 0 -83.5 -32t-29.5 -97v-61h228v61
q0 129 -115 129z" />
    <glyph glyph-name="ecircumflex" unicode="&#xea;" horiz-adv-x="450" 
d="M223 674l-57 -70h-56l81 113h64l81 -113h-56zM342 161h59q-6 -83 -52 -127t-127 -44q-78 0 -123.5 49t-45.5 138v173q0 89 46.5 138t125.5 49q80 0 127.5 -49t47.5 -138v-116h-287v-57q0 -129 111 -129q55 0 83.5 27.5t34.5 85.5zM226 479q-54 0 -83.5 -32t-29.5 -97v-61
h228v61q0 129 -115 129z" />
    <glyph glyph-name="edieresis" unicode="&#xeb;" horiz-adv-x="450" 
d="M164 626q-18 0 -29 10.5t-11 28.5t11 28.5t29 10.5q17 0 28 -10.5t11 -28.5t-11 -28.5t-28 -10.5zM282 626q-18 0 -29.5 10.5t-11.5 28.5t11.5 28.5t29.5 10.5t29 -10.5t11 -28.5t-11 -28.5t-29 -10.5zM342 161h59q-6 -83 -52 -127t-127 -44q-78 0 -123.5 49t-45.5 138
v173q0 89 46.5 138t125.5 49q80 0 127.5 -49t47.5 -138v-116h-287v-57q0 -129 111 -129q55 0 83.5 27.5t34.5 85.5zM226 479q-54 0 -83.5 -32t-29.5 -97v-61h228v61q0 129 -115 129z" />
    <glyph glyph-name="igrave" unicode="&#xec;" horiz-adv-x="191" 
d="M144 610h-58l-87 113h70zM66 0v525h59v-525h-59z" />
    <glyph glyph-name="iacute" unicode="&#xed;" horiz-adv-x="191" 
d="M43 610l75 113h70l-87 -113h-58zM66 0v525h59v-525h-59z" />
    <glyph glyph-name="icircumflex" unicode="&#xee;" horiz-adv-x="228" 
d="M146 722l77 -113h-55l-54 70l-54 -70h-55l77 113h64zM84 0v525h59v-525h-59z" />
    <glyph glyph-name="idieresis" unicode="&#xef;" horiz-adv-x="200" 
d="M44 632q-18 0 -28.5 10t-10.5 28t10.5 28t28.5 10q17 0 27.5 -10t10.5 -28t-10.5 -28t-27.5 -10zM156 632q-18 0 -29 10t-11 28t11 28t29 10t28.5 -10t10.5 -28t-10.5 -28t-28.5 -10zM70 0v525h59v-525h-59z" />
    <glyph glyph-name="eth" unicode="&#xf0;" horiz-adv-x="447" 
d="M326 630q67 -78 67 -185v-266q0 -90 -46 -139.5t-125 -49.5q-78 0 -123.5 49.5t-45.5 139.5v146q0 89 43.5 139t113.5 50q81 0 124 -54q-4 83 -60 142l-83 -45l-16 33l70 37q-40 31 -104 51l19 54q80 -20 140 -75l72 39l16 -33zM333 179v146q0 65 -29.5 98t-80.5 33
q-110 0 -110 -131v-146q0 -131 109 -131q111 0 111 131z" />
    <glyph glyph-name="ntilde" unicode="&#xf1;" horiz-adv-x="462" 
d="M194 652q-16 0 -19 -29h-54q2 36 20 57t48 21q23 0 46.5 -16t31.5 -16q20 0 23 29h50q-4 -37 -21.5 -57.5t-46.5 -20.5q-22 0 -45.5 16t-32.5 16zM261 537q141 0 141 -201v-336h-59v327q0 80 -23 117t-74 37q-55 0 -88 -43.5t-33 -119.5v-318h-59v525h49l10 -65
q44 77 136 77z" />
    <glyph glyph-name="ograve" unicode="&#xf2;" horiz-adv-x="456" 
d="M276 610h-58l-87 113h70zM228 -12q-80 0 -127.5 49.5t-47.5 140.5v169q0 91 47.5 140.5t127.5 49.5t127.5 -49.5t47.5 -140.5v-169q0 -91 -47.5 -140.5t-127.5 -49.5zM228 46q115 0 115 132v169q0 132 -115 132t-115 -132v-169q0 -132 115 -132z" />
    <glyph glyph-name="oacute" unicode="&#xf3;" horiz-adv-x="456" 
d="M175 610l75 113h70l-87 -113h-58zM228 -12q-80 0 -127.5 49.5t-47.5 140.5v169q0 91 47.5 140.5t127.5 49.5t127.5 -49.5t47.5 -140.5v-169q0 -91 -47.5 -140.5t-127.5 -49.5zM228 46q115 0 115 132v169q0 132 -115 132t-115 -132v-169q0 -132 115 -132z" />
    <glyph glyph-name="ocircumflex" unicode="&#xf4;" horiz-adv-x="456" 
d="M228 679l-57 -70h-56l81 113h64l81 -113h-56zM228 537q80 0 127.5 -49.5t47.5 -140.5v-169q0 -91 -47.5 -140.5t-127.5 -49.5t-127.5 49.5t-47.5 140.5v169q0 91 47.5 140.5t127.5 49.5zM343 178v169q0 132 -115 132t-115 -132v-169q0 -132 115 -132t115 132z" />
    <glyph glyph-name="otilde" unicode="&#xf5;" horiz-adv-x="456" 
d="M269 625q-22 0 -45.5 16t-32.5 16q-16 0 -19 -29h-54q2 36 20 57t48 21q23 0 46.5 -16t31.5 -16q20 0 23 29h50q-4 -37 -21.5 -57.5t-46.5 -20.5zM228 -12q-80 0 -127.5 49.5t-47.5 140.5v169q0 91 47.5 140.5t127.5 49.5t127.5 -49.5t47.5 -140.5v-169
q0 -91 -47.5 -140.5t-127.5 -49.5zM228 46q115 0 115 132v169q0 132 -115 132t-115 -132v-169q0 -132 115 -132z" />
    <glyph glyph-name="odieresis" unicode="&#xf6;" horiz-adv-x="456" 
d="M169 631q-18 0 -29 10.5t-11 28.5t11 28.5t29 10.5q17 0 28 -10.5t11 -28.5t-11 -28.5t-28 -10.5zM287 631q-18 0 -29.5 10.5t-11.5 28.5t11.5 28.5t29.5 10.5t29 -10.5t11 -28.5t-11 -28.5t-29 -10.5zM228 -12q-80 0 -127.5 49.5t-47.5 140.5v169q0 91 47.5 140.5
t127.5 49.5t127.5 -49.5t47.5 -140.5v-169q0 -91 -47.5 -140.5t-127.5 -49.5zM228 46q115 0 115 132v169q0 132 -115 132t-115 -132v-169q0 -132 115 -132z" />
    <glyph glyph-name="divide" unicode="&#xf7;" horiz-adv-x="442" 
d="M221 405q-19 0 -32.5 13.5t-13.5 32.5t13.5 32.5t32.5 13.5t32.5 -13.5t13.5 -32.5t-13.5 -32.5t-32.5 -13.5zM46 281v56h350v-56h-350zM221 113q-19 0 -32.5 13.5t-13.5 32.5t13.5 32.5t32.5 13.5t32.5 -13.5t13.5 -32.5t-13.5 -32.5t-32.5 -13.5z" />
    <glyph glyph-name="oslash" unicode="&#xf8;" horiz-adv-x="456" 
d="M349 494q54 -51 54 -147v-167q0 -91 -47.5 -140.5t-127.5 -49.5q-44 0 -78 15l-26 -65h-54l38 93q-55 50 -55 147v167q0 91 47.5 140.5t127.5 49.5q44 0 78 -15l26 63h54zM113 180q0 -53 20 -85l151 373q-25 11 -56 11q-115 0 -115 -132v-167zM343 180v167q0 52 -19 85
l-152 -373q25 -11 56 -11q115 0 115 132z" />
    <glyph glyph-name="ugrave" unicode="&#xf9;" horiz-adv-x="462" 
d="M278 605h-58l-87 113h70zM337 525h59v-525h-49l-10 65q-44 -77 -136 -77q-141 0 -141 201v336h59v-327q0 -80 23 -117t74 -37q55 0 88 43.5t33 119.5v318z" />
    <glyph glyph-name="uacute" unicode="&#xfa;" horiz-adv-x="462" 
d="M322 718l-87 -113h-58l75 113h70zM337 525h59v-525h-49l-10 65q-44 -77 -136 -77q-141 0 -141 201v336h59v-327q0 -80 23 -117t74 -37q55 0 88 43.5t33 119.5v318z" />
    <glyph glyph-name="ucircumflex" unicode="&#xfb;" horiz-adv-x="462" 
d="M230 674l-57 -70h-56l81 113h64l81 -113h-56zM337 525h59v-525h-49l-10 65q-44 -77 -136 -77q-141 0 -141 201v336h59v-327q0 -80 23 -117t74 -37q55 0 88 43.5t33 119.5v318z" />
    <glyph glyph-name="udieresis" unicode="&#xfc;" horiz-adv-x="462" 
d="M171 626q-18 0 -29 10.5t-11 28.5t11 28.5t29 10.5q17 0 28 -10.5t11 -28.5t-11 -28.5t-28 -10.5zM289 626q-18 0 -29.5 10.5t-11.5 28.5t11.5 28.5t29.5 10.5t29 -10.5t11 -28.5t-11 -28.5t-29 -10.5zM337 525h59v-525h-49l-10 65q-44 -77 -136 -77q-141 0 -141 201v336
h59v-327q0 -80 23 -117t74 -37q55 0 88 43.5t33 119.5v318z" />
    <glyph glyph-name="yacute" unicode="&#xfd;" horiz-adv-x="387" 
d="M291 723l-87 -113h-58l75 113h70zM317 525h62l-178 -589q-20 -65 -47.5 -96t-78.5 -31h-34v58h26q32 0 47.5 19.5t27.5 58.5l32 107l-166 473h65l85 -244l44 -135z" />
    <glyph glyph-name="thorn" unicode="&#xfe;" horiz-adv-x="457" 
d="M246 532q75 0 116.5 -50.5t41.5 -146.5v-130q0 -96 -41.5 -146.5t-116.5 -50.5q-79 0 -122 59v-247h-58v900h58v-247q43 59 122 59zM344 205v130q0 74 -27.5 108t-83.5 34q-49 0 -79 -39.5t-30 -102.5v-130q0 -63 30 -102.5t79 -39.5q56 0 83.5 34t27.5 108z" />
    <glyph glyph-name="ydieresis" unicode="&#xff;" horiz-adv-x="387" 
d="M140 631q-18 0 -29 10.5t-11 28.5t11 28.5t29 10.5q17 0 28 -10.5t11 -28.5t-11 -28.5t-28 -10.5zM258 631q-18 0 -29.5 10.5t-11.5 28.5t11.5 28.5t29.5 10.5t29 -10.5t11 -28.5t-11 -28.5t-29 -10.5zM317 525h62l-178 -589q-20 -65 -47.5 -96t-78.5 -31h-34v58h26
q32 0 47.5 19.5t27.5 58.5l32 107l-166 473h65l85 -244l44 -135z" />
    <glyph glyph-name="Amacron" unicode="&#x100;" horiz-adv-x="458" 
d="M319 849v-52h-184v52h184zM381 0l-41 164h-222l-41 -164h-66l184 700h68l184 -700h-66zM132 220h194l-72 290q-15 58 -24 110h-2q-9 -52 -24 -110z" />
    <glyph glyph-name="amacron" unicode="&#x101;" horiz-adv-x="447" 
d="M310 689v-50h-184v50h184zM220 537q75 0 118 -47t43 -127v-363h-51l-5 50q-44 -62 -121 -62q-74 0 -120 43t-46 118q0 76 47 116.5t133 40.5h104v56q0 118 -104 118q-45 0 -73.5 -24.5t-31.5 -67.5h-59q3 68 48 108.5t118 40.5zM213 46q50 0 79.5 30t29.5 82v93h-106
q-118 0 -118 -103q0 -50 31 -76t84 -26z" />
    <glyph glyph-name="Abreve" unicode="&#x102;" horiz-adv-x="458" 
d="M227 766q-52 0 -81.5 30.5t-31.5 85.5h52q4 -66 61 -66t61 66h52q-2 -55 -31.5 -85.5t-81.5 -30.5zM381 0l-41 164h-222l-41 -164h-66l184 700h68l184 -700h-66zM132 220h194l-72 290q-15 58 -24 110h-2q-9 -52 -24 -110z" />
    <glyph glyph-name="abreve" unicode="&#x103;" horiz-adv-x="447" 
d="M218 607q-52 0 -81.5 30.5t-31.5 85.5h52q5 -66 61 -66t61 66h52q-2 -55 -31.5 -85.5t-81.5 -30.5zM220 537q75 0 118 -47t43 -127v-363h-51l-5 50q-44 -62 -121 -62q-74 0 -120 43t-46 118q0 76 47 116.5t133 40.5h104v56q0 118 -104 118q-45 0 -73.5 -24.5t-31.5 -67.5
h-59q3 68 48 108.5t118 40.5zM213 46q50 0 79.5 30t29.5 82v93h-106q-118 0 -118 -103q0 -50 31 -76t84 -26z" />
    <glyph glyph-name="Aogonek" unicode="&#x104;" horiz-adv-x="459" 
d="M416 -137q23 0 32 3v-52q-17 -6 -41 -6q-43 0 -64.5 23.5t-21.5 57.5q0 59 60 111l-41 164h-222l-41 -164h-66l184 700h68l184 -700h-11q-25 -22 -41.5 -50t-16.5 -51q0 -36 38 -36zM132 220h194l-72 290q-15 58 -24 110h-2q-9 -52 -24 -110z" />
    <glyph glyph-name="aogonek" unicode="&#x105;" horiz-adv-x="447" 
d="M340 -192q-43 0 -64.5 23.5t-21.5 57.5q0 58 76 111l-5 49q-42 -61 -121 -61q-74 0 -120 43t-46 118q0 76 47 116.5t133 40.5h104v56q0 118 -104 118q-45 0 -73.5 -24.5t-31.5 -67.5h-59q3 68 48 108.5t118 40.5q75 0 118 -47t43 -127v-363q-30 -21 -50 -49.5t-20 -51.5
q0 -36 38 -36q23 0 32 3v-52q-16 -6 -41 -6zM213 46q50 0 79.5 28.5t29.5 73.5v103h-106q-118 0 -118 -103q0 -50 31 -76t84 -26z" />
    <glyph glyph-name="Cacute" unicode="&#x106;" horiz-adv-x="480" 
d="M193 769l92 113h72l-105 -113h-59zM249 -12q-86 0 -138.5 55.5t-52.5 154.5v304q0 99 51.5 154.5t135.5 55.5q86 0 137.5 -52.5t56.5 -149.5h-60q-10 146 -134 146q-58 0 -92.5 -39t-34.5 -115v-304q0 -76 35.5 -115t95.5 -39q121 0 136 146h60q-8 -96 -59 -149t-137 -53
z" />
    <glyph glyph-name="cacute" unicode="&#x107;" horiz-adv-x="432" 
d="M170 610l75 113h70l-87 -113h-58zM221 -10q-77 0 -122.5 49t-45.5 138v173q0 89 45.5 138t122.5 49q79 0 125.5 -49t48.5 -138h-60q-4 129 -114 129q-108 0 -108 -129v-173q0 -129 108 -129q111 0 115 129h60q-2 -89 -48.5 -138t-126.5 -49z" />
    <glyph glyph-name="Cdotaccent" unicode="&#x10a;" horiz-adv-x="480" 
d="M241 794q-22 0 -35 13t-13 35t13 35t35 13t35 -13t13 -35t-13 -35t-35 -13zM249 -12q-86 0 -138.5 55.5t-52.5 154.5v304q0 99 51.5 154.5t135.5 55.5q86 0 137.5 -52.5t56.5 -149.5h-60q-10 146 -134 146q-58 0 -92.5 -39t-34.5 -115v-304q0 -76 35.5 -115t95.5 -39
q121 0 136 146h60q-8 -96 -59 -149t-137 -53z" />
    <glyph glyph-name="cdotaccent" unicode="&#x10b;" horiz-adv-x="432" 
d="M222 622q-22 0 -35 13t-13 35t13 35t35 13t35 -13t13 -35t-13 -35t-35 -13zM221 -10q-77 0 -122.5 49t-45.5 138v173q0 89 45.5 138t122.5 49q79 0 125.5 -49t48.5 -138h-60q-4 129 -114 129q-108 0 -108 -129v-173q0 -129 108 -129q111 0 115 129h60q-2 -89 -48.5 -138
t-126.5 -49z" />
    <glyph glyph-name="Ccaron" unicode="&#x10c;" horiz-adv-x="480" 
d="M272 769h-64l-81 113h56l57 -70l57 70h56zM385 190h60q-8 -96 -59 -149t-137 -53t-138.5 55.5t-52.5 154.5v304q0 99 51.5 154.5t135.5 55.5q86 0 137.5 -52.5t56.5 -149.5h-60q-10 146 -134 146q-58 0 -92.5 -39t-34.5 -115v-304q0 -76 35.5 -115t95.5 -39
q121 0 136 146z" />
    <glyph glyph-name="ccaron" unicode="&#x10d;" horiz-adv-x="432" 
d="M255 610h-64l-81 113h56l57 -70l57 70h56zM336 177h60q-2 -89 -48.5 -138t-126.5 -49q-77 0 -122.5 49t-45.5 138v173q0 89 45.5 138t122.5 49q79 0 125.5 -49t48.5 -138h-60q-4 129 -114 129q-108 0 -108 -129v-173q0 -129 108 -129q111 0 115 129z" />
    <glyph glyph-name="Dcaron" unicode="&#x10e;" horiz-adv-x="500" 
d="M261 769h-64l-81 113h56l57 -70l57 70h56zM234 700q99 0 153.5 -53.5t54.5 -151.5v-291q0 -96 -55 -150t-153 -54h-157v700h157zM380 207v285q0 74 -37.5 111.5t-108.5 37.5h-95v-582h95q70 0 108 37.5t38 110.5z" />
    <glyph glyph-name="dcaron" unicode="&#x10f;" horiz-adv-x="487" 
d="M452 764h65l-32 -169h-42zM338 478v246h58v-724h-48l-8 49q-44 -61 -124 -61q-74 0 -118.5 52t-44.5 149v151q0 96 43 146.5t120 50.5q79 0 122 -59zM229 43q48 0 78.5 37t30.5 107v153q0 63 -30 102.5t-79 39.5q-59 0 -87.5 -34t-28.5 -108v-151q0 -146 116 -146z" />
    <glyph glyph-name="Dcroat" unicode="&#x110;" horiz-adv-x="514" 
d="M248 700q99 0 153.5 -53.5t54.5 -151.5v-291q0 -96 -55 -150t-153 -54h-157v327h-79v55h79v318h157zM394 207v285q0 74 -37.5 111.5t-108.5 37.5h-95v-259h99v-55h-99v-268h95q70 0 108 37.5t38 110.5z" />
    <glyph glyph-name="dcroat" unicode="&#x111;" horiz-adv-x="465" 
d="M454 661v-46h-58v-615h-48l-8 49q-44 -61 -124 -61q-74 0 -118.5 52t-44.5 149v151q0 96 43 146.5t120 50.5q79 0 122 -59v137h-94v46h94v63h58v-63h58zM229 43q48 0 78.5 37t30.5 107v153q0 63 -30 102.5t-79 39.5q-59 0 -87.5 -34t-28.5 -108v-151q0 -146 116 -146z
" />
    <glyph glyph-name="Emacron" unicode="&#x112;" horiz-adv-x="454" 
d="M336 849v-52h-184v52h184zM139 57h275v-57h-337v700h326v-57h-264v-259h247v-57h-247v-270z" />
    <glyph glyph-name="emacron" unicode="&#x113;" horiz-adv-x="450" 
d="M315 684v-50h-184v50h184zM342 161h59q-6 -83 -52 -127t-127 -44q-78 0 -123.5 49t-45.5 138v173q0 89 46.5 138t125.5 49q80 0 127.5 -49t47.5 -138v-116h-287v-57q0 -129 111 -129q55 0 83.5 27.5t34.5 85.5zM226 479q-54 0 -83.5 -32t-29.5 -97v-61h228v61
q0 129 -115 129z" />
    <glyph glyph-name="Edotaccent" unicode="&#x116;" horiz-adv-x="454" 
d="M244 794q-22 0 -35 13t-13 35t13 35t35 13t35 -13t13 -35t-13 -35t-35 -13zM139 57h275v-57h-337v700h326v-57h-264v-259h247v-57h-247v-270z" />
    <glyph glyph-name="edotaccent" unicode="&#x117;" horiz-adv-x="450" 
d="M222 617q-22 0 -35 13t-13 35t13 35t35 13t35 -13t13 -35t-13 -35t-35 -13zM342 161h59q-6 -83 -52 -127t-127 -44q-78 0 -123.5 49t-45.5 138v173q0 89 46.5 138t125.5 49q80 0 127.5 -49t47.5 -138v-116h-287v-57q0 -129 111 -129q55 0 83.5 27.5t34.5 85.5zM226 479
q-54 0 -83.5 -32t-29.5 -97v-61h228v61q0 129 -115 129z" />
    <glyph glyph-name="Eogonek" unicode="&#x118;" horiz-adv-x="462" 
d="M390 -137q23 0 32 3v-52q-17 -6 -41 -6q-43 0 -64.5 24t-21.5 58q0 57 64 110h-282v700h326v-57h-264v-259h247v-57h-247v-270h275v-57q-26 -21 -44 -48t-18 -49q0 -21 11 -30.5t27 -9.5z" />
    <glyph glyph-name="eogonek" unicode="&#x119;" horiz-adv-x="454" 
d="M309 -192q-44 0 -65 23.5t-21 59.5q0 51 45 102v1q-19 -4 -44 -4q-80 0 -125.5 49t-45.5 138v173q0 88 46 137.5t125 49.5t126.5 -49t47.5 -138v-116h-285v-57q0 -129 114 -129q108 0 119 113h59q-5 -48 -16 -71t-36 -53q-73 -82 -73 -132q0 -42 38 -42q23 0 32 3v-52
q-16 -6 -41 -6zM113 289h226v61q0 64 -30 96.5t-84 32.5q-112 0 -112 -129v-61z" />
    <glyph glyph-name="Ecaron" unicode="&#x11a;" horiz-adv-x="454" 
d="M275 769h-64l-81 113h56l57 -70l57 70h56zM139 57h275v-57h-337v700h326v-57h-264v-259h247v-57h-247v-270z" />
    <glyph glyph-name="ecaron" unicode="&#x11b;" horiz-adv-x="450" 
d="M255 605h-64l-81 113h56l57 -70l57 70h56zM342 161h59q-6 -83 -52 -127t-127 -44q-78 0 -123.5 49t-45.5 138v173q0 89 46.5 138t125.5 49q80 0 127.5 -49t47.5 -138v-116h-287v-57q0 -129 111 -129q55 0 83.5 27.5t34.5 85.5zM226 479q-54 0 -83.5 -32t-29.5 -97v-61
h228v61q0 129 -115 129z" />
    <glyph glyph-name="Gbreve" unicode="&#x11e;" horiz-adv-x="496" 
d="M240 766q-52 0 -81.5 30.5t-31.5 85.5h52q5 -66 61 -66q57 0 61 66h52q-2 -55 -31.5 -85.5t-81.5 -30.5zM252 -10q-88 0 -141 55.5t-53 156.5v297q0 102 50.5 156.5t138.5 54.5q86 0 137.5 -52.5t55.5 -147.5h-60q-4 71 -38.5 106.5t-94.5 35.5q-62 0 -95.5 -38.5
t-33.5 -115.5v-296q0 -76 36 -115t98 -39t98.5 37t36.5 107v125h-136v56h195v-181q0 -94 -53.5 -148t-140.5 -54z" />
    <glyph glyph-name="gbreve" unicode="&#x11f;" horiz-adv-x="463" 
d="M227 607q-52 0 -81.5 30.5t-31.5 85.5h52q4 -66 61 -66t61 66h52q-2 -55 -31.5 -85.5t-81.5 -30.5zM348 525h49v-561q0 -71 -45.5 -114t-121.5 -43q-73 0 -118 41t-49 111h57q4 -47 32.5 -72t77.5 -25q50 0 79 27t29 75v102q-41 -50 -116 -50q-77 0 -123 49t-46 138v135
q0 96 45.5 147.5t121.5 51.5q77 0 120 -65zM232 72q106 0 106 131v145q0 65 -30 99t-76 34q-119 0 -119 -143v-135q0 -65 31 -98t88 -33z" />
    <glyph glyph-name="Gdotaccent" unicode="&#x120;" horiz-adv-x="496" 
d="M240 794q-22 0 -35 13t-13 35t13 35t35 13t35 -13t13 -35t-13 -35t-35 -13zM252 -10q-88 0 -141 55.5t-53 156.5v297q0 102 50.5 156.5t138.5 54.5q86 0 137.5 -52.5t55.5 -147.5h-60q-4 71 -38.5 106.5t-94.5 35.5q-62 0 -95.5 -38.5t-33.5 -115.5v-296q0 -76 36 -115
t98 -39t98.5 37t36.5 107v125h-136v56h195v-181q0 -94 -53.5 -148t-140.5 -54z" />
    <glyph glyph-name="gdotaccent" unicode="&#x121;" horiz-adv-x="463" 
d="M226 622q-22 0 -35 13t-13 35t13 35t35 13t35 -13t13 -35t-13 -35t-35 -13zM348 525h49v-561q0 -71 -45.5 -114t-121.5 -43q-73 0 -118 41t-49 111h57q4 -47 32.5 -72t77.5 -25q50 0 79 27t29 75v102q-41 -50 -116 -50q-77 0 -123 49t-46 138v135q0 96 45.5 147.5
t121.5 51.5q77 0 120 -65zM232 72q106 0 106 131v145q0 65 -30 99t-76 34q-119 0 -119 -143v-135q0 -65 31 -98t88 -33z" />
    <glyph glyph-name="uni0122" unicode="&#x122;" horiz-adv-x="496" 
d="M252 -10q-88 0 -141 55.5t-53 156.5v297q0 102 50.5 156.5t138.5 54.5q86 0 137.5 -52.5t55.5 -147.5h-60q-4 71 -38.5 106.5t-94.5 35.5q-62 0 -95.5 -38.5t-33.5 -115.5v-296q0 -76 36 -115t98 -39t98.5 37t36.5 107v125h-136v56h195v-181q0 -94 -53.5 -148t-140.5 -54
zM191 -249l18 180h65l-37 -180h-46z" />
    <glyph glyph-name="uni0123" unicode="&#x123;" horiz-adv-x="463" 
d="M266 606h-67l-18 177h43zM348 525h49v-561q0 -71 -45.5 -114t-121.5 -43q-73 0 -118 41t-49 111h57q4 -47 32.5 -72t77.5 -25q50 0 79 27t29 75v102q-41 -50 -116 -50q-77 0 -123 49t-46 138v135q0 96 45.5 147.5t121.5 51.5q77 0 120 -65zM232 72q106 0 106 131v145
q0 65 -30 99t-76 34q-119 0 -119 -143v-135q0 -65 31 -98t88 -33z" />
    <glyph glyph-name="Hbar" unicode="&#x126;" horiz-adv-x="552" 
d="M532 572v-46h-69v-526h-62v327h-249v-327h-62v526h-70v46h70v128h62v-128h249v128h62v-128h69zM401 385v141h-249v-141h249z" />
    <glyph glyph-name="hbar" unicode="&#x127;" horiz-adv-x="460" 
d="M259 537q141 0 141 -220v-317h-59v312q0 90 -23.5 129.5t-73.5 39.5q-55 0 -88 -43.5t-33 -120.5v-317h-59v610h-64v46h64v67h59v-67h97v-46h-97v-151q45 78 136 78z" />
    <glyph glyph-name="Imacron" unicode="&#x12a;" horiz-adv-x="216" 
d="M18 797v52h184v-52h-184zM77 0v700h62v-700h-62z" />
    <glyph glyph-name="imacron" unicode="&#x12b;" horiz-adv-x="189" 
d="M7 637v52h176v-52h-176zM65 0v525h59v-525h-59z" />
    <glyph glyph-name="Iogonek" unicode="&#x12e;" horiz-adv-x="212" 
d="M127 -137q23 0 32 3v-52q-17 -6 -41 -6q-45 0 -67 24.5t-22 60.5q0 57 46 107v700h62v-700q-21 -21 -36 -48.5t-15 -48.5q0 -40 41 -40z" />
    <glyph glyph-name="iogonek" unicode="&#x12f;" horiz-adv-x="188" 
d="M95 625q-17 0 -28 11t-11 28t11 28t28 11t28 -11t11 -28q0 -16 -11.5 -27.5t-27.5 -11.5zM114 -137q23 0 32 3v-52q-16 -6 -41 -6q-43 0 -64.5 23.5t-21.5 57.5q0 58 46 109v522h59v-520q-48 -48 -48 -93q0 -23 11 -33.5t27 -10.5z" />
    <glyph glyph-name="Idotaccent" unicode="&#x130;" horiz-adv-x="216" 
d="M110 794q-22 0 -35 13t-13 35t13 35t35 13t35 -13t13 -35t-13 -35t-35 -13zM77 0v700h62v-700h-62z" />
    <glyph glyph-name="dotlessi" unicode="&#x131;" horiz-adv-x="191" 
d="M66 0v525h59v-525h-59z" />
    <glyph glyph-name="uni0136" unicode="&#x136;" horiz-adv-x="480" 
d="M229 395l251 -395h-74l-217 341l-50 -68v-273h-62v700h62v-334l57 82l179 252h77zM211 -249l18 180h65l-37 -180h-46z" />
    <glyph glyph-name="uni0137" unicode="&#x137;" horiz-adv-x="425" 
d="M217 313l208 -313h-71l-177 267l-52 -57v-210h-59v724h59v-433l199 234h75zM181 -249l18 180h65l-37 -180h-46z" />
    <glyph glyph-name="Lacute" unicode="&#x139;" horiz-adv-x="403" 
d="M230 882l-105 -113h-59l92 113h72zM139 59h256v-59h-318v700h62v-641z" />
    <glyph glyph-name="lacute" unicode="&#x13a;" horiz-adv-x="197" 
d="M51 769l92 113h72l-105 -113h-59zM69 0v723h59v-723h-59z" />
    <glyph glyph-name="uni013B" unicode="&#x13b;" horiz-adv-x="403" 
d="M139 59h256v-59h-318v700h62v-641zM188 -249l18 180h65l-37 -180h-46z" />
    <glyph glyph-name="uni013C" unicode="&#x13c;" horiz-adv-x="221" 
d="M75 0v723h59v-723h-59zM69 -249l18 180h65l-37 -180h-46z" />
    <glyph glyph-name="Lcaron" unicode="&#x13d;" horiz-adv-x="386" 
d="M139 57h239v-57h-301v700h62v-643zM319 700l-32 -164h-42l9 164h65z" />
    <glyph glyph-name="lcaron" unicode="&#x13e;" horiz-adv-x="219" 
d="M175 589l9 174h65l-32 -174h-42zM69 0v723h59v-723h-59z" />
    <glyph glyph-name="Lslash" unicode="&#x141;" horiz-adv-x="414" 
d="M167 57h239v-57h-301v319l-81 -31v59l81 31v322h62v-298l131 50v-59l-131 -50v-286z" />
    <glyph glyph-name="lslash" unicode="&#x142;" horiz-adv-x="234" 
d="M221 468v-56l-77 -27v-385h-59v365l-72 -25v56l72 25v299h59v-279z" />
    <glyph glyph-name="Nacute" unicode="&#x143;" horiz-adv-x="540" 
d="M222 769l92 113h72l-105 -113h-59zM77 0v700h64l189 -408q41 -85 76 -173l3 1q-8 136 -8 202v378h62v-700h-64l-191 411q-38 81 -71 170l-3 -1q5 -132 5 -188v-392h-62z" />
    <glyph glyph-name="nacute" unicode="&#x144;" horiz-adv-x="462" 
d="M323 718l-87 -113h-58l75 113h70zM261 537q141 0 141 -201v-336h-59v327q0 80 -23 117t-74 37q-55 0 -88 -43.5t-33 -119.5v-318h-59v525h49l10 -65q44 77 136 77z" />
    <glyph glyph-name="uni0145" unicode="&#x145;" horiz-adv-x="540" 
d="M77 0v700h64l189 -408q41 -85 76 -173l3 1q-8 136 -8 202v378h62v-700h-64l-191 411q-38 81 -71 170l-3 -1q5 -132 5 -188v-392h-62zM221 -249l18 180h65l-37 -180h-46z" />
    <glyph glyph-name="uni0146" unicode="&#x146;" horiz-adv-x="462" 
d="M261 537q141 0 141 -201v-336h-59v327q0 80 -23 117t-74 37q-55 0 -88 -43.5t-33 -119.5v-318h-59v525h49l10 -65q44 77 136 77zM195 -249l18 180h65l-37 -180h-46z" />
    <glyph glyph-name="Ncaron" unicode="&#x147;" horiz-adv-x="540" 
d="M301 769h-64l-81 113h56l57 -70l57 70h56zM401 700h62v-700h-64l-191 411q-38 81 -71 170l-3 -1q5 -132 5 -188v-392h-62v700h64l189 -408q41 -85 76 -173l3 1q-8 136 -8 202v378z" />
    <glyph glyph-name="ncaron" unicode="&#x148;" horiz-adv-x="462" 
d="M263 605h-64l-81 113h56l57 -70l57 70h56zM261 537q141 0 141 -201v-336h-59v327q0 80 -23 117t-74 37q-55 0 -88 -43.5t-33 -119.5v-318h-59v525h49l10 -65q44 77 136 77z" />
    <glyph glyph-name="Eng" unicode="&#x14a;" horiz-adv-x="540" 
d="M401 700h62v-730q0 -75 -42 -118t-126 -44v57q58 1 83.5 27.5t25.5 77.5v22l-200 427q-32 69 -67 162l-3 -1q5 -132 5 -188v-392h-62v700h64l195 -416q44 -104 73 -181l3 1q-11 119 -11 213v383z" />
    <glyph glyph-name="eng" unicode="&#x14b;" horiz-adv-x="462" 
d="M234 -205v57q58 1 83.5 27.5t25.5 77.5v370q0 80 -23 117t-74 37q-55 0 -88 -43.5t-33 -119.5v-318h-59v525h49l10 -65q44 77 136 77q141 0 141 -201v-379q0 -75 -42 -118t-126 -44z" />
    <glyph glyph-name="Omacron" unicode="&#x14c;" horiz-adv-x="518" 
d="M167 797v52h184v-52h-184zM259 -13q-94 0 -147.5 62t-53.5 168v266q0 106 53.5 168t147.5 62t147.5 -62t53.5 -168v-266q0 -106 -53.5 -168t-147.5 -62zM259 47q68 0 103 44t35 126v266q0 82 -35 126t-103 44t-103 -44t-35 -126v-266q0 -82 35 -126t103 -44z" />
    <glyph glyph-name="omacron" unicode="&#x14d;" horiz-adv-x="456" 
d="M136 639v50h184v-50h-184zM228 -12q-80 0 -127.5 49.5t-47.5 140.5v169q0 91 47.5 140.5t127.5 49.5t127.5 -49.5t47.5 -140.5v-169q0 -91 -47.5 -140.5t-127.5 -49.5zM228 46q115 0 115 132v169q0 132 -115 132t-115 -132v-169q0 -132 115 -132z" />
    <glyph glyph-name="Ohungarumlaut" unicode="&#x150;" horiz-adv-x="518" 
d="M165 769l68 113h67l-82 -113h-53zM263 769l72 113h67l-86 -113h-53zM259 -13q-94 0 -147.5 62t-53.5 168v266q0 106 53.5 168t147.5 62t147.5 -62t53.5 -168v-266q0 -106 -53.5 -168t-147.5 -62zM259 47q68 0 103 44t35 126v266q0 82 -35 126t-103 44t-103 -44t-35 -126
v-266q0 -82 35 -126t103 -44z" />
    <glyph glyph-name="ohungarumlaut" unicode="&#x151;" horiz-adv-x="456" 
d="M131 610l68 113h67l-82 -113h-53zM229 610l72 113h67l-86 -113h-53zM228 -12q-80 0 -127.5 49.5t-47.5 140.5v169q0 91 47.5 140.5t127.5 49.5t127.5 -49.5t47.5 -140.5v-169q0 -91 -47.5 -140.5t-127.5 -49.5zM228 46q115 0 115 132v169q0 132 -115 132t-115 -132v-169
q0 -132 115 -132z" />
    <glyph glyph-name="OE" unicode="&#x152;" horiz-adv-x="775" 
d="M460 57h275v-57h-337v54q-51 -67 -139 -67q-94 0 -147.5 62t-53.5 168v266q0 106 53.5 168t147.5 62q88 0 139 -67v54h326v-57h-264v-259h247v-57h-247v-270zM397 217v266q0 82 -35 126t-103 44t-103 -44t-35 -126v-266q0 -82 35 -126t103 -44t103 44t35 126z" />
    <glyph glyph-name="oe" unicode="&#x153;" horiz-adv-x="720" 
d="M671 239h-277v-62q0 -129 108 -129q110 0 110 123h59q0 -86 -45.5 -133.5t-123.5 -47.5q-96 0 -138 86q-42 -86 -140 -86q-79 0 -125 49.5t-46 139.5v164q0 90 46 139.5t125 49.5q98 0 140 -86q42 86 138 86q78 0 123.5 -49t45.5 -138v-106zM334 179v164q0 131 -110 131
q-111 0 -111 -131v-164q0 -131 111 -131q110 0 110 131zM394 345v-54h218v54q0 129 -110 129q-108 0 -108 -129z" />
    <glyph glyph-name="Racute" unicode="&#x154;" horiz-adv-x="483" 
d="M345 882l-105 -113h-59l92 113h72zM383 0l-167 273h-77v-273h-62v700h160q96 0 148 -53.5t52 -151.5q0 -91 -40.5 -147.5t-113.5 -70.5l172 -277h-72zM139 642v-311h97q68 0 103 41t35 119q0 151 -137 151h-98z" />
    <glyph glyph-name="racute" unicode="&#x155;" horiz-adv-x="331" 
d="M277 723l-87 -113h-58l75 113h70zM262 536q33 0 53 -5v-64q-30 11 -66 11q-57 0 -90.5 -43t-33.5 -117v-318h-59v525h49l10 -66v-1q45 78 137 78z" />
    <glyph glyph-name="uni0156" unicode="&#x156;" horiz-adv-x="483" 
d="M283 277l172 -277h-72l-167 273h-77v-273h-62v700h160q96 0 148 -53.5t52 -151.5q0 -91 -40.5 -147.5t-113.5 -70.5zM139 642v-311h97q68 0 103 41t35 119q0 151 -137 151h-98zM189 -249l18 180h65l-37 -180h-46z" />
    <glyph glyph-name="uni0157" unicode="&#x157;" horiz-adv-x="331" 
d="M262 536q33 0 53 -5v-64q-30 11 -66 11q-57 0 -90.5 -43t-33.5 -117v-318h-59v525h49l10 -66v-1q45 78 137 78zM70 -249l18 180h65l-37 -180h-46z" />
    <glyph glyph-name="Rcaron" unicode="&#x158;" horiz-adv-x="483" 
d="M260 769h-64l-81 113h56l57 -70l57 70h56zM383 0l-167 273h-77v-273h-62v700h160q96 0 148 -53.5t52 -151.5q0 -91 -40.5 -147.5t-113.5 -70.5l172 -277h-72zM139 642v-311h97q68 0 103 41t35 119q0 151 -137 151h-98z" />
    <glyph glyph-name="rcaron" unicode="&#x159;" horiz-adv-x="331" 
d="M217 610h-64l-81 113h56l57 -70l57 70h56zM262 536q33 0 53 -5v-64q-30 11 -66 11q-57 0 -90.5 -43t-33.5 -117v-318h-59v525h49l10 -66v-1q45 78 137 78z" />
    <glyph glyph-name="Sacute" unicode="&#x15a;" horiz-adv-x="451" 
d="M179 769l92 113h72l-105 -113h-59zM227 -13q-87 0 -140 53t-55 140h62q2 -64 37 -98.5t94 -34.5q62 0 94.5 35t32.5 94q0 44 -32 79.5t-77.5 61.5l-91 54t-77.5 71.5t-32 99.5q0 73 50.5 122t130.5 49q81 0 130 -52t53 -136h-62q-3 64 -35 96t-84 32q-56 0 -88 -30
t-32 -81q0 -44 32 -79t77.5 -60.5l91 -53t77.5 -71.5t32 -102q0 -77 -50.5 -133t-137.5 -56z" />
    <glyph glyph-name="sacute" unicode="&#x15b;" horiz-adv-x="402" 
d="M146 610l75 113h70l-87 -113h-58zM205 -12q-78 0 -126 46t-48 122h59q0 -52 30.5 -81t84.5 -29q49 0 76 23.5t27 65.5q0 35 -28 58.5t-67.5 38t-79 31t-67.5 50t-28 83.5q0 64 43.5 102.5t114.5 38.5q74 0 118.5 -44t44.5 -117h-59q0 49 -27.5 76.5t-76.5 27.5
q-46 0 -72 -22.5t-26 -63.5q0 -34 28 -56t67.5 -36.5t79 -31.5t67.5 -51.5t28 -85.5q0 -65 -45 -105t-118 -40z" />
    <glyph glyph-name="Scedilla" unicode="&#x15e;" horiz-adv-x="451" 
d="M415 176q0 -72 -45.5 -127t-124.5 -61l-11 -38q4 1 14 1q29 0 50 -18.5t21 -46.5q0 -36 -25.5 -56.5t-66.5 -20.5q-36 0 -60.5 19.5t-27.5 53.5h49q6 -28 41 -28q42 0 42 33q0 32 -39 32q-19 0 -31 -7l-17 16l18 60q-76 7 -122 59t-48 133h62q2 -64 37 -98.5t94 -34.5
q62 0 94.5 35t32.5 94q0 44 -32 79.5t-77.5 61.5l-91 54t-77.5 71.5t-32 99.5q0 73 50.5 122t130.5 49q81 0 130 -52t53 -136h-62q-3 64 -35 96t-84 32q-56 0 -88 -30t-32 -81q0 -44 32 -79t77.5 -60.5l91 -53t77.5 -71.5t32 -102z" />
    <glyph glyph-name="scedilla" unicode="&#x15f;" horiz-adv-x="402" 
d="M368 133q0 -63 -41.5 -102t-110.5 -43l-11 -38q4 1 14 1q29 0 50 -18.5t21 -46.5q0 -36 -25.5 -56.5t-66.5 -20.5q-36 0 -60.5 19.5t-27.5 53.5h49q6 -28 41 -28q42 0 42 33q0 32 -39 32q-19 0 -31 -7l-17 16l19 62q-66 9 -104.5 53.5t-38.5 112.5h59q0 -52 30.5 -81
t84.5 -29q49 0 76 23.5t27 65.5q0 35 -28 58.5t-67.5 38t-79 31t-67.5 50t-28 83.5q0 64 43.5 102.5t114.5 38.5q74 0 118.5 -44t44.5 -117h-59q0 49 -27.5 76.5t-76.5 27.5q-46 0 -72 -22.5t-26 -63.5q0 -34 28 -56t67.5 -36.5t79 -31.5t67.5 -51.5t28 -85.5z" />
    <glyph glyph-name="Scaron" unicode="&#x160;" horiz-adv-x="451" 
d="M258 769h-64l-81 113h56l57 -70l57 70h56zM105 542q0 -44 32 -79t77.5 -60.5l91 -53t77.5 -71.5t32 -102q0 -77 -50.5 -133t-137.5 -56t-140 53t-55 140h62q2 -64 37 -98.5t94 -34.5q62 0 94.5 35t32.5 94q0 44 -32 79.5t-77.5 61.5l-91 54t-77.5 71.5t-32 99.5
q0 73 50.5 122t130.5 49q81 0 130 -52t53 -136h-62q-3 64 -35 96t-84 32q-56 0 -88 -30t-32 -81z" />
    <glyph glyph-name="scaron" unicode="&#x161;" horiz-adv-x="402" 
d="M231 610h-64l-81 113h56l57 -70l57 70h56zM98 394q0 -34 28 -56t67.5 -36.5t79 -31.5t67.5 -51.5t28 -85.5q0 -65 -45 -105t-118 -40q-78 0 -126 46t-48 122h59q0 -52 30.5 -81t84.5 -29q49 0 76 23.5t27 65.5q0 35 -28 58.5t-67.5 38t-79 31t-67.5 50t-28 83.5
q0 64 43.5 102.5t114.5 38.5q74 0 118.5 -44t44.5 -117h-59q0 49 -27.5 76.5t-76.5 27.5q-46 0 -72 -22.5t-26 -63.5z" />
    <glyph glyph-name="uni0162" unicode="&#x162;" horiz-adv-x="406" 
d="M234 0h-9l-15 -50q4 1 14 1q29 0 50 -18.5t21 -46.5q0 -36 -25.5 -56.5t-66.5 -20.5q-36 0 -60.5 19.5t-27.5 53.5h49q6 -28 41 -28q42 0 42 33q0 32 -39 32q-19 0 -31 -7l-17 16l22 72h-10v642h-154v58h370v-58h-154v-642z" />
    <glyph glyph-name="uni0163" unicode="&#x163;" horiz-adv-x="297" 
d="M247 -5q-25 0 -42 4l-19 -49q4 1 14 1q29 0 50 -19t21 -48q0 -37 -25.5 -58t-66.5 -21q-36 0 -60.5 19.5t-27.5 53.5h49q6 -28 41 -28q19 0 30.5 9t11.5 26q0 34 -39 34q-19 0 -31 -7l-17 16l32 85q-70 38 -70 143v314h-80v55h80v121h59v-121h108v-55h-108v-314
q0 -105 90 -105h30v-56h-30z" />
    <glyph glyph-name="Tcaron" unicode="&#x164;" horiz-adv-x="406" 
d="M234 769h-64l-81 113h56l57 -70l57 70h56zM388 700v-58h-154v-642h-62v642h-154v58h370z" />
    <glyph glyph-name="tcaron" unicode="&#x165;" horiz-adv-x="303" 
d="M283 764l-32 -174h-42l9 174h65zM157 156q0 -105 90 -105h30v-56h-30q-72 0 -110.5 42.5t-38.5 118.5v314h-80v55h80v121h59v-121h108v-55h-108v-314z" />
    <glyph glyph-name="Tbar" unicode="&#x166;" horiz-adv-x="406" 
d="M388 642h-154v-259h84v-46h-84v-337h-62v337h-84v46h84v259h-154v58h370v-58z" />
    <glyph glyph-name="tbar" unicode="&#x167;" horiz-adv-x="297" 
d="M247 51h30v-56h-30q-72 0 -110.5 42.5t-38.5 118.5v116h-62v46h62v152h-80v55h80v121h59v-121h108v-55h-108v-152h83v-46h-83v-116q0 -105 90 -105z" />
    <glyph glyph-name="Umacron" unicode="&#x16a;" horiz-adv-x="514" 
d="M165 797v52h184v-52h-184zM257 -9q-87 0 -139 55.5t-52 157.5v496h62v-496q0 -77 34.5 -115t94.5 -38t94.5 38t34.5 115v496h62v-496q0 -102 -52 -157.5t-139 -55.5z" />
    <glyph glyph-name="umacron" unicode="&#x16b;" horiz-adv-x="462" 
d="M322 684v-50h-184v50h184zM337 525h59v-525h-49l-10 65q-44 -77 -136 -77q-141 0 -141 201v336h59v-327q0 -80 23 -117t74 -37q55 0 88 43.5t33 119.5v318z" />
    <glyph glyph-name="Uring" unicode="&#x16e;" horiz-adv-x="514" 
d="M257 764q-31 0 -50.5 19t-19.5 50q0 30 19.5 48.5t50.5 18.5t50.5 -18.5t19.5 -48.5q0 -31 -19.5 -50t-50.5 -19zM257 801q14 0 22.5 8.5t8.5 22.5t-9 22.5t-22 8.5q-14 0 -22.5 -8.5t-8.5 -22.5q0 -31 31 -31zM257 -9q-87 0 -139 55.5t-52 157.5v496h62v-496
q0 -77 34.5 -115t94.5 -38t94.5 38t34.5 115v496h62v-496q0 -102 -52 -157.5t-139 -55.5z" />
    <glyph glyph-name="uring" unicode="&#x16f;" horiz-adv-x="462" 
d="M230 601q-31 0 -50.5 19t-19.5 50q0 30 19.5 48.5t50.5 18.5t50.5 -18.5t19.5 -48.5q0 -31 -19.5 -50t-50.5 -19zM230 700q-14 0 -22.5 -8.5t-8.5 -22.5q0 -31 31 -31q14 0 22.5 8.5t8.5 22.5q0 13 -8.5 22t-22.5 9zM337 525h59v-525h-49l-10 65q-44 -77 -136 -77
q-141 0 -141 201v336h59v-327q0 -80 23 -117t74 -37q55 0 88 43.5t33 119.5v318z" />
    <glyph glyph-name="Uhungarumlaut" unicode="&#x170;" horiz-adv-x="514" 
d="M163 769l68 113h67l-82 -113h-53zM261 769l72 113h67l-86 -113h-53zM257 -9q-87 0 -139 55.5t-52 157.5v496h62v-496q0 -77 34.5 -115t94.5 -38t94.5 38t34.5 115v496h62v-496q0 -102 -52 -157.5t-139 -55.5z" />
    <glyph glyph-name="uhungarumlaut" unicode="&#x171;" horiz-adv-x="462" 
d="M268 718l-82 -113h-53l68 113h67zM284 605h-53l72 113h67zM337 525h59v-525h-49l-10 65q-44 -77 -136 -77q-141 0 -141 201v336h59v-327q0 -80 23 -117t74 -37q55 0 88 43.5t33 119.5v318z" />
    <glyph glyph-name="Uogonek" unicode="&#x172;" horiz-adv-x="508" 
d="M327 -192q-43 0 -64.5 24t-21.5 58q0 56 60 111l-1 1q-20 -11 -45 -11q-85 0 -137 54.5t-52 151.5v503h62v-503q0 -71 34.5 -108.5t91.5 -37.5t91.5 37.5t34.5 108.5v503h62v-503q0 -61 -15.5 -95t-41.5 -60q-87 -89 -87 -140q0 -39 38 -39q23 0 32 3v-52q-17 -6 -41 -6z
" />
    <glyph glyph-name="uogonek" unicode="&#x173;" horiz-adv-x="462" 
d="M396 0q-28 -22 -46.5 -50t-18.5 -52q0 -35 39 -35q13 0 25 3v-52q-15 -6 -38 -6q-42 0 -62.5 23.5t-20.5 56.5q0 60 73 112l-10 65q-45 -77 -135 -77q-142 0 -142 201v336h59v-327q0 -80 22.5 -117t73.5 -37q56 0 89 43.5t33 119.5v318h59v-525z" />
    <glyph glyph-name="Wcircumflex" unicode="&#x174;" horiz-adv-x="712" 
d="M356 839l-57 -70h-56l81 113h64l81 -113h-56zM636 700h65l-155 -700h-69l-85 381q-23 100 -34 220h-4q-11 -119 -34 -220l-85 -381h-69l-155 700h65l88 -432q32 -164 34 -178h4l36 188l84 411h68l84 -411l36 -188h4q2 14 34 178z" />
    <glyph glyph-name="wcircumflex" unicode="&#x175;" horiz-adv-x="608" 
d="M301 674l-57 -70h-56l81 113h64l81 -113h-56zM538 525h62l-130 -525h-65l-64 261q-28 114 -36 178h-2q-8 -64 -36 -178l-64 -261h-65l-130 525h62l65 -286q6 -24 13 -57.5l13.5 -67t7.5 -40.5h2q20 107 38 185l63 256h64l63 -256q18 -78 38 -185h2q1 7 7.5 40.5l13.5 67
t13 57.5z" />
    <glyph glyph-name="Ycircumflex" unicode="&#x176;" horiz-adv-x="422" 
d="M211 839l-57 -70h-56l81 113h64l81 -113h-56zM351 700h66l-175 -449v-251h-62v251l-175 449h66l100 -270l40 -108l40 109z" />
    <glyph glyph-name="ycircumflex" unicode="&#x177;" horiz-adv-x="387" 
d="M199 679l-57 -70h-56l81 113h64l81 -113h-56zM317 525h62l-178 -589q-20 -65 -47.5 -96t-78.5 -31h-34v58h26q32 0 47.5 19.5t27.5 58.5l32 107l-166 473h65l85 -244l44 -135z" />
    <glyph glyph-name="Ydieresis" unicode="&#x178;" horiz-adv-x="422" 
d="M146 788q-18 0 -29 10.5t-11 28.5t11 28.5t29 10.5q17 0 28 -10.5t11 -28.5t-11 -28.5t-28 -10.5zM276 788q-18 0 -29.5 10.5t-11.5 28.5t11.5 28.5t29.5 10.5t29 -10.5t11 -28.5t-11 -28.5t-29 -10.5zM180 0v251l-175 449h66l100 -270l40 -108l40 109l100 269h66
l-175 -449v-251h-62z" />
    <glyph glyph-name="Zacute" unicode="&#x179;" horiz-adv-x="409" 
d="M148 769l92 113h72l-105 -113h-59zM20 0v47l278 595h-265v58h340v-42l-280 -600h285v-58h-358z" />
    <glyph glyph-name="zacute" unicode="&#x17a;" horiz-adv-x="357" 
d="M121 610l75 113h70l-87 -113h-58zM16 0v48l236 422h-225v55h296v-47l-236 -423h244v-55h-315z" />
    <glyph glyph-name="Zdotaccent" unicode="&#x17b;" horiz-adv-x="409" 
d="M195 797q-22 0 -35 13t-13 35t13 35t35 13t35 -13t13 -35t-13 -35t-35 -13zM20 0v47l278 595h-265v58h340v-42l-280 -600h285v-58h-358z" />
    <glyph glyph-name="zdotaccent" unicode="&#x17c;" horiz-adv-x="357" 
d="M173 622q-22 0 -35 13t-13 35t13 35t35 13t35 -13t13 -35t-13 -35t-35 -13zM16 0v48l236 422h-225v55h296v-47l-236 -423h244v-55h-315z" />
    <glyph glyph-name="Zcaron" unicode="&#x17d;" horiz-adv-x="409" 
d="M227 769h-64l-81 113h56l57 -70l57 70h56zM93 58h285v-58h-358v47l278 595h-265v58h340v-42z" />
    <glyph glyph-name="zcaron" unicode="&#x17e;" horiz-adv-x="357" 
d="M206 610h-64l-81 113h56l57 -70l57 70h56zM87 55h244v-55h-315v48l236 422h-225v55h296v-47z" />
    <glyph glyph-name="uni0218" unicode="&#x218;" horiz-adv-x="451" 
d="M227 -13q-87 0 -140 53t-55 140h62q2 -64 37 -98.5t94 -34.5q62 0 94.5 35t32.5 94q0 44 -32 79.5t-77.5 61.5l-91 54t-77.5 71.5t-32 99.5q0 73 50.5 122t130.5 49q81 0 130 -52t53 -136h-62q-3 64 -35 96t-84 32q-56 0 -88 -30t-32 -81q0 -44 32 -79t77.5 -60.5l91 -53
t77.5 -71.5t32 -102q0 -77 -50.5 -133t-137.5 -56zM191 -249l18 180h65l-37 -180h-46z" />
    <glyph glyph-name="uni0219" unicode="&#x219;" horiz-adv-x="402" 
d="M205 -12q-78 0 -126 46t-48 122h59q0 -52 30.5 -81t84.5 -29q49 0 76 23.5t27 65.5q0 35 -28 58.5t-67.5 38t-79 31t-67.5 50t-28 83.5q0 64 43.5 102.5t114.5 38.5q74 0 118.5 -44t44.5 -117h-59q0 49 -27.5 76.5t-76.5 27.5q-46 0 -72 -22.5t-26 -63.5q0 -34 28 -56
t67.5 -36.5t79 -31.5t67.5 -51.5t28 -85.5q0 -65 -45 -105t-118 -40zM163 -249l18 180h65l-37 -180h-46z" />
    <glyph glyph-name="uni021A" unicode="&#x21a;" horiz-adv-x="406" 
d="M18 700h370v-58h-154v-642h-62v642h-154v58zM155 -249l18 180h65l-37 -180h-46z" />
    <glyph glyph-name="uni021B" unicode="&#x21b;" horiz-adv-x="297" 
d="M247 51h30v-56h-30q-72 0 -110.5 42.5t-38.5 118.5v314h-80v55h80v121h59v-121h108v-55h-108v-314q0 -105 90 -105zM124 -249l18 180h65l-37 -180h-46z" />
    <glyph glyph-name="gravecomb" unicode="&#x300;" 
d="M0 610h-58l-87 113h70z" />
    <glyph glyph-name="acutecomb" unicode="&#x301;" 
d="M-145 610l75 113h70l-87 -113h-58z" />
    <glyph glyph-name="uni0302" unicode="&#x302;" 
d="M0 609h-56l-57 70l-57 -70h-56l81 113h64z" />
    <glyph glyph-name="tildecomb" unicode="&#x303;" 
d="M-68 625q-22 0 -45.5 16t-32.5 16q-16 0 -19 -29h-54q2 36 20 57t48 21q23 0 46.5 -16t31.5 -16q20 0 23 29h50q-4 -37 -21.5 -57.5t-46.5 -20.5z" />
    <glyph glyph-name="uni0304" unicode="&#x304;" 
d="M-184 639v50h184v-50h-184z" />
    <glyph glyph-name="uni0306" unicode="&#x306;" 
d="M-115 607q-52 0 -81.5 30.5t-31.5 85.5h52q4 -66 61 -66t61 66h52q-2 -55 -31.5 -85.5t-81.5 -30.5z" />
    <glyph glyph-name="uni0307" unicode="&#x307;" 
d="M-92 622q-22 0 -35 13t-13 35t13 35t35 13t35 -13t13 -35t-13 -35t-35 -13z" />
    <glyph glyph-name="uni0308" unicode="&#x308;" 
d="M-158 626q-18 0 -29 10.5t-11 28.5t11 28.5t29 10.5q17 0 28 -10.5t11 -28.5t-11 -28.5t-28 -10.5zM-40 626q-18 0 -29.5 10.5t-11.5 28.5t11.5 28.5t29.5 10.5t29 -10.5t11 -28.5t-11 -28.5t-29 -10.5z" />
    <glyph glyph-name="uni030A" unicode="&#x30a;" 
d="M-85 606q-31 0 -50.5 19t-19.5 50q0 30 19.5 48.5t50.5 18.5t50.5 -18.5t19.5 -48.5q0 -31 -19.5 -50t-50.5 -19zM-85 643q14 0 22.5 8.5t8.5 22.5t-9 22.5t-22 8.5q-14 0 -22.5 -8.5t-8.5 -22.5q0 -31 31 -31z" />
    <glyph glyph-name="uni030B" unicode="&#x30b;" 
d="M-237 610l68 113h67l-82 -113h-53zM-139 610l72 113h67l-86 -113h-53z" />
    <glyph glyph-name="uni030C" unicode="&#x30c;" 
d="M-56 723h56l-81 -113h-64l-81 113h56l57 -70z" />
    <glyph glyph-name="uni0312" unicode="&#x312;" 
d="M-67 606l-18 177h43l42 -177h-67z" />
    <glyph glyph-name="uni0326" unicode="&#x326;" 
d="M-85 -249l18 180h65l-37 -180h-46z" />
    <glyph glyph-name="uni0327" unicode="&#x327;" 
d="M-109 -191q-36 0 -60.5 19.5t-27.5 53.5h49q6 -28 41 -28q42 0 42 33q0 32 -39 32q-19 0 -31 -7l-17 16l22 72h43l-15 -50q4 1 14 1q29 0 50 -18.5t21 -46.5q0 -36 -25.5 -56.5t-66.5 -20.5z" />
    <glyph glyph-name="uni0328" unicode="&#x328;" 
d="M-41 -192q-43 0 -64.5 23.5t-21.5 57.5q0 59 60 111h55q-25 -22 -41.5 -50t-16.5 -51q0 -36 38 -36q23 0 32 3v-52q-16 -6 -41 -6z" />
    <glyph glyph-name="uni0335" unicode="&#x335;" 
d="M-210 372v46h200v-46h-200z" />
    <glyph glyph-name="uni0336" unicode="&#x336;" 
d="M-330 372v46h320v-46h-320z" />
    <glyph glyph-name="uni0337" unicode="&#x337;" 
d="M-241 -44l163 594h59l-163 -594h-59z" />
    <glyph glyph-name="uni0338" unicode="&#x338;" 
d="M-332 -37l215 774h59l-215 -774h-59z" />
    <glyph glyph-name="uni0401" unicode="&#x401;" horiz-adv-x="454" 
d="M179 788q-18 0 -29 10.5t-11 28.5t11 28.5t29 10.5q17 0 28 -10.5t11 -28.5t-11 -28.5t-28 -10.5zM309 788q-18 0 -29.5 10.5t-11.5 28.5t11.5 28.5t29.5 10.5t29 -10.5t11 -28.5t-11 -28.5t-29 -10.5zM139 57h275v-57h-337v700h326v-57h-264v-259h247v-57h-247v-270z
" />
    <glyph glyph-name="uni0402" unicode="&#x402;" horiz-adv-x="552" 
d="M331 -8v57q59 1 84 29t25 86v144q0 89 -23 128.5t-72 39.5q-55 0 -88 -43.5t-33 -119.5v-313h-62v642h-144v58h350v-58h-144v-186q45 76 134 76q71 0 106 -53t35 -166v-149q0 -82 -41.5 -126.5t-126.5 -45.5z" />
    <glyph glyph-name="uni0403" unicode="&#x403;" horiz-adv-x="414" 
d="M334 882l-105 -113h-59l92 113h72zM396 700v-58h-257v-642h-62v700h319z" />
    <glyph glyph-name="uni0404" unicode="&#x404;" horiz-adv-x="480" 
d="M385 190h60q-8 -96 -59 -149t-137 -53t-138.5 55.5t-52.5 154.5v304q0 99 51.5 154.5t135.5 55.5q86 0 137.5 -52.5t56.5 -149.5h-60q-10 146 -134 146q-58 0 -92.5 -39t-34.5 -115v-117h214v-58h-214v-129q0 -76 35.5 -115t95.5 -39q121 0 136 146z" />
    <glyph glyph-name="uni0405" unicode="&#x405;" horiz-adv-x="451" 
d="M227 -13q-87 0 -140 53t-55 140h62q2 -64 37 -98.5t94 -34.5q62 0 94.5 35t32.5 94q0 44 -32 79.5t-77.5 61.5l-91 54t-77.5 71.5t-32 99.5q0 73 50.5 122t130.5 49q81 0 130 -52t53 -136h-62q-3 64 -35 96t-84 32q-56 0 -88 -30t-32 -81q0 -44 32 -79t77.5 -60.5l91 -53
t77.5 -71.5t32 -102q0 -77 -50.5 -133t-137.5 -56z" />
    <glyph glyph-name="uni0406" unicode="&#x406;" horiz-adv-x="216" 
d="M77 0v700h62v-700h-62z" />
    <glyph glyph-name="uni0407" unicode="&#x407;" horiz-adv-x="216" 
d="M45 788q-18 0 -29 10.5t-11 28.5t11 28.5t29 10.5q17 0 28 -10.5t11 -28.5t-11 -28.5t-28 -10.5zM175 788q-18 0 -29.5 10.5t-11.5 28.5t11.5 28.5t29.5 10.5t29 -10.5t11 -28.5t-11 -28.5t-29 -10.5zM77 0v700h62v-700h-62z" />
    <glyph glyph-name="uni0408" unicode="&#x408;" horiz-adv-x="248" 
d="M0 -81v59q58 0 85.5 31.5t27.5 107.5v583h62v-583q0 -198 -175 -198z" />
    <glyph glyph-name="uni0409" unicode="&#x409;" horiz-adv-x="720" 
d="M0 -9v59q59 0 71 94q15 112 29 556h289v-293h103q95 0 150.5 -53.5t55.5 -147.5q0 -96 -56 -151t-150 -55h-165v642h-168q-15 -414 -28 -507q-21 -144 -131 -144zM389 59h103q66 0 104.5 38t38.5 109q0 69 -38.5 105.5t-104.5 36.5h-103v-289z" />
    <glyph glyph-name="uni040A" unicode="&#x40a;" horiz-adv-x="772" 
d="M77 0v700h62v-301h242v301h62v-300h103q94 0 149 -51.5t55 -142.5q0 -96 -55 -151t-149 -55h-165v341h-242v-341h-62zM443 59h103q66 0 103.5 38t37.5 109q0 65 -37.5 100t-103.5 35h-103v-282z" />
    <glyph glyph-name="uni040B" unicode="&#x40b;" horiz-adv-x="559" 
d="M162 0v642h-144v58h350v-58h-144v-186q45 76 134 76q71 0 106 -53t35 -166v-313h-59v308q0 89 -23 128.5t-72 39.5q-55 0 -88 -43.5t-33 -119.5v-313h-62z" />
    <glyph glyph-name="uni040C" unicode="&#x40c;" horiz-adv-x="480" 
d="M341 882l-105 -113h-59l92 113h72zM406 0l-217 341l-50 -68v-273h-62v700h62v-334l57 82l179 252h77l-223 -305l251 -395h-74z" />
    <glyph glyph-name="uni040D" unicode="&#x40d;" horiz-adv-x="539" 
d="M311 769h-59l-105 113h72zM77 0v700h62v-443q0 -81 -3 -134l3 -1q19 52 49 114l204 464h70v-700h-62v461l1 117l-2 1l-37 -90l-217 -489h-68z" />
    <glyph glyph-name="uni040E" unicode="&#x40e;" horiz-adv-x="403" 
d="M205 766q-52 0 -81.5 30.5t-31.5 85.5h52q4 -66 61 -66t61 66h52q-2 -55 -31.5 -85.5t-81.5 -30.5zM333 700h64l-176 -575q-41 -134 -153 -134h-24v59h24q68 0 96 94l23 74l-179 482h66l140 -392z" />
    <glyph glyph-name="uni040F" unicode="&#x40f;" horiz-adv-x="527" 
d="M234 -115v115h-157v700h62v-642h249v642h62v-700h-156v-115h-60z" />
    <glyph glyph-name="uni0410" unicode="&#x410;" horiz-adv-x="458" 
d="M381 0l-41 164h-222l-41 -164h-66l184 700h68l184 -700h-66zM132 220h194l-72 290q-15 58 -24 110h-2q-9 -52 -24 -110z" />
    <glyph glyph-name="uni0411" unicode="&#x411;" horiz-adv-x="489" 
d="M77 0v700h340v-58h-278v-226h115q91 0 146 -55t55 -150q0 -98 -55 -154.5t-146 -56.5h-177zM139 58h115q63 0 100.5 39.5t37.5 113.5q0 71 -37.5 109t-100.5 38h-115v-300z" />
    <glyph glyph-name="uni0412" unicode="&#x412;" horiz-adv-x="493" 
d="M336 363q56 -13 88 -57.5t32 -114.5q0 -93 -52.5 -142t-146.5 -49h-180v700h164q88 0 137 -47.5t49 -134.5q0 -64 -24.5 -103.5t-66.5 -51.5zM241 642h-102v-254h104q121 0 121 130q0 124 -123 124zM257 58q69 0 102.5 32.5t33.5 100.5q0 67 -39.5 103t-107.5 36h-107
v-272h118z" />
    <glyph glyph-name="uni0413" unicode="&#x413;" horiz-adv-x="414" 
d="M396 700v-58h-257v-642h-62v700h319z" />
    <glyph glyph-name="uni0414" unicode="&#x414;" horiz-adv-x="517" 
d="M429 58h60v-173h-60v115h-362v-115h-60v173h38q31 30 52 99.5t24 160.5l12 382h296v-642zM367 58v584h-175l-12 -340q-6 -161 -58 -244h245z" />
    <glyph glyph-name="uni0415" unicode="&#x415;" horiz-adv-x="454" 
d="M139 57h275v-57h-337v700h326v-57h-264v-259h247v-57h-247v-270z" />
    <glyph glyph-name="uni0416" unicode="&#x416;" horiz-adv-x="692" 
d="M618 0l-210 323l-32 -45v-278h-60v278l-32 45l-210 -323h-74l246 377l-230 323h73l227 -328v328h60v-329l65 95l162 234h73l-230 -323l246 -377h-74z" />
    <glyph glyph-name="uni0417" unicode="&#x417;" horiz-adv-x="484" 
d="M310 362q127 -35 127 -175q0 -93 -54.5 -146.5t-142.5 -53.5q-90 0 -144.5 55.5t-59.5 144.5h63q5 -64 41 -102t98 -38t99.5 37.5t37.5 102.5q0 69 -42 106.5t-108 37.5h-57v58h50q64 0 103 33.5t39 101.5q0 62 -32.5 95.5t-91.5 33.5q-117 0 -128 -142h-62
q5 95 54.5 148.5t136.5 53.5q85 0 135 -51t50 -143q0 -124 -112 -157z" />
    <glyph glyph-name="uni0418" unicode="&#x418;" horiz-adv-x="539" 
d="M77 0v700h62v-443q0 -81 -3 -134l3 -1q19 52 49 114l204 464h70v-700h-62v461l1 117l-2 1l-37 -90l-217 -489h-68z" />
    <glyph glyph-name="uni0419" unicode="&#x419;" horiz-adv-x="539" 
d="M270 766q-52 0 -81.5 30.5t-31.5 85.5h52q5 -66 61 -66t61 66h52q-2 -55 -31.5 -85.5t-81.5 -30.5zM77 0v700h62v-443q0 -81 -3 -134l3 -1q19 52 49 114l204 464h70v-700h-62v461l1 117l-2 1l-37 -90l-217 -489h-68z" />
    <glyph glyph-name="uni041A" unicode="&#x41a;" horiz-adv-x="480" 
d="M406 0l-217 341l-50 -68v-273h-62v700h62v-334l57 82l179 252h77l-223 -305l251 -395h-74z" />
    <glyph glyph-name="uni041B" unicode="&#x41b;" horiz-adv-x="483" 
d="M0 -9v59q64 0 74 94q16 135 31 556h301v-700h-62v642h-180q-17 -412 -30 -507q-8 -68 -42 -106t-92 -38z" />
    <glyph glyph-name="uni041C" unicode="&#x41c;" horiz-adv-x="652" 
d="M509 700h66v-700h-62v370q0 105 6 198l-4 1q-10 -29 -37.5 -97t-34.5 -87l-86 -220h-62l-86 220q-7 19 -34.5 87t-37.5 97l-4 -1q6 -93 6 -198v-370h-62v700h66l125 -302q24 -60 56 -156h4q32 96 56 156z" />
    <glyph glyph-name="uni041D" unicode="&#x41d;" horiz-adv-x="527" 
d="M388 700h62v-700h-62v327h-249v-327h-62v700h62v-315h249v315z" />
    <glyph glyph-name="uni041E" unicode="&#x41e;" horiz-adv-x="518" 
d="M259 -13q-94 0 -147.5 62t-53.5 168v266q0 106 53.5 168t147.5 62t147.5 -62t53.5 -168v-266q0 -106 -53.5 -168t-147.5 -62zM259 47q68 0 103 44t35 126v266q0 82 -35 126t-103 44t-103 -44t-35 -126v-266q0 -82 35 -126t103 -44z" />
    <glyph glyph-name="uni041F" unicode="&#x41f;" horiz-adv-x="527" 
d="M450 700v-700h-62v642h-249v-642h-62v700h373z" />
    <glyph glyph-name="uni0420" unicode="&#x420;" horiz-adv-x="480" 
d="M245 700q96 0 148 -56t52 -159q0 -108 -51.5 -164t-148.5 -56h-106v-265h-62v700h168zM245 324q71 0 104.5 39t33.5 122q0 156 -138 156h-106v-317h106z" />
    <glyph glyph-name="uni0421" unicode="&#x421;" horiz-adv-x="480" 
d="M249 -12q-86 0 -138.5 55.5t-52.5 154.5v304q0 99 51.5 154.5t135.5 55.5q86 0 137.5 -52.5t56.5 -149.5h-60q-10 146 -134 146q-58 0 -92.5 -39t-34.5 -115v-304q0 -76 35.5 -115t95.5 -39q121 0 136 146h60q-8 -96 -59 -149t-137 -53z" />
    <glyph glyph-name="uni0422" unicode="&#x422;" horiz-adv-x="406" 
d="M388 700v-58h-154v-642h-62v642h-154v58h370z" />
    <glyph glyph-name="uni0423" unicode="&#x423;" horiz-adv-x="403" 
d="M333 700h64l-176 -575q-41 -134 -153 -134h-24v59h24q68 0 96 94l23 74l-179 482h66l140 -392z" />
    <glyph glyph-name="uni0424" unicode="&#x424;" horiz-adv-x="647" 
d="M292 -56v78h-19q-112 0 -174 65t-62 185v157q0 120 62 185t174 65h19v73h62v-73h19q112 0 174.5 -65t62.5 -185v-157q0 -120 -62.5 -185t-174.5 -65h-19v-78h-62zM273 82h19v537h-19q-173 0 -173 -190v-157q0 -190 173 -190zM354 82h19q174 0 174 190v157q0 190 -174 190
h-19v-537z" />
    <glyph glyph-name="uni0425" unicode="&#x425;" horiz-adv-x="449" 
d="M430 0h-69l-136 305l-136 -305h-69l169 364l-160 336h69l127 -279l127 279h69l-160 -336z" />
    <glyph glyph-name="uni0426" unicode="&#x426;" horiz-adv-x="535" 
d="M447 -115v115h-370v700h62v-642h244v642h62v-642h62v-173h-60z" />
    <glyph glyph-name="uni0427" unicode="&#x427;" horiz-adv-x="491" 
d="M352 700h62v-700h-62v276q-53 -23 -103 -23q-96 0 -152 55t-56 156v236h62v-236q0 -75 38.5 -113.5t107.5 -38.5q50 0 103 23v365z" />
    <glyph glyph-name="uni0428" unicode="&#x428;" horiz-adv-x="790" 
d="M77 0v700h62v-642h225v642h62v-642h225v642h62v-700h-636z" />
    <glyph glyph-name="uni0429" unicode="&#x429;" horiz-adv-x="801" 
d="M713 -115v115h-636v700h62v-642h225v642h62v-642h225v642h62v-642h60v-173h-60z" />
    <glyph glyph-name="uni042A" unicode="&#x42a;" horiz-adv-x="531" 
d="M137 0v642h-120v58h182v-289h103q95 0 151 -54t56 -149q0 -97 -56 -152.5t-151 -55.5h-165zM199 59h103q67 0 105.5 38.5t38.5 110.5q0 69 -38.5 106.5t-105.5 37.5h-103v-293z" />
    <glyph glyph-name="uni042B" unicode="&#x42b;" horiz-adv-x="683" 
d="M77 0v700h62v-293h100q95 0 150.5 -53.5t55.5 -147.5q0 -96 -56 -151t-150 -55h-162zM544 0v700h62v-700h-62zM139 59h100q66 0 104.5 38t38.5 109q0 69 -38.5 105.5t-104.5 36.5h-100v-289z" />
    <glyph glyph-name="uni042C" unicode="&#x42c;" horiz-adv-x="476" 
d="M77 0v700h62v-292h117q89 0 143.5 -54t54.5 -147q0 -96 -54.5 -151.5t-143.5 -55.5h-179zM139 58h117q61 0 98 38.5t37 110.5q0 69 -37 106t-98 37h-117v-292z" />
    <glyph glyph-name="uni042D" unicode="&#x42d;" horiz-adv-x="480" 
d="M235 712q84 0 135.5 -55.5t51.5 -154.5v-304q0 -99 -52.5 -154.5t-138.5 -55.5t-137 53t-59 149h60q15 -146 136 -146q60 0 95.5 39t35.5 115v129h-214v58h214v117q0 76 -34.5 115t-92.5 39q-124 0 -134 -146h-60q5 97 56.5 149.5t137.5 52.5z" />
    <glyph glyph-name="uni042E" unicode="&#x42e;" horiz-adv-x="723" 
d="M465 709q94 0 147 -63.5t53 -176.5v-238q0 -113 -53 -176.5t-147 -63.5t-147 63.5t-53 176.5v96h-126v-327h-62v700h62v-315h126v84q0 113 53 176.5t147 63.5zM602 231v238q0 180 -137 180t-137 -180v-238q0 -180 137 -180t137 180z" />
    <glyph glyph-name="uni042F" unicode="&#x42f;" horiz-adv-x="479" 
d="M28 0l170 281q-73 13 -113 67t-40 139q0 101 53 157t146 56h158v-700h-62v277h-74l-166 -277h-72zM242 335h98v307h-96q-136 0 -136 -152q0 -75 34 -115t100 -40z" />
    <glyph glyph-name="uni0430" unicode="&#x430;" horiz-adv-x="447" 
d="M220 537q75 0 118 -47t43 -127v-363h-51l-5 50q-44 -62 -121 -62q-74 0 -120 43t-46 118q0 76 47 116.5t133 40.5h104v56q0 118 -104 118q-45 0 -73.5 -24.5t-31.5 -67.5h-59q3 68 48 108.5t118 40.5zM213 46q50 0 79.5 30t29.5 82v93h-106q-118 0 -118 -103
q0 -50 31 -76t84 -26z" />
    <glyph glyph-name="uni0431" unicode="&#x431;" horiz-adv-x="462" 
d="M237 -10q-79 0 -125 49.5t-46 139.5v294q0 42 12.5 77t31 56.5t43.5 37.5t44.5 23.5t40.5 12.5q36 9 56 20.5t37 40.5l48 -34q-29 -62 -126 -87q-28 -7 -45 -14t-39 -22.5t-33 -43t-11 -67.5v-40q41 66 127 66q71 0 114 -49t43 -136v-135q0 -90 -46.5 -139.5
t-125.5 -49.5zM237 48q112 0 112 131v124q0 138 -109 138q-49 0 -81.5 -31t-32.5 -100v-131q0 -131 111 -131z" />
    <glyph glyph-name="uni0432" unicode="&#x432;" horiz-adv-x="423" 
d="M304 278q39 -15 62.5 -51t23.5 -76q0 -72 -44 -111.5t-127 -39.5h-153v524h138q76 0 118 -37.5t42 -102.5q0 -64 -60 -106zM124 468v-168h79q50 0 76 22t26 62q0 84 -102 84h-79zM218 56q113 0 113 95q0 93 -113 93h-94v-188h94z" />
    <glyph glyph-name="uni0433" unicode="&#x433;" horiz-adv-x="342" 
d="M327 525v-57h-202v-468h-59v525h261z" />
    <glyph glyph-name="uni0434" unicode="&#x434;" horiz-adv-x="445" 
d="M0 -115v171h38q41 77 52 237q8 117 9 232h272v-469h58v-171h-58v115h-313v-115h-58zM103 56h209v413h-157q-2 -107 -8 -185q-12 -150 -44 -228z" />
    <glyph glyph-name="uni0435" unicode="&#x435;" horiz-adv-x="450" 
d="M342 161h59q-6 -83 -52 -127t-127 -44q-78 0 -123.5 49t-45.5 138v173q0 89 46.5 138t125.5 49q80 0 127.5 -49t47.5 -138v-116h-287v-57q0 -129 111 -129q55 0 83.5 27.5t34.5 85.5zM226 479q-54 0 -83.5 -32t-29.5 -97v-61h228v61q0 129 -115 129z" />
    <glyph glyph-name="uni0436" unicode="&#x436;" horiz-adv-x="593" 
d="M522 0l-162 250l-35 -45v-205h-57v205l-35 45l-162 -250h-71l197 295l-182 230h74l98 -129l81 -107v236h57v-236l81 107l98 129h74l-182 -230l197 -295h-71z" />
    <glyph glyph-name="uni0437" unicode="&#x437;" horiz-adv-x="404" 
d="M284 275q39 -14 64.5 -47.5t25.5 -77.5q0 -71 -49 -115.5t-124 -44.5q-80 0 -128 44t-51 113h59q3 -45 34 -72t86 -27q52 0 82.5 27.5t30.5 77.5q0 42 -30.5 66.5t-85.5 24.5h-76v55h72q48 0 76 22t28 64q0 40 -26.5 65t-72.5 25q-51 0 -76.5 -24.5t-29.5 -77.5h-59
q4 77 46 118t119 41q67 0 112.5 -41.5t45.5 -100.5q0 -84 -73 -115z" />
    <glyph glyph-name="uni0438" unicode="&#x438;" horiz-adv-x="455" 
d="M66 0v525h59v-300q0 -92 -2 -118l2 -2q19 45 35 78l168 342h61v-525h-59v283q0 56 4 140l-2 1q-7 -23 -42 -95l-163 -329h-61z" />
    <glyph glyph-name="uni0439" unicode="&#x439;" horiz-adv-x="455" 
d="M228 607q-52 0 -81.5 30.5t-31.5 85.5h52q5 -66 61 -66q57 0 61 66h52q-2 -55 -31.5 -85.5t-81.5 -30.5zM66 0v525h59v-300q0 -92 -2 -118l2 -2q19 45 35 78l168 342h61v-525h-59v283q0 56 4 140l-2 1q-7 -23 -42 -95l-163 -329h-61z" />
    <glyph glyph-name="uni043A" unicode="&#x43a;" horiz-adv-x="422" 
d="M349 0l-183 251l-41 -50v-201h-59v525h59v-238l78 95l117 143h76l-191 -228l217 -297h-73z" />
    <glyph glyph-name="uni043B" unicode="&#x43b;" horiz-adv-x="431" 
d="M5 -4v57q22 0 37.5 14t23.5 43t12 58t7 75q6 102 10 282h270v-525h-59v469h-153q-2 -88 -10 -235q-7 -123 -38.5 -180.5t-99.5 -57.5z" />
    <glyph glyph-name="uni043C" unicode="&#x43c;" horiz-adv-x="538" 
d="M411 525h61v-525h-57v289q0 29 2.5 72.5t2.5 56.5l-3 1q-27 -79 -46 -121l-72 -160h-60l-72 160q-19 42 -46 121l-3 -1q0 -13 2.5 -56.5t2.5 -72.5v-289h-57v525h61l107 -239l34 -83h2l34 83z" />
    <glyph glyph-name="uni043D" unicode="&#x43d;" horiz-adv-x="450" 
d="M325 525h59v-525h-59v244h-200v-244h-59v525h59v-225h200v225z" />
    <glyph glyph-name="uni043E" unicode="&#x43e;" horiz-adv-x="456" 
d="M228 -12q-80 0 -127.5 49.5t-47.5 140.5v169q0 91 47.5 140.5t127.5 49.5t127.5 -49.5t47.5 -140.5v-169q0 -91 -47.5 -140.5t-127.5 -49.5zM228 46q115 0 115 132v169q0 132 -115 132t-115 -132v-169q0 -132 115 -132z" />
    <glyph glyph-name="uni043F" unicode="&#x43f;" horiz-adv-x="450" 
d="M66 0v525h318v-525h-59v469h-200v-469h-59z" />
    <glyph glyph-name="uni0440" unicode="&#x440;" horiz-adv-x="462" 
d="M246 537q74 0 118.5 -52t44.5 -149v-151q0 -96 -43 -146.5t-120 -50.5q-79 0 -122 59v-227h-58v705h48l8 -49q44 61 124 61zM349 185v151q0 146 -116 146q-48 0 -78.5 -37t-30.5 -107v-153q0 -63 30 -102.5t79 -39.5q59 0 87.5 34t28.5 108z" />
    <glyph glyph-name="uni0441" unicode="&#x441;" horiz-adv-x="432" 
d="M221 -10q-77 0 -122.5 49t-45.5 138v173q0 89 45.5 138t122.5 49q79 0 125.5 -49t48.5 -138h-60q-4 129 -114 129q-108 0 -108 -129v-173q0 -129 108 -129q111 0 115 129h60q-2 -89 -48.5 -138t-126.5 -49z" />
    <glyph glyph-name="uni0442" unicode="&#x442;" horiz-adv-x="343" 
d="M331 525v-55h-130v-470h-59v470h-130v55h319z" />
    <glyph glyph-name="uni0443" unicode="&#x443;" horiz-adv-x="387" 
d="M317 525h62l-178 -589q-20 -65 -47.5 -96t-78.5 -31h-34v58h26q32 0 47.5 19.5t27.5 58.5l32 107l-166 473h65l85 -244l44 -135z" />
    <glyph glyph-name="uni0444" unicode="&#x444;" horiz-adv-x="614" 
d="M362 533q85 0 142 -56t57 -152v-130q0 -94 -57 -148.5t-142 -54.5h-26v-172h-58v172h-26q-85 0 -142 54.5t-57 148.5v130q0 96 57 152t142 56h26v187h58v-187h26zM252 50h26v425h-26q-61 0 -100 -38.5t-39 -111.5v-130q0 -70 39.5 -107.5t99.5 -37.5zM501 195v130
q0 73 -39 111.5t-100 38.5h-26v-425h26q60 0 99.5 37.5t39.5 107.5z" />
    <glyph glyph-name="uni0445" unicode="&#x445;" horiz-adv-x="380" 
d="M375 0h-69l-116 214l-116 -214h-69l151 262l-144 263h67l111 -206l111 206h67l-143 -263z" />
    <glyph glyph-name="uni0446" unicode="&#x446;" horiz-adv-x="461" 
d="M380 -115v115h-314v525h59v-469h196v469h59v-469h58v-171h-58z" />
    <glyph glyph-name="uni0447" unicode="&#x447;" horiz-adv-x="425" 
d="M300 0v198q-40 -21 -105 -21q-70 0 -116 53.5t-46 152.5v142h59v-142q0 -76 29.5 -112t78.5 -36q64 0 100 22v268h59v-525h-59z" />
    <glyph glyph-name="uni0448" unicode="&#x448;" horiz-adv-x="686" 
d="M60 0v525h59v-469h191v469h60v-469h191v469h59v-525h-560z" />
    <glyph glyph-name="uni0449" unicode="&#x449;" horiz-adv-x="705" 
d="M626 -115v115h-560v525h59v-469h191v469h60v-469h191v469h59v-470h56v-170h-56z" />
    <glyph glyph-name="uni044A" unicode="&#x44a;" horiz-adv-x="459" 
d="M273 340q72 0 122 -48t50 -121q0 -74 -50 -122.5t-122 -48.5h-155v470h-106v55h165v-185h96zM273 57q48 0 80 31.5t32 82.5q0 50 -32 81t-80 31h-96v-226h96z" />
    <glyph glyph-name="uni044B" unicode="&#x44b;" horiz-adv-x="598" 
d="M221 332q72 0 122 -46.5t50 -118.5q0 -73 -50 -120t-122 -47h-155v520h59v-188h96zM473 520h59v-520h-59v520zM221 57q48 0 80 30.5t32 79.5t-32 78.5t-80 29.5h-96v-218h96z" />
    <glyph glyph-name="uni044C" unicode="&#x44c;" horiz-adv-x="407" 
d="M221 340q72 0 122 -48t50 -121q0 -74 -50 -122.5t-122 -48.5h-155v525h59v-185h96zM221 57q48 0 80 31.5t32 82.5q0 50 -32 81t-80 31h-96v-226h96z" />
    <glyph glyph-name="uni044D" unicode="&#x44d;" horiz-adv-x="431" 
d="M210 537q77 0 122.5 -49t45.5 -138v-173q0 -89 -45.5 -138t-122.5 -49q-79 0 -125.5 49t-48.5 138h60q4 -129 114 -129q108 0 108 129v61h-181v55h181v57q0 129 -108 129q-109 0 -113 -129h-60q2 89 48 138t125 49z" />
    <glyph glyph-name="uni044E" unicode="&#x44e;" horiz-adv-x="611" 
d="M389 537q78 0 123.5 -49.5t45.5 -139.5v-169q0 -90 -45.5 -139.5t-123.5 -49.5t-123.5 49.5t-45.5 139.5v62h-95v-241h-59v525h59v-227h95v50q0 90 45.5 139.5t123.5 49.5zM498 179v169q0 131 -109 131t-109 -131v-169q0 -131 109 -131t109 131z" />
    <glyph glyph-name="uni044F" unicode="&#x44f;" horiz-adv-x="401" 
d="M196 525h145v-525h-59v192h-80l-120 -192h-70l127 195q-50 11 -79.5 55t-29.5 108q0 75 45.5 121t120.5 46zM282 247v221h-86q-50 0 -78 -29t-28 -81q0 -111 100 -111h92z" />
    <glyph glyph-name="uni0451" unicode="&#x451;" horiz-adv-x="450" 
d="M161 626q-18 0 -29 10.5t-11 28.5t11 28.5t29 10.5q17 0 28 -10.5t11 -28.5t-11 -28.5t-28 -10.5zM279 626q-18 0 -29.5 10.5t-11.5 28.5t11.5 28.5t29.5 10.5t29 -10.5t11 -28.5t-11 -28.5t-29 -10.5zM342 161h59q-6 -83 -52 -127t-127 -44q-78 0 -123.5 49t-45.5 138
v173q0 89 46.5 138t125.5 49q80 0 127.5 -49t47.5 -138v-116h-287v-57q0 -129 111 -129q55 0 83.5 27.5t34.5 85.5zM226 479q-54 0 -83.5 -32t-29.5 -97v-61h228v61q0 129 -115 129z" />
    <glyph glyph-name="uni0452" unicode="&#x452;" horiz-adv-x="466" 
d="M238 -205v57q58 1 83.5 27.5t25.5 77.5v355q0 90 -23.5 129.5t-73.5 39.5q-55 0 -88 -43.5t-33 -120.5v-317h-59v615h-64v46h64v62h59v-62h97v-46h-97v-156q45 78 136 78q141 0 141 -220v-360q0 -75 -42 -118t-126 -44z" />
    <glyph glyph-name="uni0453" unicode="&#x453;" horiz-adv-x="342" 
d="M284 723l-87 -113h-58l75 113h70zM327 525v-57h-202v-468h-59v525h261z" />
    <glyph glyph-name="uni0454" unicode="&#x454;" horiz-adv-x="431" 
d="M335 177h60q-2 -89 -48.5 -138t-125.5 -49q-77 0 -122.5 49t-45.5 138v173q0 89 45.5 138t122.5 49q79 0 125 -49t48 -138h-60q-4 129 -113 129q-108 0 -108 -129v-57h181v-55h-181v-61q0 -129 108 -129q110 0 114 129z" />
    <glyph glyph-name="uni0455" unicode="&#x455;" horiz-adv-x="402" 
d="M205 -12q-78 0 -126 46t-48 122h59q0 -52 30.5 -81t84.5 -29q49 0 76 23.5t27 65.5q0 35 -28 58.5t-67.5 38t-79 31t-67.5 50t-28 83.5q0 64 43.5 102.5t114.5 38.5q74 0 118.5 -44t44.5 -117h-59q0 49 -27.5 76.5t-76.5 27.5q-46 0 -72 -22.5t-26 -63.5q0 -34 28 -56
t67.5 -36.5t79 -31.5t67.5 -51.5t28 -85.5q0 -65 -45 -105t-118 -40z" />
    <glyph glyph-name="uni0456" unicode="&#x456;" horiz-adv-x="191" 
d="M95 622q-22 0 -35 13t-13 35t13 35t35 13t35 -13t13 -35t-13 -35t-35 -13zM66 0v525h59v-525h-59z" />
    <glyph glyph-name="uni0457" unicode="&#x457;" horiz-adv-x="200" 
d="M44 632q-18 0 -28.5 10t-10.5 28t10.5 28t28.5 10q17 0 27.5 -10t10.5 -28t-10.5 -28t-27.5 -10zM156 632q-18 0 -29 10t-11 28t11 28t29 10t28.5 -10t10.5 -28t-10.5 -28t-28.5 -10zM70 0v525h59v-525h-59z" />
    <glyph glyph-name="uni0458" unicode="&#x458;" horiz-adv-x="233" 
d="M119 621q-22 0 -35 13t-13 35t13 35t35 13t35 -13t13 -35t-13 -35t-35 -13zM-20 -192v57q60 1 84.5 32t24.5 93v535h59v-535q0 -86 -41.5 -133.5t-126.5 -48.5z" />
    <glyph glyph-name="uni0459" unicode="&#x459;" horiz-adv-x="647" 
d="M5 -4v57q22 0 37.5 14t24 42.5t12 58.5t6.5 75q6 102 10 282h270v-193h96q72 0 122 -46.5t50 -118.5q0 -73 -50 -120t-122 -47h-155v469h-153q-2 -88 -10 -235q-6 -122 -37.5 -180t-100.5 -58zM365 57h96q48 0 80 30.5t32 79.5t-32 78.5t-80 29.5h-96v-218z" />
    <glyph glyph-name="uni045A" unicode="&#x45a;" horiz-adv-x="663" 
d="M66 0v525h59v-212h198v212h59v-212h96q72 0 121.5 -42.5t49.5 -108.5q0 -70 -49.5 -116t-121.5 -46h-155v256h-198v-256h-59zM382 57h96q48 0 79.5 29t31.5 76q0 42 -32 68t-79 26h-96v-199z" />
    <glyph glyph-name="uni045B" unicode="&#x45b;" horiz-adv-x="460" 
d="M259 537q141 0 141 -220v-317h-59v312q0 90 -23.5 129.5t-73.5 39.5q-55 0 -88 -43.5t-33 -120.5v-317h-59v610h-64v46h64v67h59v-67h97v-46h-97v-151q45 78 136 78z" />
    <glyph glyph-name="uni045C" unicode="&#x45c;" horiz-adv-x="422" 
d="M297 723l-87 -113h-58l75 113h70zM349 0l-183 251l-41 -50v-201h-59v525h59v-238l78 95l117 143h76l-191 -228l217 -297h-73z" />
    <glyph glyph-name="uni045D" unicode="&#x45d;" horiz-adv-x="455" 
d="M276 610h-58l-87 113h70zM66 0v525h59v-300q0 -92 -2 -118l2 -2q19 45 35 78l168 342h61v-525h-59v283q0 56 4 140l-2 1q-7 -23 -42 -95l-163 -329h-61z" />
    <glyph glyph-name="uni045E" unicode="&#x45e;" horiz-adv-x="387" 
d="M199 607q-52 0 -81.5 30.5t-31.5 85.5h52q4 -66 61 -66t61 66h52q-2 -55 -31.5 -85.5t-81.5 -30.5zM317 525h62l-178 -589q-20 -65 -47.5 -96t-78.5 -31h-34v58h26q32 0 47.5 19.5t27.5 58.5l32 107l-166 473h65l85 -244l44 -135z" />
    <glyph glyph-name="uni045F" unicode="&#x45f;" horiz-adv-x="450" 
d="M325 525h59v-525h-128v-115h-57v115h-133v525h59v-469h200v469z" />
    <glyph glyph-name="uni0490" unicode="&#x490;" horiz-adv-x="414" 
d="M339 800h57v-158h-257v-642h-62v700h262v100z" />
    <glyph glyph-name="uni0491" unicode="&#x491;" horiz-adv-x="342" 
d="M270 625h57v-157h-202v-468h-59v525h204v100z" />
    <glyph glyph-name="Wgrave" unicode="&#x1e80;" horiz-adv-x="712" 
d="M397 769h-59l-105 113h72zM166 0l-155 700h65l88 -432q32 -164 34 -178h4l36 188l84 411h68l84 -411l36 -188h4q2 14 34 178l88 432h65l-155 -700h-69l-85 381q-23 100 -34 220h-4q-11 -119 -34 -220l-85 -381h-69z" />
    <glyph glyph-name="wgrave" unicode="&#x1e81;" horiz-adv-x="608" 
d="M349 605h-58l-87 113h70zM538 525h62l-130 -525h-65l-64 261q-28 114 -36 178h-2q-8 -64 -36 -178l-64 -261h-65l-130 525h62l65 -286q6 -24 13 -57.5l13.5 -67t7.5 -40.5h2q20 107 38 185l63 256h64l63 -256q18 -78 38 -185h2q1 7 7.5 40.5l13.5 67t13 57.5z" />
    <glyph glyph-name="Wacute" unicode="&#x1e82;" horiz-adv-x="712" 
d="M308 769l92 113h72l-105 -113h-59zM166 0l-155 700h65l88 -432q32 -164 34 -178h4l36 188l84 411h68l84 -411l36 -188h4q2 14 34 178l88 432h65l-155 -700h-69l-85 381q-23 100 -34 220h-4q-11 -119 -34 -220l-85 -381h-69z" />
    <glyph glyph-name="wacute" unicode="&#x1e83;" horiz-adv-x="608" 
d="M393 718l-87 -113h-58l75 113h70zM538 525h62l-130 -525h-65l-64 261q-28 114 -36 178h-2q-8 -64 -36 -178l-64 -261h-65l-130 525h62l65 -286q6 -24 13 -57.5l13.5 -67t7.5 -40.5h2q20 107 38 185l63 256h64l63 -256q18 -78 38 -185h2q1 7 7.5 40.5l13.5 67t13 57.5z
" />
    <glyph glyph-name="Wdieresis" unicode="&#x1e84;" horiz-adv-x="712" 
d="M291 788q-18 0 -29 10.5t-11 28.5t11 28.5t29 10.5q17 0 28 -10.5t11 -28.5t-11 -28.5t-28 -10.5zM421 788q-18 0 -29.5 10.5t-11.5 28.5t11.5 28.5t29.5 10.5t29 -10.5t11 -28.5t-11 -28.5t-29 -10.5zM166 0l-155 700h65l88 -432q32 -164 34 -178h4l36 188l84 411h68
l84 -411l36 -188h4q2 14 34 178l88 432h65l-155 -700h-69l-85 381q-23 100 -34 220h-4q-11 -119 -34 -220l-85 -381h-69z" />
    <glyph glyph-name="wdieresis" unicode="&#x1e85;" horiz-adv-x="608" 
d="M242 626q-18 0 -29 10.5t-11 28.5t11 28.5t29 10.5q17 0 28 -10.5t11 -28.5t-11 -28.5t-28 -10.5zM360 626q-18 0 -29.5 10.5t-11.5 28.5t11.5 28.5t29.5 10.5t29 -10.5t11 -28.5t-11 -28.5t-29 -10.5zM538 525h62l-130 -525h-65l-64 261q-28 114 -36 178h-2
q-8 -64 -36 -178l-64 -261h-65l-130 525h62l65 -286q6 -24 13 -57.5l13.5 -67t7.5 -40.5h2q20 107 38 185l63 256h64l63 -256q18 -78 38 -185h2q1 7 7.5 40.5l13.5 67t13 57.5z" />
    <glyph glyph-name="Ygrave" unicode="&#x1ef2;" horiz-adv-x="422" 
d="M252 769h-59l-105 113h72zM180 0v251l-175 449h66l100 -270l40 -108l40 109l100 269h66l-175 -449v-251h-62z" />
    <glyph glyph-name="ygrave" unicode="&#x1ef3;" horiz-adv-x="387" 
d="M247 610h-58l-87 113h70zM317 525h62l-178 -589q-20 -65 -47.5 -96t-78.5 -31h-34v58h26q32 0 47.5 19.5t27.5 58.5l32 107l-166 473h65l85 -244l44 -135z" />
    <glyph glyph-name="endash" unicode="&#x2013;" horiz-adv-x="432" 
d="M46 229v56h340v-56h-340z" />
    <glyph glyph-name="emdash" unicode="&#x2014;" horiz-adv-x="552" 
d="M46 229v56h460v-56h-460z" />
    <glyph glyph-name="quoteleft" unicode="&#x2018;" horiz-adv-x="125" 
d="M21 492l46 208h42l-21 -208h-67z" />
    <glyph glyph-name="quoteright" unicode="&#x2019;" horiz-adv-x="125" 
d="M16 499l21 208h67l-46 -208h-42z" />
    <glyph glyph-name="quotesinglbase" unicode="&#x201a;" horiz-adv-x="148" 
d="M30 -130l21 208h67l-46 -208h-42z" />
    <glyph glyph-name="quotedblleft" unicode="&#x201c;" horiz-adv-x="225" 
d="M21 492l46 208h42l-21 -208h-67zM121 492l46 208h42l-21 -208h-67z" />
    <glyph glyph-name="quotedblright" unicode="&#x201d;" horiz-adv-x="225" 
d="M16 492l21 208h67l-46 -208h-42zM116 492l21 208h67l-46 -208h-42z" />
    <glyph glyph-name="quotedblbase" unicode="&#x201e;" horiz-adv-x="248" 
d="M30 -130l21 208h67l-46 -208h-42zM130 -130l21 208h67l-46 -208h-42z" />
    <glyph glyph-name="dagger" unicode="&#x2020;" horiz-adv-x="370" 
d="M340 520v-56h-125v-554h-60v554h-125v56h125v200h60v-200h125z" />
    <glyph glyph-name="daggerdbl" unicode="&#x2021;" horiz-adv-x="370" 
d="M340 464h-125v-298h125v-56h-125v-200h-60v200h-125v56h125v298h-125v56h125v200h60v-200h125v-56z" />
    <glyph glyph-name="bullet" unicode="&#x2022;" horiz-adv-x="176" 
d="M88 186q-29 0 -47 18t-18 47t18 46.5t47 17.5q28 0 46 -17.5t18 -46.5t-17.5 -47t-46.5 -18z" />
    <glyph glyph-name="ellipsis" unicode="&#x2026;" horiz-adv-x="502" 
d="M91 -10q-21 0 -34 13t-13 34t13 34t34 13t34 -13t13 -34t-13 -34t-34 -13zM251 -10q-21 0 -34 13t-13 34t13 34t34 13t34 -13t13 -34t-13 -34t-34 -13zM411 -10q-21 0 -34 13t-13 34t13 34t34 13t34 -13t13 -34t-13 -34t-34 -13z" />
    <glyph glyph-name="perthousand" unicode="&#x2030;" horiz-adv-x="850" 
d="M112 393q-43 0 -70 28.5t-27 79.5v99q0 51 27 80t70 29q42 0 69 -29t27 -80v-99q0 -51 -27 -79.5t-69 -28.5zM10 0l486 700h58l-486 -700h-58zM112 440q47 0 47 61v99q0 62 -47 62q-48 0 -48 -62v-99q0 -61 48 -61zM456 -9q-43 0 -70 28.5t-27 79.5v99q0 51 27 80t70 29
q42 0 69 -29t27 -80v-99q0 -51 -27 -79.5t-69 -28.5zM706 -9q-43 0 -70 28.5t-27 79.5v99q0 51 27 80t70 29q42 0 69 -29t27 -80v-99q0 -51 -27 -79.5t-69 -28.5zM456 38q47 0 47 61v99q0 62 -47 62q-48 0 -48 -62v-99q0 -61 48 -61zM706 38q47 0 47 61v99q0 62 -47 62
q-48 0 -48 -62v-99q0 -61 48 -61z" />
    <glyph glyph-name="guilsinglleft" unicode="&#x2039;" horiz-adv-x="274" 
d="M168 89l-122 153v30l122 153h60l-133 -168l133 -168h-60z" />
    <glyph glyph-name="guilsinglright" unicode="&#x203a;" horiz-adv-x="274" 
d="M106 89h-60l133 168l-133 168h60l122 -153v-30z" />
    <glyph glyph-name="fraction" unicode="&#x2044;" horiz-adv-x="546" 
d="M14 0l452 700h66l-452 -700h-66z" />
    <glyph glyph-name="Euro" unicode="&#x20ac;" horiz-adv-x="543" 
d="M448 190h60q-8 -96 -59 -149t-137 -53t-138.5 55.5t-52.5 154.5v72h-83v47h83v65h-83v47h83v73q0 99 51.5 154.5t135.5 55.5q86 0 137.5 -52.5t56.5 -149.5h-60q-10 146 -134 146q-58 0 -92.5 -39t-34.5 -115v-73h172v-47h-172v-65h172v-47h-172v-72q0 -76 35.5 -115
t95.5 -39q121 0 136 146z" />
    <glyph glyph-name="trademark" unicode="&#x2122;" horiz-adv-x="469" 
d="M32 664v36h152v-36h-57v-233h-38v233h-57zM390 700h41v-269h-37v76q0 43 3 127l-2 1l-25 -60l-29 -73h-36l-29 73l-25 60l-2 -1q3 -84 3 -127v-76h-37v269h41l38 -89q13 -30 29 -72q16 42 29 72z" />
    <glyph glyph-name="partialdiff" unicode="&#x2202;" horiz-adv-x="446" 
d="M160 732q101 -26 167 -103t66 -184v-266q0 -90 -46 -139.5t-125 -49.5q-78 0 -123.5 49.5t-45.5 139.5v146q0 89 43.5 139t113.5 50q81 0 124 -54q-4 84 -56.5 138.5t-136.5 79.5zM333 179v146q0 65 -29.5 98t-80.5 33q-110 0 -110 -131v-146q0 -131 109 -131
q111 0 111 131z" />
    <glyph glyph-name="emptyset" unicode="&#x2205;" horiz-adv-x="819" 
d="M766 730l-103 -120q96 -99 96 -260q0 -162 -97 -260.5t-256 -98.5q-129 0 -218 66l-74 -87h-59l99 115q-101 99 -101 265q0 162 97 260.5t256 98.5q133 0 223 -70l78 91h59zM100 350q0 -141 85 -228l414 482q-81 60 -193 60q-138 0 -222 -86.5t-84 -227.5zM712 350
q0 138 -80 224l-413 -482q78 -56 187 -56q138 0 222 86.5t84 227.5z" />
    <glyph glyph-name="product" unicode="&#x220f;" horiz-adv-x="502" 
d="M77 -100v800h348v-800h-60v742h-228v-742h-60z" />
    <glyph glyph-name="summation" unicode="&#x2211;" horiz-adv-x="363" 
d="M40 0v55l158 295l-158 295v55h283v-56h-221l152 -277v-34l-152 -277h221v-56h-283z" />
    <glyph glyph-name="minus" unicode="&#x2212;" horiz-adv-x="442" 
d="M46 281v56h350v-56h-350z" />
    <glyph glyph-name="radical" unicode="&#x221a;" horiz-adv-x="455" 
d="M188 0l-84 445h-86v55h135l86 -435l141 730h60l-151 -795h-101z" />
    <glyph glyph-name="infinity" unicode="&#x221e;" horiz-adv-x="632" 
d="M441 400q58 0 98 -41t40 -108q0 -66 -40 -106.5t-98 -40.5q-81 0 -125 85q-44 -85 -125 -85q-58 0 -98 40.5t-40 106.5q0 67 40 108t98 41q80 0 125 -78q45 78 125 78zM191 158q34 0 53.5 24.5t40.5 73.5q-19 44 -39.5 67t-54.5 23q-37 0 -58.5 -24t-21.5 -71
q0 -42 22 -67.5t58 -25.5zM441 158q36 0 58 25.5t22 67.5q0 47 -21.5 71t-58.5 24q-34 0 -54.5 -23t-39.5 -67q10 -24 17 -38t18.5 -30t26 -23t32.5 -7z" />
    <glyph glyph-name="integral" unicode="&#x222b;" horiz-adv-x="297" 
d="M16 -189v57q103 3 103 103v579q0 74 41.5 116.5t121.5 43.5v-57q-104 -3 -104 -103v-579q0 -73 -41 -116t-121 -44z" />
    <glyph glyph-name="approxequal" unicode="&#x2248;" horiz-adv-x="460" 
d="M318 318q-32 0 -91 24t-81 24q-39 0 -64 -37l-31 45q40 51 91 51q32 0 91 -24t81 -24q39 0 64 37l32 -42q-38 -54 -92 -54zM318 166q-32 0 -91 24t-81 24q-39 0 -64 -37l-31 45q40 51 91 51q32 0 91 -24t81 -24q39 0 64 37l32 -42q-38 -54 -92 -54z" />
    <glyph glyph-name="notequal" unicode="&#x2260;" horiz-adv-x="460" 
d="M405 397h-122l-50 -93h172v-56h-201l-41 -77h-56l41 77h-93v56h122l50 93h-172v56h201l41 77h56l-41 -77h93v-56z" />
    <glyph glyph-name="lessequal" unicode="&#x2264;" horiz-adv-x="412" 
d="M366 511v-59l-257 -113l257 -113v-59l-320 139v66zM46 72v55h320v-55h-320z" />
    <glyph glyph-name="greaterequal" unicode="&#x2265;" horiz-adv-x="412" 
d="M46 511l320 -139v-66l-320 -139v59l257 113l-257 113v59zM46 72v55h320v-55h-320z" />
    <glyph glyph-name="lozenge" unicode="&#x25ca;" horiz-adv-x="454" 
d="M195 -1l-142 331v40l142 330h64l142 -330v-40l-142 -331h-64zM227 52l124 298l-124 298l-124 -298z" />
    <glyph glyph-name="i.loclTRK" horiz-adv-x="191" 
d="M95 622q-22 0 -35 13t-13 35t13 35t35 13t35 -13t13 -35t-13 -35t-35 -13zM66 0v525h59v-525h-59z" />
    <glyph glyph-name="uni0414.loclBGR" horiz-adv-x="474" 
d="M3 -115v173h44l157 642h67l156 -642h44v-173h-60v115h-348v-115h-60zM110 58h255l-82 357l-45 207h-2q-27 -136 -43 -206z" />
    <glyph glyph-name="uni041B.loclBGR" horiz-adv-x="450" 
d="M189 700h72l178 -700h-66l-105 438l-20.5 90l-20.5 87h-4l-20.5 -87l-20.5 -90l-105 -438h-66z" />
    <glyph glyph-name="uni0432.loclBGR" horiz-adv-x="456" 
d="M294 388q119 -28 119 -184q0 -105 -51 -159.5t-134 -54.5q-163 0 -163 215v333q0 91 43 142.5t120 51.5q73 0 116 -48.5t43 -129.5q0 -60 -24.5 -103t-68.5 -63zM221 675q-45 0 -71 -35.5t-26 -101.5v-138l67 5q64 4 100 44t36 103q0 123 -106 123zM227 48q126 0 126 151
q0 85 -37 119.5t-111 29.5l-81 -5v-147q0 -78 25.5 -113t77.5 -35z" />
    <glyph glyph-name="uni0433.loclBGR" horiz-adv-x="398" 
d="M200 -10q-76 0 -121 38t-45 105q0 47 27 81t65 53t76 35.5t65 39.5t27 54q0 40 -24 62t-67 22q-100 0 -100 -103h-59q0 72 44 116t115 44q70 0 111 -37.5t41 -101.5q0 -46 -27 -79t-65 -51.5t-76 -35t-65 -40.5t-27 -57q0 -40 29.5 -63.5t75.5 -23.5q103 0 108 108h59
q-2 -75 -48 -120.5t-119 -45.5z" />
    <glyph glyph-name="uni0434.loclBGR" horiz-adv-x="463" 
d="M348 525h49v-561q0 -71 -45.5 -114t-121.5 -43q-73 0 -118 41t-49 111h57q4 -47 32.5 -72t77.5 -25q50 0 79 27t29 75v102q-41 -50 -116 -50q-77 0 -123 49t-46 138v135q0 96 45.5 147.5t121.5 51.5q77 0 120 -65zM232 72q106 0 106 131v145q0 65 -30 99t-76 34
q-119 0 -119 -143v-135q0 -65 31 -98t88 -33z" />
    <glyph glyph-name="uni0436.loclBGR" horiz-adv-x="593" 
d="M522 0l-161 253l-36 -45v-208h-57v208l-36 46l-161 -254h-71l195 300l-180 225h74l179 -232v429h57v-429l179 232h74l-180 -225l195 -300h-71z" />
    <glyph glyph-name="uni0437.loclBGR" horiz-adv-x="422" 
d="M273 190q107 -36 107 -184q0 -92 -47 -144.5t-132 -52.5q-162 0 -171 186h59q9 -128 111 -128q58 0 89 37.5t31 104.5q0 71 -35.5 110.5t-99.5 39.5h-56v56h52q59 0 92 35.5t33 101.5q0 59 -28 93t-77 34q-96 0 -105 -128h-59q4 92 46.5 139t118.5 47q77 0 119.5 -48
t42.5 -134q0 -65 -20.5 -104.5t-70.5 -60.5z" />
    <glyph glyph-name="uni0438.loclBGR" horiz-adv-x="462" 
d="M337 525h59v-525h-49l-10 65q-44 -77 -136 -77q-141 0 -141 201v336h59v-327q0 -80 23 -117t74 -37q55 0 88 43.5t33 119.5v318z" />
    <glyph glyph-name="uni0439.loclBGR" horiz-adv-x="462" 
d="M228 607q-52 0 -81.5 30.5t-31.5 85.5h52q5 -66 61 -66q57 0 61 66h52q-2 -55 -31.5 -85.5t-81.5 -30.5zM337 525h59v-525h-49l-10 65q-44 -77 -136 -77q-141 0 -141 201v336h59v-327q0 -80 23 -117t74 -37q55 0 88 43.5t33 119.5v318z" />
    <glyph glyph-name="uni045D.loclBGR" horiz-adv-x="468" 
d="M285 610h-58l-87 113h70zM343 525h59v-525h-49l-10 65q-44 -77 -136 -77q-141 0 -141 201v336h59v-327q0 -80 23 -117t74 -37q55 0 88 43.5t33 119.5v318z" />
    <glyph glyph-name="uni043A.loclBGR" horiz-adv-x="425" 
d="M354 0l-177 267l-52 -57v-210h-59v724h59v-433l199 234h75l-182 -212l208 -313h-71z" />
    <glyph glyph-name="uni043B.loclBGR" horiz-adv-x="378" 
d="M157 525h64l149 -525h-62l-83 307q-5 19 -11.5 46.5l-13.5 57l-9 37.5h-4l-9 -37.5l-13.5 -57t-11.5 -46.5l-83 -307h-62z" />
    <glyph glyph-name="uni043F.loclBGR" horiz-adv-x="462" 
d="M261 537q141 0 141 -201v-336h-59v327q0 80 -23 117t-74 37q-55 0 -88 -43.5t-33 -119.5v-318h-59v525h49l10 -65q44 77 136 77z" />
    <glyph glyph-name="uni0442.loclBGR" horiz-adv-x="723" 
d="M527 537q63 0 99.5 -51t36.5 -152v-334h-59v329q0 152 -90 152q-54 0 -87 -43.5t-33 -119.5v-318h-59v329q0 152 -93 152q-53 0 -85 -43.5t-32 -119.5v-318h-59v525h49l9 -68q42 80 131 80q94 0 126 -101q40 101 146 101z" />
    <glyph glyph-name="uni0446.loclBGR" horiz-adv-x="475" 
d="M395 -115v115q-44 17 -55 72q-44 -84 -141 -84q-69 0 -104 48t-35 153v336h59v-327q0 -80 22 -117t73 -37q55 0 88 43.5t33 119.5v318h59v-390q0 -53 12.5 -68.5t45.5 -15.5v-166h-57z" />
    <glyph glyph-name="uni0448.loclBGR" horiz-adv-x="723" 
d="M598 525h59v-525h-49l-9 68q-42 -80 -131 -80q-94 0 -126 101q-40 -101 -146 -101q-63 0 -99.5 51t-36.5 152v334h59v-329q0 -152 90 -152q54 0 87 43.5t33 119.5v318h59v-329q0 -152 93 -152q53 0 85 43.5t32 119.5v318z" />
    <glyph glyph-name="uni0449.loclBGR" horiz-adv-x="734" 
d="M654 -115v115q-44 17 -56 74q-40 -86 -133 -86q-91 0 -123 97q-39 -97 -145 -97q-64 0 -100.5 51t-36.5 152v334h59v-329q0 -152 91 -152q54 0 85.5 43.5t31.5 119.5v318h59v-329q0 -152 92 -152q53 0 84.5 43.5t31.5 119.5v318h59v-390q0 -53 12.5 -68.5t45.5 -15.5
v-166h-57z" />
    <glyph glyph-name="uni044C.loclBGR" horiz-adv-x="409" 
d="M234 361q72 2 116.5 -48.5t44.5 -135.5q0 -88 -46 -138.5t-123 -50.5q-76 0 -121 47t-45 125v365h59v-216q42 50 115 52zM226 46q52 0 80.5 33t28.5 98q0 127 -109 127q-50 0 -78.5 -33.5t-28.5 -96.5t28 -95.5t79 -32.5z" />
    <glyph glyph-name="uni044A.loclBGR" horiz-adv-x="462" 
d="M287 361q72 2 116.5 -48.5t44.5 -135.5q0 -88 -46 -138.5t-123 -50.5q-76 0 -121 47t-45 125v310h-106v55h165v-216q42 50 115 52zM279 46q52 0 80.5 33t28.5 98q0 127 -109 127q-50 0 -78.5 -33.5t-28.5 -96.5t28 -95.5t79 -32.5z" />
    <glyph glyph-name="uni044E.loclBGR" horiz-adv-x="614" 
d="M392 532q78 0 123.5 -49.5t45.5 -139.5v-164q0 -90 -45.5 -139.5t-123.5 -49.5t-123.5 49.5t-45.5 139.5v62h-95v-241h-59v720h59v-422h95v45q0 90 45.5 139.5t123.5 49.5zM501 179v164q0 131 -109 131t-109 -131v-164q0 -131 109 -131t109 131z" />
    <glyph glyph-name="uni0432.ss01" horiz-adv-x="456" 
d="M294 388q119 -28 119 -184q0 -105 -51 -159.5t-134 -54.5q-163 0 -163 215v333q0 91 43 142.5t120 51.5q73 0 116 -48.5t43 -129.5q0 -60 -24.5 -103t-68.5 -63zM221 675q-45 0 -71 -35.5t-26 -101.5v-138l67 5q64 4 100 44t36 103q0 123 -106 123zM227 48q126 0 126 151
q0 85 -37 119.5t-111 29.5l-81 -5v-147q0 -78 25.5 -113t77.5 -35z" />
    <glyph glyph-name="uni0433.ss01" horiz-adv-x="398" 
d="M200 -10q-76 0 -121 38t-45 105q0 47 27 81t65 53t76 35.5t65 39.5t27 54q0 40 -24 62t-67 22q-100 0 -100 -103h-59q0 72 44 116t115 44q70 0 111 -37.5t41 -101.5q0 -46 -27 -79t-65 -51.5t-76 -35t-65 -40.5t-27 -57q0 -40 29.5 -63.5t75.5 -23.5q103 0 108 108h59
q-2 -75 -48 -120.5t-119 -45.5z" />
    <glyph glyph-name="uni0434.ss01" horiz-adv-x="463" 
d="M348 525h49v-561q0 -71 -45.5 -114t-121.5 -43q-73 0 -118 41t-49 111h57q4 -47 32.5 -72t77.5 -25q50 0 79 27t29 75v102q-41 -50 -116 -50q-77 0 -123 49t-46 138v135q0 96 45.5 147.5t121.5 51.5q77 0 120 -65zM232 72q106 0 106 131v145q0 65 -30 99t-76 34
q-119 0 -119 -143v-135q0 -65 31 -98t88 -33z" />
    <glyph glyph-name="uni0436.ss01" horiz-adv-x="593" 
d="M522 0l-161 253l-36 -45v-208h-57v208l-36 46l-161 -254h-71l195 300l-180 225h74l179 -232v429h57v-429l179 232h74l-180 -225l195 -300h-71z" />
    <glyph glyph-name="uni0437.ss01" horiz-adv-x="422" 
d="M273 190q107 -36 107 -184q0 -92 -47 -144.5t-132 -52.5q-162 0 -171 186h59q9 -128 111 -128q58 0 89 37.5t31 104.5q0 71 -35.5 110.5t-99.5 39.5h-56v56h52q59 0 92 35.5t33 101.5q0 59 -28 93t-77 34q-96 0 -105 -128h-59q4 92 46.5 139t118.5 47q77 0 119.5 -48
t42.5 -134q0 -65 -20.5 -104.5t-70.5 -60.5z" />
    <glyph glyph-name="uni0438.ss01" horiz-adv-x="462" 
d="M337 525h59v-525h-49l-10 65q-44 -77 -136 -77q-141 0 -141 201v336h59v-327q0 -80 23 -117t74 -37q55 0 88 43.5t33 119.5v318z" />
    <glyph glyph-name="uni0439.ss01" horiz-adv-x="462" 
d="M228 607q-52 0 -81.5 30.5t-31.5 85.5h52q5 -66 61 -66q57 0 61 66h52q-2 -55 -31.5 -85.5t-81.5 -30.5zM337 525h59v-525h-49l-10 65q-44 -77 -136 -77q-141 0 -141 201v336h59v-327q0 -80 23 -117t74 -37q55 0 88 43.5t33 119.5v318z" />
    <glyph glyph-name="uni045D.ss01" horiz-adv-x="468" 
d="M285 610h-58l-87 113h70zM343 525h59v-525h-49l-10 65q-44 -77 -136 -77q-141 0 -141 201v336h59v-327q0 -80 23 -117t74 -37q55 0 88 43.5t33 119.5v318z" />
    <glyph glyph-name="uni043A.ss01" horiz-adv-x="425" 
d="M354 0l-177 267l-52 -57v-210h-59v724h59v-433l199 234h75l-182 -212l208 -313h-71z" />
    <glyph glyph-name="uni043B.ss01" horiz-adv-x="378" 
d="M157 525h64l149 -525h-62l-83 307q-5 19 -11.5 46.5l-13.5 57l-9 37.5h-4l-9 -37.5l-13.5 -57t-11.5 -46.5l-83 -307h-62z" />
    <glyph glyph-name="uni043F.ss01" horiz-adv-x="462" 
d="M261 537q141 0 141 -201v-336h-59v327q0 80 -23 117t-74 37q-55 0 -88 -43.5t-33 -119.5v-318h-59v525h49l10 -65q44 77 136 77z" />
    <glyph glyph-name="uni0442.ss01" horiz-adv-x="723" 
d="M527 537q63 0 99.5 -51t36.5 -152v-334h-59v329q0 152 -90 152q-54 0 -87 -43.5t-33 -119.5v-318h-59v329q0 152 -93 152q-53 0 -85 -43.5t-32 -119.5v-318h-59v525h49l9 -68q42 80 131 80q94 0 126 -101q40 101 146 101z" />
    <glyph glyph-name="uni0446.ss01" horiz-adv-x="475" 
d="M395 -115v115q-44 17 -55 72q-44 -84 -141 -84q-69 0 -104 48t-35 153v336h59v-327q0 -80 22 -117t73 -37q55 0 88 43.5t33 119.5v318h59v-390q0 -53 12.5 -68.5t45.5 -15.5v-166h-57z" />
    <glyph glyph-name="uni0448.ss01" horiz-adv-x="723" 
d="M598 525h59v-525h-49l-9 68q-42 -80 -131 -80q-94 0 -126 101q-40 -101 -146 -101q-63 0 -99.5 51t-36.5 152v334h59v-329q0 -152 90 -152q54 0 87 43.5t33 119.5v318h59v-329q0 -152 93 -152q53 0 85 43.5t32 119.5v318z" />
    <glyph glyph-name="uni0449.ss01" horiz-adv-x="734" 
d="M654 -115v115q-44 17 -56 74q-40 -86 -133 -86q-91 0 -123 97q-39 -97 -145 -97q-64 0 -100.5 51t-36.5 152v334h59v-329q0 -152 91 -152q54 0 85.5 43.5t31.5 119.5v318h59v-329q0 -152 92 -152q53 0 84.5 43.5t31.5 119.5v318h59v-390q0 -53 12.5 -68.5t45.5 -15.5
v-166h-57z" />
    <glyph glyph-name="uni044C.ss01" horiz-adv-x="409" 
d="M234 361q72 2 116.5 -48.5t44.5 -135.5q0 -88 -46 -138.5t-123 -50.5q-76 0 -121 47t-45 125v365h59v-216q42 50 115 52zM226 46q52 0 80.5 33t28.5 98q0 127 -109 127q-50 0 -78.5 -33.5t-28.5 -96.5t28 -95.5t79 -32.5z" />
    <glyph glyph-name="uni044A.ss01" horiz-adv-x="462" 
d="M287 361q72 2 116.5 -48.5t44.5 -135.5q0 -88 -46 -138.5t-123 -50.5q-76 0 -121 47t-45 125v310h-106v55h165v-216q42 50 115 52zM279 46q52 0 80.5 33t28.5 98q0 127 -109 127q-50 0 -78.5 -33.5t-28.5 -96.5t28 -95.5t79 -32.5z" />
    <glyph glyph-name="uni044E.ss01" horiz-adv-x="614" 
d="M392 532q78 0 123.5 -49.5t45.5 -139.5v-164q0 -90 -45.5 -139.5t-123.5 -49.5t-123.5 49.5t-45.5 139.5v62h-95v-241h-59v720h59v-422h95v45q0 90 45.5 139.5t123.5 49.5zM501 179v164q0 131 -109 131t-109 -131v-164q0 -131 109 -131t109 131z" />
    <glyph glyph-name="zero.lf" horiz-adv-x="456" 
d="M228 -10q-76 0 -123 50t-47 132v355q0 82 46.5 132.5t123.5 50.5t123.5 -50.5t46.5 -132.5v-355q0 -82 -47 -132t-123 -50zM228 48q52 0 81.5 32.5t29.5 91.5v355q0 59 -29 92t-82 33t-82 -33t-29 -92v-355q0 -59 29.5 -91.5t81.5 -32.5z" />
    <glyph glyph-name="one.lf" horiz-adv-x="278" 
d="M141 700h60v-700h-60v621l-115 -96v76z" />
    <glyph glyph-name="two.lf" horiz-adv-x="403" 
d="M32 0v50q0 66 28 126t67.5 105.5l79 87.5t67.5 89t28 94q0 45 -28 73.5t-76 28.5q-47 0 -74 -30.5t-28 -88.5h-60q5 79 48.5 127t113.5 48q74 0 119 -45t45 -113q0 -55 -28 -108t-67.5 -96l-79 -86t-67.5 -96.5t-28 -109.5h277v-56h-337z" />
    <glyph glyph-name="three.lf" horiz-adv-x="407" 
d="M185 409q88 0 131.5 -46t43.5 -130v-51q0 -92 -46 -142.5t-124 -50.5q-76 0 -124 50t-48 146h60q5 -138 111 -138q112 0 112 135v51q0 62 -32 93t-89 31h-63v50l149 237h-224v56h301v-43l-159 -248h1z" />
    <glyph glyph-name="four.lf" horiz-adv-x="407" 
d="M405 245v-58h-85v-187h-60v187h-249v33l162 480h63l-154 -455h178v245h60v-245h85z" />
    <glyph glyph-name="five.lf" horiz-adv-x="400" 
d="M214 467q70 0 110 -49.5t40 -139.5v-70q0 -218 -156 -218q-73 0 -115.5 46t-45.5 130h59q4 -118 102 -118q48 0 72 37t24 123v69q0 68 -23.5 100.5t-74.5 32.5q-73 0 -93 -76h-57v366h288v-56h-229v-216q37 39 99 39z" />
    <glyph glyph-name="six.lf" horiz-adv-x="432" 
d="M231 460q67 0 115.5 -48t48.5 -124v-122q0 -80 -48 -128t-120 -48t-120.5 48t-48.5 128v373q0 77 47 124t120 47q67 0 114 -46t52 -120h-60q-3 51 -33 79.5t-73 28.5q-48 0 -77.5 -30t-29.5 -82v-127q45 47 113 47zM335 166v122q0 53 -32.5 83.5t-81.5 30.5
q-45 0 -74 -30.5t-29 -85.5v-120q0 -56 30.5 -87t78.5 -31q47 0 77.5 31t30.5 87z" />
    <glyph glyph-name="seven.lf" horiz-adv-x="352" 
d="M66 0l186 642h-252v58h322v-33l-193 -667h-63z" />
    <glyph glyph-name="eight.lf" horiz-adv-x="456" 
d="M314 361q43 -20 67.5 -63.5t24.5 -100.5v-17q0 -89 -47 -139.5t-131 -50.5t-131 50.5t-47 139.5v17q0 57 24.5 100.5t67.5 63.5q-38 21 -59 62.5t-21 94.5v12q0 85 44 132.5t122 47.5t122 -47.5t44 -132.5v-12q0 -53 -21 -94.5t-59 -62.5zM122 530v-12q0 -61 28 -95
t78 -34t78 34t28 95v12q0 58 -28 90t-78 32t-78 -32t-28 -90zM346 180v17q0 63 -31.5 98.5t-86.5 35.5t-86.5 -35.5t-31.5 -98.5v-17q0 -62 31 -97t87 -35t87 35t31 97z" />
    <glyph glyph-name="nine.lf" horiz-adv-x="432" 
d="M205 710q72 0 120.5 -48t48.5 -128v-373q0 -77 -47 -124t-120 -47q-67 0 -114 46t-52 120h60q3 -51 33 -79.5t73 -28.5q48 0 77.5 30t29.5 82v127q-45 -47 -113 -47q-67 0 -115.5 48t-48.5 124v122q0 80 48 128t120 48zM211 298q45 0 74 30.5t29 85.5v120q0 56 -30.5 87
t-78.5 31q-47 0 -77.5 -31t-30.5 -87v-122q0 -53 32.5 -83.5t81.5 -30.5z" />
    <glyph glyph-name="zero.lf.zero" horiz-adv-x="456" 
d="M228 710q77 0 123.5 -50.5t46.5 -132.5v-355q0 -82 -47 -132t-123 -50t-123 50t-47 132v355q0 82 46.5 132.5t123.5 50.5zM228 652q-53 0 -82 -33t-29 -92v-275l222 275q0 59 -29 92t-82 33zM228 48q52 0 81.5 32.5t29.5 91.5v276l-222 -275v-1q0 -59 29.5 -91.5
t81.5 -32.5z" />
    <glyph glyph-name="zero.tf" horiz-adv-x="450" 
d="M230 -10q-76 0 -123 50t-47 132v355q0 82 46.5 132.5t123.5 50.5t123.5 -50.5t46.5 -132.5v-355q0 -82 -47 -132t-123 -50zM230 48q52 0 81.5 32.5t29.5 91.5v355q0 59 -29 92t-82 33t-82 -33t-29 -92v-355q0 -59 29.5 -91.5t81.5 -32.5z" />
    <glyph glyph-name="one.tf" horiz-adv-x="450" 
d="M271 56h114v-56h-292v56h118v565l-115 -96v76l115 99h60v-644z" />
    <glyph glyph-name="two.tf" horiz-adv-x="450" 
d="M69 0v50q0 66 28 126t67.5 105.5l79.5 87.5t68 89t28 94q0 45 -28 73.5t-76 28.5q-47 0 -74.5 -30.5t-28.5 -88.5h-60q5 79 48.5 127t114.5 48q74 0 119 -45t45 -113q0 -55 -28 -108t-68 -96l-79.5 -86t-67.5 -96.5t-28 -109.5h278v-56h-338z" />
    <glyph glyph-name="three.tf" horiz-adv-x="450" 
d="M217 409q88 0 131.5 -46t43.5 -130v-51q0 -92 -46 -142.5t-124 -50.5q-76 0 -124 50t-48 146h60q5 -138 111 -138q112 0 112 135v51q0 62 -32 93t-89 31h-63v50l149 237h-224v56h301v-43l-159 -248h1z" />
    <glyph glyph-name="four.tf" horiz-adv-x="450" 
d="M426 245v-58h-85v-187h-60v187h-249v33l162 480h63l-154 -455h178v245h60v-245h85z" />
    <glyph glyph-name="five.tf" horiz-adv-x="450" 
d="M242 467q70 0 110 -49.5t40 -139.5v-70q0 -218 -156 -218q-73 0 -115.5 46t-45.5 130h59q4 -118 102 -118q48 0 72 37t24 123v69q0 68 -23.5 100.5t-74.5 32.5q-73 0 -93 -76h-57v366h288v-56h-229v-216q37 39 99 39z" />
    <glyph glyph-name="six.tf" horiz-adv-x="450" 
d="M232 460q67 0 115.5 -48t48.5 -124v-122q0 -80 -48 -128t-120 -48t-120.5 48t-48.5 128v373q0 77 47 124t120 47q67 0 114 -46t52 -120h-60q-3 51 -33 79.5t-73 28.5q-48 0 -77.5 -30t-29.5 -82v-127q45 47 113 47zM336 166v122q0 53 -32.5 83.5t-81.5 30.5
q-45 0 -74 -30.5t-29 -85.5v-120q0 -56 30.5 -87t78.5 -31q47 0 77.5 31t30.5 87z" />
    <glyph glyph-name="seven.tf" horiz-adv-x="450" 
d="M117 0l204 642h-266v58h335v-33l-210 -667h-63z" />
    <glyph glyph-name="eight.tf" horiz-adv-x="450" 
d="M316 361q43 -20 67.5 -63.5t24.5 -100.5v-17q0 -89 -47 -139.5t-131 -50.5t-131 50.5t-47 139.5v17q0 57 24.5 100.5t67.5 63.5q-38 21 -59 62.5t-21 94.5v12q0 85 44 132.5t122 47.5t122 -47.5t44 -132.5v-12q0 -53 -21 -94.5t-59 -62.5zM124 530v-12q0 -61 28 -95
t78 -34t78 34t28 95v12q0 58 -28 90t-78 32t-78 -32t-28 -90zM348 180v17q0 63 -31.5 98.5t-86.5 35.5t-86.5 -35.5t-31.5 -98.5v-17q0 -62 31 -97t87 -35t87 35t31 97z" />
    <glyph glyph-name="nine.tf" horiz-adv-x="450" 
d="M222 715q72 0 120.5 -48t48.5 -128v-373q0 -77 -47 -124t-120 -47q-67 0 -114 46t-52 120h60q3 -51 33 -79.5t73 -28.5q48 0 77.5 30t29.5 82v127q-45 -47 -113 -47q-67 0 -115.5 48t-48.5 124v122q0 80 48 128t120 48zM228 303q45 0 74 30.5t29 85.5v120q0 56 -30.5 87
t-78.5 31q-47 0 -77.5 -31t-30.5 -87v-122q0 -53 32.5 -83.5t81.5 -30.5z" />
    <glyph glyph-name="zero.tf.zero" horiz-adv-x="450" 
d="M230 710q77 0 123.5 -50.5t46.5 -132.5v-355q0 -82 -47 -132t-123 -50t-123 50t-47 132v355q0 82 46.5 132.5t123.5 50.5zM230 652q-53 0 -82 -33t-29 -92v-275l222 275q0 59 -29 92t-82 33zM230 48q52 0 81.5 32.5t29.5 91.5v276l-222 -275v-1q0 -59 29.5 -91.5
t81.5 -32.5z" />
    <glyph glyph-name="zero.zero" horiz-adv-x="450" 
d="M228 710q77 0 123.5 -50.5t46.5 -132.5v-355q0 -82 -47 -132t-123 -50t-123 50t-47 132v355q0 82 46.5 132.5t123.5 50.5zM228 652q-53 0 -82 -33t-29 -92v-275l222 275q0 59 -29 92t-82 33zM228 48q52 0 81.5 32.5t29.5 91.5v276l-222 -275v-1q0 -59 29.5 -91.5
t81.5 -32.5z" />
    <glyph glyph-name="hyphen.case" horiz-adv-x="332" 
d="M46 329v56h240v-56h-240z" />
    <glyph glyph-name="endash.case" horiz-adv-x="432" 
d="M46 329v56h340v-56h-340z" />
    <glyph glyph-name="emdash.case" horiz-adv-x="552" 
d="M46 329v56h460v-56h-460z" />
    <glyph glyph-name="guillemotleft.case" horiz-adv-x="434" 
d="M168 149l-122 153v30l122 153h60l-133 -168l133 -168h-60zM328 149l-122 153v30l122 153h60l-133 -168l133 -168h-60z" />
    <glyph glyph-name="guillemotright.case" horiz-adv-x="434" 
d="M106 149h-60l133 168l-133 168h60l122 -153v-30zM266 149h-60l133 168l-133 168h60l122 -153v-30z" />
    <glyph glyph-name="guilsinglleft.case" horiz-adv-x="274" 
d="M168 149l-122 153v30l122 153h60l-133 -168l133 -168h-60z" />
    <glyph glyph-name="guilsinglright.case" horiz-adv-x="274" 
d="M106 149h-60l133 168l-133 168h60l122 -153v-30z" />
    <glyph glyph-name="uni0308.case" 
d="M-164 788q-18 0 -29 10.5t-11 28.5t11 28.5t29 10.5q17 0 28 -10.5t11 -28.5t-11 -28.5t-28 -10.5zM-34 788q-18 0 -29.5 10.5t-11.5 28.5t11.5 28.5t29.5 10.5t29 -10.5t11 -28.5t-11 -28.5t-29 -10.5z" />
    <glyph glyph-name="uni0307.case" 
d="M-43 794q-22 0 -35 13t-13 35t13 35t35 13t35 -13t13 -35t-13 -35t-35 -13z" />
    <glyph glyph-name="gravecomb.case" 
d="M-10 769h-59l-105 113h72z" />
    <glyph glyph-name="acutecomb.case" 
d="M-164 769l92 113h72l-105 -113h-59z" />
    <glyph glyph-name="uni030B.case" 
d="M-218 769l68 113h67l-82 -113h-53zM-120 769l72 113h67l-86 -113h-53z" />
    <glyph glyph-name="uni0302.case" 
d="M-11 769h-56l-57 70l-57 -70h-56l81 113h64z" />
    <glyph glyph-name="uni030C.case" 
d="M-71 882h56l-81 -113h-64l-81 113h56l57 -70z" />
    <glyph glyph-name="uni0306.case" 
d="M-115 766q-52 0 -81.5 30.5t-31.5 85.5h52q4 -66 61 -66t61 66h52q-2 -55 -31.5 -85.5t-81.5 -30.5z" />
    <glyph glyph-name="uni030A.case" 
d="M-68 764q-31 0 -50.5 19t-19.5 50q0 30 19.5 48.5t50.5 18.5t50.5 -18.5t19.5 -48.5q0 -31 -19.5 -50t-50.5 -19zM-68 801q14 0 22.5 8.5t8.5 22.5t-8.5 22.5t-22.5 8.5t-22.5 -8.5t-8.5 -22.5q0 -31 31 -31z" />
    <glyph glyph-name="tildecomb.case" 
d="M-64 795q-22 0 -45.5 16t-32.5 16q-16 0 -19 -29h-54q2 36 20 57t48 21q23 0 46.5 -16t31.5 -16q20 0 23 29h50q-4 -37 -21.5 -57.5t-46.5 -20.5z" />
    <glyph glyph-name="uni0304.case" 
d="M-184 797v52h184v-52h-184z" />
    <glyph glyph-name="uni0312.case" 
d="M-100 769l-18 177h43l42 -177h-67z" />
    <glyph glyph-name="uni0326.case" 
d="M-96 -249l18 180h65l-37 -180h-46z" />
    <glyph glyph-name="uni0327.case" 
d="M-108 -191q-36 0 -60.5 19.5t-27.5 53.5h49q6 -28 41 -28q42 0 42 33q0 32 -39 32q-19 0 -31 -7l-17 16l22 72h43l-15 -50q4 1 14 1q29 0 50 -18.5t21 -46.5q0 -36 -25.5 -56.5t-66.5 -20.5z" />
    <glyph glyph-name="uni0328.case" 
d="M-36 -192q-43 0 -64.5 23.5t-21.5 57.5q0 59 60 111h55q-25 -22 -41.5 -50t-16.5 -51q0 -36 38 -36q23 0 32 3v-52q-17 -6 -41 -6z" />
    <glyph glyph-name="uni0337.case" 
d="M-219 -44l163 594h59l-163 -594h-59z" />
    <glyph glyph-name="uni0338.case" 
d="M-381 -37l215 774h59l-215 -774h-59z" />
    <glyph glyph-name="brevecombcy" 
d="M-115 607q-52 0 -81.5 30.5t-31.5 85.5h52q4 -66 61 -66t61 66h52q-2 -55 -31.5 -85.5t-81.5 -30.5z" />
    <glyph glyph-name="brevecombcy.case" 
d="M-115 766q-52 0 -81.5 30.5t-31.5 85.5h52q4 -66 61 -66t61 66h52q-2 -55 -31.5 -85.5t-81.5 -30.5z" />
    </font>
</defs>
</svg>
