<?xml version="1.0" standalone="no"?>
<!DOCTYPE svg PUBLIC "-//W3C//DTD SVG 1.1//EN" "http://www.w3.org/Graphics/SVG/1.1/DTD/svg11.dtd" >
<svg>
<metadata>
Created by FontForge 20090622 at Wed Sep 26 07:08:50 2018
 By deploy user
Copyright (c) 2016 by Fontfabric LLC. All rights reserved.
</metadata>
<defs>
<font id="Akrobat-Light" horiz-adv-x="0" >
  <font-face 
    font-family="Akrobat Light"
    font-weight="400"
    font-stretch="normal"
    units-per-em="1000"
    panose-1="0 0 5 0 0 0 0 0 0 0"
    ascent="800"
    descent="-200"
    x-height="523"
    cap-height="700"
    bbox="-353 -236 793 939"
    underline-thickness="50"
    underline-position="-50"
    unicode-range="U+0020-U+25CA"
  />
<missing-glyph horiz-adv-x="500" 
d="M410 800v-1000h-317v1000h317zM333 733h-165v-33h65v-37h-66v-33h166v33h-66v37h66v33zM267 604h-100v-104h166v34h-66v70zM233 570v-36h-33v36h33zM333 473h-166v-33h66v-37h-66v-33h100v70h66v33zM333 413h-33v-66h-133v-34h166v100zM333 291h-100v-56h34v23h33v-47
h-100v80h-33v-113h166v113zM333 118h-166v-113h166v113zM300 85v-47h-100v47h100zM333 -18h-166v-33h70l-70 -47v-33h166v33h-102l70 47h32v33z" />
    <glyph glyph-name=".notdef" horiz-adv-x="500" 
d="M410 800v-1000h-317v1000h317zM333 733h-165v-33h65v-37h-66v-33h166v33h-66v37h66v33zM267 604h-100v-104h166v34h-66v70zM233 570v-36h-33v36h33zM333 473h-166v-33h66v-37h-66v-33h100v70h66v33zM333 413h-33v-66h-133v-34h166v100zM333 291h-100v-56h34v23h33v-47
h-100v80h-33v-113h166v113zM333 118h-166v-113h166v113zM300 85v-47h-100v47h100zM333 -18h-166v-33h70l-70 -47v-33h166v33h-102l70 47h32v33z" />
    <glyph glyph-name=".null" 
 />
    <glyph glyph-name="nonmarkingreturn" horiz-adv-x="333" 
 />
    <glyph glyph-name="space" unicode=" " horiz-adv-x="242" 
 />
    <glyph glyph-name="exclam" unicode="!" horiz-adv-x="207" 
d="M82 133v567h44v-567h-44zM104 -9q-17 0 -27.5 10.5t-10.5 27.5t10.5 27.5t27.5 10.5t27.5 -10.5t10.5 -27.5t-10.5 -27.5t-27.5 -10.5z" />
    <glyph glyph-name="quotedbl" unicode="&#x22;" horiz-adv-x="207" 
d="M19 507l20 193h53l-41 -193h-32zM111 507l20 193h53l-41 -193h-32z" />
    <glyph glyph-name="numbersign" unicode="#" horiz-adv-x="555" 
d="M96 0l43 189h-122l9 37h122l54 237h-122l8 37h122l46 200h41l-46 -200h123l46 200h41l-46 -200h123l-8 -37h-123l-54 -237h123l-9 -37h-123l-43 -189h-41l43 189h-123l-43 -189h-41zM188 226h123l55 237h-123z" />
    <glyph glyph-name="dollar" unicode="$" horiz-adv-x="440" 
d="M399 165q0 -70 -45 -121.5t-122 -55.5v-73h-35v74q-71 7 -113.5 56t-46.5 126h45q5 -66 40.5 -102.5t96.5 -36.5q64 0 99 37t35 96q0 48 -31.5 86.5t-77 66.5l-91 57t-77 72.5t-31.5 98.5q0 67 42 112.5t110 52.5v74h35v-73q70 -5 112.5 -53.5t47.5 -125.5h-46
q-4 66 -38 100.5t-89 34.5q-58 0 -93 -33t-35 -89q0 -39 23 -72.5t57 -55.5l74 -48t74 -51t57 -65t23 -89z" />
    <glyph glyph-name="percent" unicode="%" horiz-adv-x="582" 
d="M114 395q-40 0 -65 26.5t-25 71.5v116q0 45 25 72t65 27t64.5 -27t24.5 -72v-116q0 -45 -24.5 -71.5t-64.5 -26.5zM32 0l475 700h43l-475 -700h-43zM114 430q53 0 53 63v116q0 64 -53 64q-25 0 -39.5 -16.5t-14.5 -47.5v-116q0 -30 14.5 -46.5t39.5 -16.5zM469 -8
q-40 0 -65 26.5t-25 71.5v116q0 45 25 72t65 27t65 -27t25 -72v-116q0 -45 -25 -71.5t-65 -26.5zM469 27q53 0 53 63v116q0 64 -53 64t-53 -64v-116q0 -63 53 -63z" />
    <glyph glyph-name="ampersand" unicode="&#x26;" horiz-adv-x="567" 
d="M533 0h-55l-63 89q-74 -101 -171 -101q-72 0 -117.5 46t-45.5 124q0 65 34 115.5t96 104.5q-80 128 -80 197q0 60 35.5 98.5t99.5 38.5q65 0 101 -41t35 -102q-1 -39 -22.5 -77t-44 -61.5t-65.5 -60.5l141 -199q27 51 41 107l49 -3q-25 -85 -60 -145zM176 574
q0 -53 70 -166q37 32 57 52t37 50.5t17 60.5q0 43 -25 70t-66 27q-43 0 -66.5 -26.5t-23.5 -67.5zM247 32q76 0 140 97q-120 164 -151 211q-51 -46 -79 -87t-28 -91q0 -58 33 -94t85 -36z" />
    <glyph glyph-name="quotesingle" unicode="'" horiz-adv-x="115" 
d="M19 507l20 193h53l-41 -193h-32z" />
    <glyph glyph-name="parenleft" unicode="(" horiz-adv-x="268" 
d="M211 -120q-59 2 -94.5 43t-35.5 106v643q0 64 35.5 105t94.5 43v-42q-40 -2 -63 -30.5t-23 -75.5v-643q0 -47 23 -76t63 -31v-42z" />
    <glyph glyph-name="parenright" unicode=")" horiz-adv-x="268" 
d="M57 -120v42q40 2 63 31t23 76v643q0 47 -23 75.5t-63 30.5v42q59 -2 94.5 -43t35.5 -105v-643q0 -65 -36 -106t-94 -43z" />
    <glyph glyph-name="asterisk" unicode="*" horiz-adv-x="288" 
d="M89 498l-29 20l55 77l-88 28l10 33l89 -29v93h35v-93l89 29l11 -33l-90 -28l56 -77l-29 -20l-55 76z" />
    <glyph glyph-name="plus" unicode="+" horiz-adv-x="431" 
d="M382 329v-41h-146v-148h-41v148h-146v41h146v149h41v-149h146z" />
    <glyph glyph-name="comma" unicode="," horiz-adv-x="137" 
d="M32 -126l20 193h53l-41 -193h-32z" />
    <glyph glyph-name="hyphen" unicode="-" horiz-adv-x="333" 
d="M48 236v41h238v-41h-238z" />
    <glyph glyph-name="period" unicode="." horiz-adv-x="175" 
d="M87 -9q-17 0 -27 10.5t-10 27.5t10 27.5t27 10.5t27.5 -10.5t10.5 -27.5t-10.5 -27.5t-27.5 -10.5z" />
    <glyph glyph-name="slash" unicode="/" horiz-adv-x="390" 
d="M12 -113l322 920h44l-322 -920h-44z" />
    <glyph glyph-name="zero" unicode="0" horiz-adv-x="446" 
d="M226 -10q-72 0 -118 48t-46 125v374q0 77 46 125t118 48t118 -48t46 -125v-374q0 -77 -46 -125t-118 -48zM226 32q54 0 87.5 35.5t33.5 95.5v374q0 60 -33.5 95.5t-87.5 35.5t-87 -35.5t-33 -95.5v-374q0 -60 33 -95.5t87 -35.5z" />
    <glyph glyph-name="one" unicode="1" horiz-adv-x="271" 
d="M149 700h41v-700h-44v641l-117 -96v54z" />
    <glyph glyph-name="two" unicode="2" horiz-adv-x="393" 
d="M34 0v38q0 52 20.5 103t50.5 90t66 81l66 77.5t50.5 78.5t20.5 84q0 52 -31.5 84t-83.5 31q-49 0 -79.5 -33.5t-32.5 -94.5h-44q5 76 47.5 123t108.5 47q71 1 115.5 -44t44.5 -113q0 -55 -28.5 -110t-68.5 -100.5l-80.5 -91t-69 -99.5t-28.5 -109h280v-42h-324z" />
    <glyph glyph-name="three" unicode="3" horiz-adv-x="396" 
d="M179 411q80 0 124 -45.5t44 -124.5v-63q0 -89 -45 -138t-119 -49q-72 0 -117.5 48t-45.5 135h44q2 -72 34 -106.5t84 -34.5q57 0 89 37t32 108v63q0 64 -34.5 97.5t-92.5 33.5h-55v36l157 251h-238v41h295v-31l-163 -258h7z" />
    <glyph glyph-name="four" unicode="4" horiz-adv-x="394" 
d="M389 239v-43h-82v-196h-44l-1 196h-249v27l166 477h45l-159 -461h197l1 249h44v-249h82z" />
    <glyph glyph-name="five" unicode="5" horiz-adv-x="405" 
d="M213 468q68 0 109 -48.5t41 -132.5v-98q0 -97 -41.5 -148t-112.5 -51q-69 0 -112.5 46.5t-45.5 125.5h44q1 -61 32 -95t82 -34q52 0 81 38.5t29 117.5v97q0 68 -28.5 104t-81.5 36q-82 0 -106 -86h-43v360h287v-42h-243v-241q39 51 109 51z" />
    <glyph glyph-name="six" unicode="6" horiz-adv-x="430" 
d="M227 462q67 0 114 -47.5t47 -122.5v-127q0 -78 -47 -126t-116 -48t-116 46.5t-47 119.5v383q0 76 45.5 123t115.5 47q66 0 111.5 -45t49.5 -118h-45q-3 56 -35.5 88.5t-80.5 32.5q-51 0 -84 -34.5t-33 -92.5v-138q43 59 121 59zM344 165v127q0 58 -35 93t-88 35
q-49 0 -82 -34t-33 -88v-141q0 -55 34 -89t85 -34t85 35.5t34 95.5z" />
    <glyph glyph-name="seven" unicode="7" horiz-adv-x="356" 
d="M82 0l187 657h-263v43h313v-27l-191 -673h-46z" />
    <glyph glyph-name="eight" unicode="8" horiz-adv-x="449" 
d="M299 360q45 -19 70.5 -62t25.5 -99v-26q0 -84 -46 -133t-125 -49t-124.5 49t-45.5 133v26q0 56 25.5 99t70.5 62q-39 19 -61.5 62t-22.5 97v15q0 81 42.5 128t115.5 47q74 0 116.5 -47t42.5 -128v-15q0 -54 -22.5 -97t-61.5 -62zM110 519q0 -64 30.5 -100.5t83.5 -36.5
t84 36.5t31 100.5v15q0 61 -31 96.5t-84 35.5t-83.5 -35.5t-30.5 -96.5v-15zM351 173v26q0 64 -34 102t-93 38q-58 0 -92 -38t-34 -102v-26q0 -64 34 -101.5t92 -37.5q59 0 93 37.5t34 101.5z" />
    <glyph glyph-name="nine" unicode="9" horiz-adv-x="446" 
d="M218 709q69 0 116 -46.5t47 -119.5v-383q0 -76 -45 -123t-116 -47q-66 0 -111 45t-49 118h44q3 -56 35.5 -88.5t80.5 -32.5q52 0 84.5 34.5t32.5 92.5v137q-43 -58 -121 -58q-67 0 -114 47.5t-47 122.5v127q0 78 47 126t116 48zM222 280q49 0 82 34t33 88v141
q0 56 -34 89.5t-85 33.5t-85 -35t-34 -96v-127q0 -58 35 -93t88 -35z" />
    <glyph glyph-name="colon" unicode=":" horiz-adv-x="180" 
d="M90 340q-17 0 -27.5 10.5t-10.5 27.5t10.5 27.5t27.5 10.5t27.5 -10.5t10.5 -27.5t-10.5 -27.5t-27.5 -10.5zM90 -9q-17 0 -27.5 10.5t-10.5 27.5t10.5 27.5t27.5 10.5t27.5 -10.5t10.5 -27.5t-10.5 -27.5t-27.5 -10.5z" />
    <glyph glyph-name="semicolon" unicode=";" horiz-adv-x="145" 
d="M75 339q-17 0 -27.5 10.5t-10.5 27.5t10.5 27.5t27.5 10.5t27.5 -10.5t10.5 -27.5t-10.5 -27.5t-27.5 -10.5zM32 -126l20 193h53l-41 -193h-32z" />
    <glyph glyph-name="less" unicode="&#x3c;" horiz-adv-x="392" 
d="M343 472v-44l-249 -119l249 -119v-44l-294 139v48z" />
    <glyph glyph-name="equal" unicode="=" horiz-adv-x="431" 
d="M49 350v41h333v-41h-333zM49 220v41h333v-41h-333z" />
    <glyph glyph-name="greater" unicode="&#x3e;" horiz-adv-x="392" 
d="M49 472l294 -139v-48l-294 -139v44l249 119l-249 119v44z" />
    <glyph glyph-name="question" unicode="?" horiz-adv-x="371" 
d="M147 133v68q0 47 15 86t36 66.5l42 54t36 62t15 77.5q0 53 -32.5 86.5t-82.5 33.5t-82.5 -34.5t-32.5 -95.5h-44q2 77 47 124.5t112 47.5q69 0 114 -46t45 -116q0 -47 -14.5 -85.5t-35.5 -66l-42.5 -54.5t-36 -63.5t-14.5 -80.5v-64h-45zM171 -9q-17 0 -27.5 10.5
t-10.5 27.5t10.5 27.5t27.5 10.5t27.5 -10.5t10.5 -27.5t-10.5 -27.5t-27.5 -10.5z" />
    <glyph glyph-name="at" unicode="@" horiz-adv-x="739" 
d="M374 -75q-145 0 -231 90t-86 248v131q0 156 84 242.5t236 86.5q146 0 226 -81.5t80 -235.5v-108q0 -80 -33 -123t-90 -43q-70 0 -94 58q-30 -63 -102 -63q-55 0 -90.5 38.5t-35.5 105.5v105q0 66 34 103.5t90 37.5q66 0 98 -50l4 43h34v-268q0 -70 62 -71q83 0 83 127
v108q0 137 -69 208t-197 71q-134 0 -207 -76.5t-73 -214.5v-131q0 -139 75.5 -219.5t200.5 -80.5q127 0 197 57l21 -33q-79 -62 -217 -62zM368 166q39 0 65 25.5t26 76.5v115q0 41 -26 68t-69 27q-40 0 -63 -26t-23 -76v-105q0 -50 25 -77.5t65 -27.5z" />
    <glyph glyph-name="A" unicode="A" horiz-adv-x="447" 
d="M386 0l-46 179h-233l-46 -179h-48l185 700h51l185 -700h-48zM118 221h211l-73 287l-32 133h-1l-32 -133z" />
    <glyph glyph-name="B" unicode="B" horiz-adv-x="485" 
d="M317 363q63 -13 95.5 -58.5t32.5 -114.5q0 -91 -52 -140.5t-145 -49.5h-167v700h154q86 0 133.5 -47t47.5 -132q0 -131 -99 -158zM235 657h-109v-275h114q65 0 97.5 37t32.5 102q0 136 -135 136zM248 43q151 0 151 147q0 68 -41.5 108.5t-115.5 40.5h-116v-296h122z" />
    <glyph glyph-name="C" unicode="C" horiz-adv-x="474" 
d="M245 -12q-84 0 -133.5 54t-49.5 154v308q0 100 49 154t132 54q85 0 133.5 -50.5t54.5 -145.5h-44q-12 155 -144 155q-64 0 -100.5 -42.5t-36.5 -124.5v-308q0 -82 37.5 -124.5t101.5 -42.5q134 0 147 155h44q-7 -95 -56 -145.5t-135 -50.5z" />
    <glyph glyph-name="D" unicode="D" horiz-adv-x="493" 
d="M81 0v700h153q94 0 145.5 -52t51.5 -148v-295q0 -97 -52 -151t-145 -54h-153zM126 43h108q73 0 112.5 42t39.5 122v291q0 79 -39 119t-113 40h-108v-614z" />
    <glyph glyph-name="E" unicode="E" horiz-adv-x="446" 
d="M126 42h279v-42h-324v700h317v-42h-272v-281h253v-42h-253v-293z" />
    <glyph glyph-name="F" unicode="F" horiz-adv-x="418" 
d="M389 658h-263v-292h245v-42h-245v-324h-45v700h308v-42z" />
    <glyph glyph-name="G" unicode="G" horiz-adv-x="490" 
d="M248 -10q-83 0 -134.5 54t-51.5 151v307q0 101 49.5 154.5t133.5 53.5q82 0 132.5 -50t53.5 -144h-45q-3 76 -40.5 113.5t-100.5 37.5q-64 0 -101.5 -41t-37.5 -124v-307q0 -79 39.5 -120.5t102.5 -41.5q65 0 105 40.5t40 115.5v137h-146v41h190v-178q0 -93 -53 -146
t-136 -53z" />
    <glyph glyph-name="H" unicode="H" horiz-adv-x="521" 
d="M395 700h46v-700h-46v335h-269v-335h-45v700h45v-322h269v322z" />
    <glyph glyph-name="I" unicode="I" horiz-adv-x="207" 
d="M81 0v700h45v-700h-45z" />
    <glyph glyph-name="J" unicode="J" horiz-adv-x="232" 
d="M-4 -75v43q57 0 85 32.5t28 101.5v598h45v-598q0 -177 -158 -177z" />
    <glyph glyph-name="K" unicode="K" horiz-adv-x="473" 
d="M412 0l-227 357l-59 -78v-279h-45v700h45v-351l44 62l213 289h56l-225 -304l252 -396h-54z" />
    <glyph glyph-name="L" unicode="L" horiz-adv-x="395" 
d="M126 43h258v-43h-303v700h45v-657z" />
    <glyph glyph-name="M" unicode="M" horiz-adv-x="638" 
d="M509 700h48v-699h-46v451q0 55 4 149l-2 1l-55 -137l-116 -290h-46l-117 290l-54 137l-2 -1q3 -71 3 -149v-451h-45v699h48l142 -344q9 -22 26.5 -69t20.5 -56h2q31 89 47 125z" />
    <glyph glyph-name="N" unicode="N" horiz-adv-x="534" 
d="M81 0v700h47l223 -477q29 -60 59 -134l2 1q-5 98 -5 147v463h46v-700h-47l-225 480q-39 88 -56 131l-2 -1q3 -63 3 -145v-465h-45z" />
    <glyph glyph-name="O" unicode="O" horiz-adv-x="512" 
d="M256 -12q-90 0 -142 58t-52 161v285q0 104 51.5 162t142.5 58t143 -58t52 -162v-285q0 -103 -52 -161t-143 -58zM256 32q72 0 110.5 45t38.5 130v285q0 86 -38.5 131t-110.5 45q-71 0 -109.5 -45t-38.5 -131v-285q0 -85 38.5 -130t109.5 -45z" />
    <glyph glyph-name="P" unicode="P" horiz-adv-x="474" 
d="M239 700q94 0 145 -55t52 -156q0 -105 -51 -161t-146 -56h-113v-272h-45v700h158zM239 315q151 0 151 174q1 82 -37.5 125t-113.5 43h-113v-342h113z" />
    <glyph glyph-name="Q" unicode="Q" horiz-adv-x="514" 
d="M452 -26l-29 -26l-58 69q-46 -29 -109 -29q-90 0 -142 58t-52 161v285q0 104 51.5 162t142.5 58t143 -58t52 -162v-285q0 -107 -56 -166zM256 32q47 0 79 19l-78 92l30 26l79 -93q39 47 39 131v285q0 86 -38.5 131t-110.5 45q-71 0 -109.5 -45t-38.5 -131v-285
q0 -85 38.5 -130t109.5 -45z" />
    <glyph glyph-name="R" unicode="R" horiz-adv-x="472" 
d="M387 0l-168 285h-93v-285h-45v700h153q93 0 142.5 -52t49.5 -150q0 -91 -41.5 -146t-116.5 -65l171 -287h-52zM126 657v-330h112q68 0 105 43.5t37 125.5q0 161 -146 161h-108z" />
    <glyph glyph-name="S" unicode="S" horiz-adv-x="440" 
d="M220 -12q-81 0 -130 50t-53 133h45q4 -67 40 -103t97 -36q64 0 99 37t35 97q0 48 -31.5 86t-77 66l-91 57t-77 72.5t-31.5 99.5q0 72 48.5 118.5t123.5 46.5q76 0 123 -49t52 -130h-46q-4 66 -38 100.5t-89 34.5q-58 0 -93 -33t-35 -88q0 -40 23 -73.5t57 -55l74 -48
t74 -51.5t57 -64.5t23 -88.5q0 -74 -48 -126t-131 -52z" />
    <glyph glyph-name="T" unicode="T" horiz-adv-x="401" 
d="M380 700v-43h-158v-657h-45v657h-156v43h359z" />
    <glyph glyph-name="U" unicode="U" horiz-adv-x="504" 
d="M252 -9q-84 0 -133.5 53.5t-49.5 151.5v504h46v-504q0 -80 37 -121t100 -41t100 41t37 121v504h46v-504q0 -98 -49.5 -151.5t-133.5 -53.5z" />
    <glyph glyph-name="V" unicode="V" horiz-adv-x="438" 
d="M193 0l-180 700h48l118 -477q38 -158 39 -161h2l20.5 84.5l18.5 76.5l118 477h49l-180 -700h-53z" />
    <glyph glyph-name="W" unicode="W" horiz-adv-x="690" 
d="M166 0l-153 700h48l97 -474q26 -124 32 -160h2l33 166l95 457h50l94 -451q24 -124 34 -172h2l33 165l96 469h48l-153 -700h-51l-95 432q-16 68 -32 189h-2q-16 -121 -32 -189l-95 -432h-51z" />
    <glyph glyph-name="X" unicode="X" horiz-adv-x="433" 
d="M413 0h-50l-146 319l-146 -319h-50l170 363l-162 337h51l137 -294l137 294h50l-161 -337z" />
    <glyph glyph-name="Y" unicode="Y" horiz-adv-x="413" 
d="M184 0v257l-177 443h49l112 -289q3 -10 39 -100l38 101l112 288h49l-177 -443v-257h-45z" />
    <glyph glyph-name="Z" unicode="Z" horiz-adv-x="401" 
d="M22 0v35l287 622h-275v43h330v-31l-289 -626h293v-43h-346z" />
    <glyph glyph-name="bracketleft" unicode="[" horiz-adv-x="268" 
d="M81 -120v940h130v-41h-86v-858h86v-41h-130z" />
    <glyph glyph-name="backslash" unicode="\" horiz-adv-x="465" 
d="M415 -113h-44l-322 920h44z" />
    <glyph glyph-name="bracketright" unicode="]" horiz-adv-x="268" 
d="M187 820v-940h-130v41h86v858h-86v41h130z" />
    <glyph glyph-name="asciicircum" unicode="^" horiz-adv-x="298" 
d="M280 480h-44l-87 180l-87 -180h-45l108 220h48z" />
    <glyph glyph-name="underscore" unicode="_" horiz-adv-x="410" 
d="M28 -49v41h354v-41h-354z" />
    <glyph glyph-name="a" unicode="a" horiz-adv-x="441" 
d="M219 534q71 0 111.5 -44t40.5 -121v-369h-38l-4 57q-40 -68 -129 -68q-70 0 -113 42.5t-43 116.5t45.5 114t130.5 40h108v66q0 60 -28.5 92.5t-81.5 32.5q-50 0 -81 -28t-33 -73h-44q4 64 46.5 103t112.5 39zM206 31q58 0 90 33.5t32 93.5v104h-109q-64 0 -97.5 -29.5
t-33.5 -85.5q0 -55 32 -85.5t86 -30.5z" />
    <glyph glyph-name="b" unicode="b" horiz-adv-x="453" 
d="M242 534q71 0 112.5 -48t41.5 -134v-178q0 -87 -43.5 -136t-113.5 -49q-83 0 -128 66l-5 -55h-36v723h42v-266q38 77 130 77zM353 174v178q0 70 -31.5 106t-89.5 36q-53 0 -86.5 -41.5t-33.5 -112.5v-172q0 -64 33.5 -101.5t84.5 -37.5q57 0 90 37.5t33 107.5z" />
    <glyph glyph-name="c" unicode="c" horiz-adv-x="426" 
d="M217 -10q-74 0 -117 47.5t-43 129.5v190q0 83 43 130t116 47q77 0 121 -47.5t45 -132.5h-44q-1 67 -33 102.5t-89 35.5q-55 0 -85.5 -35t-30.5 -100v-190q0 -65 31 -100t86 -35q57 0 89.5 35.5t33.5 103.5h43q-1 -85 -45 -133t-121 -48z" />
    <glyph glyph-name="d" unicode="d" horiz-adv-x="453" 
d="M341 723h42v-723h-36l-5 55q-45 -66 -128 -66q-70 0 -113.5 49t-43.5 136v178q0 86 41.5 134t112.5 48q92 0 130 -77v266zM223 29q51 0 84.5 37.5t33.5 101.5v172q0 71 -34 112.5t-86 41.5q-58 0 -89.5 -36t-31.5 -106v-178q0 -70 33 -107.5t90 -37.5z" />
    <glyph glyph-name="e" unicode="e" horiz-adv-x="441" 
d="M345 157h43q-6 -79 -49.5 -123t-120.5 -44q-74 0 -117.5 47.5t-43.5 129.5v190q0 83 44 130t120 47t121 -47.5t45 -129.5v-117h-287v-73q0 -65 31.5 -100t87.5 -35q112 0 126 125zM221 492q-57 0 -89 -35t-32 -100v-77h243v77q0 65 -32.5 100t-89.5 35z" />
    <glyph glyph-name="f" unicode="f" horiz-adv-x="277" 
d="M240 695q-102 0 -102 -119v-53h114v-40h-114v-483h-44v483h-77v40h77v53q0 77 38 118t108 41h22v-40h-22z" />
    <glyph glyph-name="g" unicode="g" horiz-adv-x="453" 
d="M346 523h38v-557q0 -73 -42.5 -115.5t-113.5 -42.5q-72 0 -115.5 40t-47.5 107h42q5 -51 36 -78.5t85 -27.5q53 0 82.5 30.5t29.5 86.5v108q-41 -62 -120 -62q-72 0 -117.5 48t-45.5 130v159q0 87 44.5 136t116.5 49q82 0 124 -71zM226 53q52 0 83 35.5t31 96.5v176
q0 61 -32.5 96.5t-81.5 35.5q-58 0 -92 -37t-34 -107v-159q0 -65 34.5 -101t91.5 -36z" />
    <glyph glyph-name="h" unicode="h" horiz-adv-x="453" 
d="M254 534q136 0 136 -208v-326h-43v323q0 170 -103 170q-58 0 -94.5 -47.5t-36.5 -127.5v-318h-43v721h43v-275q46 88 141 88z" />
    <glyph glyph-name="i" unicode="i" horiz-adv-x="182" 
d="M91 622q-17 0 -27.5 10.5t-10.5 28.5q0 17 10.5 28t27.5 11q18 0 28.5 -11t10.5 -28q0 -18 -10.5 -28.5t-28.5 -10.5zM70 0v523h43v-523h-43z" />
    <glyph glyph-name="j" unicode="j" horiz-adv-x="222" 
d="M113 621q-17 0 -27.5 11t-10.5 28q0 18 10.5 28.5t27.5 10.5q18 0 28.5 -10.5t10.5 -28.5q0 -17 -10.5 -28t-28.5 -11zM-24 -190v41q116 4 116 129v543h43v-543q0 -80 -39.5 -124.5t-119.5 -45.5z" />
    <glyph glyph-name="k" unicode="k" horiz-adv-x="414" 
d="M356 0l-191 273l-52 -57v-216h-43v723h43v-448l217 248h56l-191 -216l213 -307h-52z" />
    <glyph glyph-name="l" unicode="l" horiz-adv-x="187" 
d="M72 0v723h43v-723h-43z" />
    <glyph glyph-name="m" unicode="m" horiz-adv-x="710" 
d="M516 534q62 0 96.5 -50t34.5 -148v-336h-43v333q0 160 -97 160q-57 0 -92 -47.5t-35 -126.5v-319h-43v333q0 160 -99 160q-55 0 -90 -47.5t-35 -126.5v-319h-43v523h37l6 -75v-2q42 88 134 88q95 0 123 -108q19 50 56.5 79t89.5 29z" />
    <glyph glyph-name="n" unicode="n" horiz-adv-x="453" 
d="M254 534q64 0 100 -48.5t36 -147.5v-338h-43v332q0 161 -103 161q-58 0 -94.5 -47.5t-36.5 -126.5v-319h-43v523h37l6 -68v-9q46 88 141 88z" />
    <glyph glyph-name="o" unicode="o" horiz-adv-x="446" 
d="M223 -11q-77 0 -121.5 47.5t-44.5 131.5v187q0 84 44.5 131.5t121.5 47.5q76 0 121 -47.5t45 -131.5v-187q0 -84 -45 -131.5t-121 -47.5zM223 31q58 0 90 35.5t32 101.5v187q0 66 -32 101.5t-90 35.5t-90.5 -35.5t-32.5 -101.5v-187q0 -66 32.5 -101.5t90.5 -35.5z" />
    <glyph glyph-name="p" unicode="p" horiz-adv-x="453" 
d="M242 534q68 0 111 -49.5t43 -135.5v-178q0 -85 -43 -133.5t-114 -48.5q-38 0 -72 18t-55 50v-237h-42v703h36l5 -63q41 74 131 74zM353 171v178q0 70 -32.5 107.5t-87.5 37.5q-51 0 -86 -39.5t-35 -111.5v-176q0 -60 33.5 -99t84.5 -39q58 0 90.5 36.5t32.5 105.5z" />
    <glyph glyph-name="q" unicode="q" horiz-adv-x="453" 
d="M347 523h36v-703h-42v237q-21 -32 -55 -50t-72 -18q-71 0 -114 48.5t-43 133.5v178q0 86 43 135.5t111 49.5q90 0 131 -74zM223 29q51 0 84.5 39t33.5 99v176q0 72 -35 111.5t-86 39.5q-55 0 -87.5 -37.5t-32.5 -107.5v-178q0 -69 32.5 -105.5t90.5 -36.5z" />
    <glyph glyph-name="r" unicode="r" horiz-adv-x="324" 
d="M253 534q33 0 54 -6v-46q-28 9 -63 9q-58 0 -94.5 -47t-36.5 -125v-318h-43v522h37l6 -66v-12q46 89 140 89z" />
    <glyph glyph-name="s" unicode="s" horiz-adv-x="395" 
d="M202 -11q-75 0 -120 42.5t-46 116.5h43q1 -57 33 -87t90 -30q50 0 80.5 26t30.5 70q0 38 -28 64.5t-67.5 42.5t-79.5 34t-68 51t-28 81q0 60 42 97t108 37q70 0 111.5 -40t43.5 -108h-43q-1 51 -30.5 79t-81.5 28q-48 0 -77 -25.5t-29 -68.5q0 -37 28 -62t68 -41
t79.5 -34t67.5 -52t28 -84q0 -61 -44 -99t-111 -38z" />
    <glyph glyph-name="t" unicode="t" horiz-adv-x="288" 
d="M239 37h25v-41h-25q-69 0 -105 38t-36 110v339h-77v40h77v122h43v-122h113v-40h-113v-339q0 -107 98 -107z" />
    <glyph glyph-name="u" unicode="u" horiz-adv-x="453" 
d="M340 523h43v-523h-37l-6 68v9q-46 -88 -141 -88q-64 0 -100 48.5t-36 147.5v338h43v-332q0 -161 103 -161q58 0 94.5 47.5t36.5 126.5v319z" />
    <glyph glyph-name="v" unicode="v" horiz-adv-x="372" 
d="M163 0l-150 523h46l90 -325l36 -141h2q6 20 19 72t18 69l90 325h45l-149 -523h-47z" />
    <glyph glyph-name="w" unicode="w" horiz-adv-x="598" 
d="M539 523h46l-130 -523h-48l-80 321q-15 62 -28 132h-1q-8 -56 -27 -132l-81 -321h-47l-130 523h46l77 -332q6 -26 17 -78.5t13 -59.5h1q30 142 32 150l77 310h46l77 -310q2 -8 32 -150h1q2 7 13 59.5t17 78.5z" />
    <glyph glyph-name="x" unicode="x" horiz-adv-x="369" 
d="M360 0h-51l-124 226l-125 -226h-51l151 263l-144 260h49l120 -219l120 219h48l-142 -260z" />
    <glyph glyph-name="y" unicode="y" horiz-adv-x="380" 
d="M321 523h46l-182 -596q-18 -56 -43 -85t-69 -29h-31v43h26q29 0 45.5 20t28.5 59l36 118l-165 470h48l91 -264l46 -139l43 139z" />
    <glyph glyph-name="z" unicode="z" horiz-adv-x="348" 
d="M18 0v36l244 447h-230v40h282v-35l-244 -448h250v-40h-302z" />
    <glyph glyph-name="braceleft" unicode="{" horiz-adv-x="331" 
d="M177 484q0 -90 -69 -130q69 -40 69 -130v-192q0 -48 28 -79.5t70 -31.5v-41q-60 0 -100.5 43.5t-40.5 108.5v192q0 81 -77 108v45q35 12 56 39.5t21 67.5v184q0 65 40.5 108.5t100.5 43.5v-41q-42 -2 -70 -32.5t-28 -78.5v-184z" />
    <glyph glyph-name="bar" unicode="|" horiz-adv-x="186" 
d="M72 -82v877h42v-877h-42z" />
    <glyph glyph-name="braceright" unicode="}" horiz-adv-x="331" 
d="M197 477q0 -40 21 -68t57 -40v-45q-36 -12 -57 -39.5t-21 -67.5v-184q0 -65 -40.5 -108.5t-99.5 -43.5v41q42 1 69.5 32t27.5 79v184q0 88 68 130q-68 40 -68 130v192q0 47 -28 78.5t-69 31.5v42q59 0 99.5 -44t40.5 -108v-192z" />
    <glyph glyph-name="asciitilde" unicode="~" horiz-adv-x="447" 
d="M308 253q-30 0 -87 25.5t-79 25.5q-38 0 -65 -41l-23 32q37 52 85 52q30 0 87.5 -25.5t79.5 -25.5q37 0 63 41l24 -30q-34 -54 -85 -54z" />
    <glyph glyph-name="uni00A0" unicode="&#xa0;" horiz-adv-x="242" 
 />
    <glyph glyph-name="exclamdown" unicode="&#xa1;" horiz-adv-x="207" 
d="M104 457q-17 0 -27.5 10.5t-10.5 27.5t10.5 27.5t27.5 10.5t27.5 -10.5t10.5 -27.5t-10.5 -27.5t-27.5 -10.5zM82 -180v571h44v-571h-44z" />
    <glyph glyph-name="cent" unicode="&#xa2;" horiz-adv-x="421" 
d="M379 171q0 -80 -39 -127.5t-106 -52.5v-64h-40v64q-63 8 -100 54.5t-37 121.5v187q0 77 36.5 123t100.5 53v64h40v-64q67 -6 105.5 -53t38.5 -126h-44q0 67 -31.5 102.5t-87.5 35.5q-54 0 -84.5 -35t-30.5 -100v-187q0 -65 30.5 -100t85.5 -35q56 0 87.5 36t31.5 103h44z
" />
    <glyph glyph-name="sterling" unicode="&#xa3;" horiz-adv-x="465" 
d="M110 43h318v-43h-395v39q69 18 69 112v183h-70v41h70v152q0 81 44 131.5t114 50.5q71 0 115.5 -49.5t46.5 -132.5h-44q-3 65 -34.5 102.5t-83.5 37.5q-51 0 -82.5 -38.5t-31.5 -101.5v-152h202v-41h-202v-179q0 -76 -36 -112z" />
    <glyph glyph-name="currency" unicode="&#xa4;" horiz-adv-x="448" 
d="M69 122l-29 25l46 55q-22 38 -22 96v61q0 58 22 96l-46 55l29 25l41 -48q40 42 114 42q72 0 114 -42l41 48l29 -25l-46 -54q22 -38 22 -97v-61q0 -59 -22 -97l46 -54l-29 -25l-41 49q-43 -43 -114 -43q-73 0 -114 43zM224 168q56 0 86.5 34t30.5 96v61q0 63 -30.5 96.5
t-86.5 33.5t-86.5 -33.5t-30.5 -96.5v-61q0 -62 30.5 -96t86.5 -34z" />
    <glyph glyph-name="yen" unicode="&#xa5;" horiz-adv-x="413" 
d="M406 700l-163 -408h135v-36h-149v-69h149v-37h-149v-150h-45v150h-149v37h149v69h-149v36h135l-163 408h49l112 -289q3 -10 39 -100l38 101l112 288h49z" />
    <glyph glyph-name="brokenbar" unicode="&#xa6;" horiz-adv-x="166" 
d="M62 509v286h42v-286h-42zM62 -65v286h42v-286h-42z" />
    <glyph glyph-name="section" unicode="&#xa7;" horiz-adv-x="407" 
d="M276 209q74 -44 74 -119q0 -60 -41 -97.5t-108 -37.5q-72 0 -114.5 42.5t-42.5 113.5h43q1 -53 30.5 -83t83.5 -30q49 0 77 25t28 68q0 37 -27.5 63t-67 42.5l-79.5 34t-67.5 50.5t-27.5 80q0 48 25 81.5t71 47.5q-76 42 -76 118q0 57 38.5 92t101.5 35q70 0 110 -40
t40 -109h-44q0 51 -27 79.5t-78 28.5q-45 0 -71.5 -23.5t-26.5 -62.5q0 -35 27.5 -60t66.5 -42.5l78 -36t66.5 -51.5t27.5 -79q0 -96 -90 -130zM81 363q0 -42 33.5 -69t111.5 -58q45 5 70.5 32t25.5 66q0 44 -32.5 71t-104.5 58q-45 -3 -74.5 -29.5t-29.5 -70.5z" />
    <glyph glyph-name="copyright" unicode="&#xa9;" horiz-adv-x="708" 
d="M355 -11q-141 0 -217 80t-76 228v107q0 148 76 227.5t217 79.5q140 0 215.5 -79.5t75.5 -227.5v-107q0 -148 -75.5 -228t-215.5 -80zM355 24q123 0 188.5 70.5t65.5 202.5v107q0 132 -65.5 202t-188.5 70q-124 0 -190 -70t-66 -202v-107q0 -132 66 -202.5t190 -70.5z
M354 148q-57 0 -91 36.5t-34 99.5v131q0 65 33.5 101.5t90.5 36.5q55 0 89 -35t34 -96h-38q0 45 -23 69t-62 24t-62 -26t-23 -74v-131q0 -48 23 -73t63 -25q39 0 63 24.5t24 68.5h39q0 -61 -35 -96t-91 -35z" />
    <glyph glyph-name="guillemotleft" unicode="&#xab;" horiz-adv-x="431" 
d="M174 89l-126 156v24l126 156h46l-136 -168l136 -168h-46zM338 89l-126 156v24l126 156h46l-136 -168l136 -168h-46z" />
    <glyph glyph-name="logicalnot" unicode="&#xac;" horiz-adv-x="447" 
d="M354 207v81h-297v41h336v-122h-39z" />
    <glyph glyph-name="registered" unicode="&#xae;" horiz-adv-x="465" 
d="M236 711q81 0 126 -46t45 -130v-67q0 -86 -45 -132t-126 -46t-126 46t-45 132v67q0 84 45 130t126 46zM384 468v67q0 75 -38.5 114.5t-109.5 39.5q-70 0 -109.5 -40t-39.5 -114v-67q0 -75 39 -115t110 -40t109.5 40t38.5 115zM314 552q0 -31 -15 -50.5t-41 -24.5l61 -107
h-28l-60 105h-31v-105h-24v258h61q77 0 77 -76zM200 604v-105h41q49 0 49 53q0 52 -53 52h-37z" />
    <glyph glyph-name="degree" unicode="&#xb0;" horiz-adv-x="318" 
d="M159 458q-55 0 -88 35t-33 91t33 91t88 35q54 0 87.5 -35t33.5 -91t-33.5 -91t-87.5 -35zM159 492q39 0 62.5 25.5t23.5 66.5t-23.5 66.5t-62.5 25.5t-62.5 -25.5t-23.5 -66.5t23.5 -66.5t62.5 -25.5z" />
    <glyph glyph-name="plusminus" unicode="&#xb1;" horiz-adv-x="447" 
d="M244 362h146v-41h-146v-148h-41v148h-146v41h146v148h41v-148zM57 87v41h333v-41h-333z" />
    <glyph glyph-name="paragraph" unicode="&#xb6;" horiz-adv-x="551" 
d="M207 -90v501q-69 0 -109.5 39t-40.5 106t40.5 105.5t109.5 38.5h263v-790h-45v747h-173v-747h-45z" />
    <glyph glyph-name="periodcentered" unicode="&#xb7;" horiz-adv-x="175" 
d="M87 218q-17 0 -27 10.5t-10 27.5t10 27.5t27 10.5t27.5 -10.5t10.5 -27.5t-10.5 -27.5t-27.5 -10.5z" />
    <glyph glyph-name="guillemotright" unicode="&#xbb;" horiz-adv-x="431" 
d="M93 89h-45l135 168l-135 168h45l127 -156v-24zM257 89h-45l135 168l-135 168h45l127 -156v-24z" />
    <glyph glyph-name="questiondown" unicode="&#xbf;" horiz-adv-x="371" 
d="M199 457q-17 0 -27 10.5t-10 27.5t10 27.5t27 10.5t27.5 -10.5t10.5 -27.5t-10.5 -27.5t-27.5 -10.5zM195 -184q-69 0 -114 46t-45 116q0 56 22.5 103t49 75t49 73t22.5 99v64h45v-69q0 -47 -15 -85.5t-36 -66l-42 -54t-36 -62t-15 -77.5q0 -54 32.5 -87.5t82.5 -33.5
t82.5 35t32.5 95h44q-2 -77 -46.5 -124t-112.5 -47z" />
    <glyph glyph-name="Agrave" unicode="&#xc0;" horiz-adv-x="447" 
d="M258 770h-44l-100 109h54zM386 0l-46 179h-233l-46 -179h-48l185 700h51l185 -700h-48zM118 221h211l-73 287l-32 133h-1l-32 -133z" />
    <glyph glyph-name="Aacute" unicode="&#xc1;" horiz-adv-x="447" 
d="M323 879l-100 -109h-44l90 109h54zM386 0l-46 179h-233l-46 -179h-48l185 700h51l185 -700h-48zM118 221h211l-73 287l-32 133h-1l-32 -133z" />
    <glyph glyph-name="Acircumflex" unicode="&#xc2;" horiz-adv-x="447" 
d="M223 847l-62 -77h-42l79 109h49l79 -109h-42zM386 0l-46 179h-233l-46 -179h-48l185 700h51l185 -700h-48zM118 221h211l-73 287l-32 133h-1l-32 -133z" />
    <glyph glyph-name="Atilde" unicode="&#xc3;" horiz-adv-x="447" 
d="M184 837q-23 0 -26 -37h-40q2 34 18.5 54t44.5 20q23 0 46.5 -20t34.5 -20q25 0 28 37h38q-3 -34 -19.5 -54t-43.5 -20q-22 0 -45.5 20t-35.5 20zM386 0l-46 179h-233l-46 -179h-48l185 700h51l185 -700h-48zM118 221h211l-73 287l-32 133h-1l-32 -133z" />
    <glyph glyph-name="Adieresis" unicode="&#xc4;" horiz-adv-x="447" 
d="M161 797q-15 0 -24.5 9t-9.5 24t9.5 24t24.5 9t24 -9t9 -24q0 -33 -33 -33zM283 797q-15 0 -24.5 9t-9.5 24t9.5 24t24.5 9q16 0 25 -9t9 -24q0 -33 -34 -33zM386 0l-46 179h-233l-46 -179h-48l185 700h51l185 -700h-48zM118 221h211l-73 287l-32 133h-1l-32 -133z" />
    <glyph glyph-name="Aring" unicode="&#xc5;" horiz-adv-x="447" 
d="M222 770q-29 0 -47.5 18.5t-18.5 47.5q0 28 18.5 45.5t47.5 17.5t47.5 -17.5t18.5 -45.5q0 -29 -18.5 -47.5t-47.5 -18.5zM222 870q-16 0 -25.5 -9.5t-9.5 -25.5t9.5 -26t25.5 -10t25.5 10t9.5 26t-9.5 25.5t-25.5 9.5zM386 0l-46 179h-233l-46 -179h-48l185 700h51
l185 -700h-48zM118 221h211l-73 287l-32 133h-1l-32 -133z" />
    <glyph glyph-name="AE" unicode="&#xc6;" horiz-adv-x="678" 
d="M380 42h257v-42h-302v192h-199l-85 -192h-51l314 700h316v-42h-250v-281h232v-42h-232v-293zM154 233h181v416h-1l-54 -129z" />
    <glyph glyph-name="Ccedilla" unicode="&#xc7;" horiz-adv-x="474" 
d="M436 184q-7 -90 -52 -140.5t-123 -55.5l-13 -41q10 2 18 2q30 0 50 -18.5t20 -46.5q0 -34 -24 -53.5t-63 -19.5q-35 0 -59 19.5t-26 50.5h37q6 -36 49 -36q22 0 35.5 10.5t13.5 28.5t-11.5 28.5t-30.5 10.5q-20 0 -34 -7l-13 14l18 59q-76 5 -121 58.5t-45 148.5v308
q0 100 49 154t132 54q85 0 133.5 -50.5t54.5 -145.5h-44q-12 155 -144 155q-64 0 -100.5 -42.5t-36.5 -124.5v-308q0 -82 37.5 -124.5t101.5 -42.5q134 0 147 155h44z" />
    <glyph glyph-name="Egrave" unicode="&#xc8;" horiz-adv-x="446" 
d="M279 770h-44l-100 109h54zM126 42h279v-42h-324v700h317v-42h-272v-281h253v-42h-253v-293z" />
    <glyph glyph-name="Eacute" unicode="&#xc9;" horiz-adv-x="446" 
d="M324 879l-100 -109h-43l89 109h54zM126 42h279v-42h-324v700h317v-42h-272v-281h253v-42h-253v-293z" />
    <glyph glyph-name="Ecircumflex" unicode="&#xca;" horiz-adv-x="446" 
d="M244 847l-62 -77h-42l79 109h49l79 -109h-42zM126 42h279v-42h-324v700h317v-42h-272v-281h253v-42h-253v-293z" />
    <glyph glyph-name="Edieresis" unicode="&#xcb;" horiz-adv-x="446" 
d="M182 797q-15 0 -24.5 9t-9.5 24t9.5 24t24.5 9t24 -9t9 -24q0 -33 -33 -33zM304 797q-15 0 -24.5 9t-9.5 24t9.5 24t24.5 9q16 0 25 -9t9 -24q0 -33 -34 -33zM126 42h279v-42h-324v700h317v-42h-272v-281h253v-42h-253v-293z" />
    <glyph glyph-name="Igrave" unicode="&#xcc;" horiz-adv-x="207" 
d="M140 770h-44l-100 109h54zM81 0v700h45v-700h-45z" />
    <glyph glyph-name="Iacute" unicode="&#xcd;" horiz-adv-x="207" 
d="M62 770l90 109h54l-100 -109h-44zM81 0v700h45v-700h-45z" />
    <glyph glyph-name="Icircumflex" unicode="&#xce;" horiz-adv-x="207" 
d="M129 879l79 -109h-42l-61 77l-62 -77h-42l79 109h49zM81 0v700h45v-700h-45z" />
    <glyph glyph-name="Idieresis" unicode="&#xcf;" horiz-adv-x="216" 
d="M54 797q-33 0 -33 33q0 15 9 24t24 9t24.5 -9t9.5 -24t-9.5 -24t-24.5 -9zM162 797q-35 0 -35 33q0 15 9.5 24t25.5 9q15 0 24 -9t9 -24q0 -33 -33 -33zM84 0v700h46v-700h-46z" />
    <glyph glyph-name="Eth" unicode="&#xd0;" horiz-adv-x="506" 
d="M246 700q94 0 146 -52t52 -148v-295q0 -97 -52.5 -151t-145.5 -54h-152v335h-82v41h82v324h152zM399 207v291q0 79 -39.5 119t-113.5 40h-106v-281h106v-41h-106v-292h106q73 0 113 42t40 122z" />
    <glyph glyph-name="Ntilde" unicode="&#xd1;" horiz-adv-x="534" 
d="M311 797q-22 0 -45.5 20t-35.5 20q-23 0 -26 -37h-40q2 34 18.5 54t44.5 20q23 0 46.5 -20t34.5 -20q25 0 28 37h38q-3 -34 -19.5 -54t-43.5 -20zM81 0v700h47l223 -477q29 -60 59 -134l2 1q-5 98 -5 147v463h46v-700h-47l-225 480q-39 88 -56 131l-2 -1q3 -63 3 -145
v-465h-45z" />
    <glyph glyph-name="Ograve" unicode="&#xd2;" horiz-adv-x="512" 
d="M292 770h-44l-100 109h54zM256 -12q-90 0 -142 58t-52 161v285q0 104 51.5 162t142.5 58t143 -58t52 -162v-285q0 -103 -52 -161t-143 -58zM256 32q72 0 110.5 45t38.5 130v285q0 86 -38.5 131t-110.5 45q-71 0 -109.5 -45t-38.5 -131v-285q0 -85 38.5 -130t109.5 -45z
" />
    <glyph glyph-name="Oacute" unicode="&#xd3;" horiz-adv-x="512" 
d="M213 770l90 109h54l-100 -109h-44zM256 -12q-90 0 -142 58t-52 161v285q0 104 51.5 162t142.5 58t143 -58t52 -162v-285q0 -103 -52 -161t-143 -58zM256 32q72 0 110.5 45t38.5 130v285q0 86 -38.5 131t-110.5 45q-71 0 -109.5 -45t-38.5 -131v-285q0 -85 38.5 -130
t109.5 -45z" />
    <glyph glyph-name="Ocircumflex" unicode="&#xd4;" horiz-adv-x="512" 
d="M257 847l-62 -77h-42l79 109h49l79 -109h-42zM256 712q91 0 143 -58t52 -162v-285q0 -103 -52 -161t-143 -58q-90 0 -142 58t-52 161v285q0 104 51.5 162t142.5 58zM405 207v285q0 86 -38.5 131t-110.5 45q-71 0 -109.5 -45t-38.5 -131v-285q0 -85 38.5 -130t109.5 -45
q72 0 110.5 45t38.5 130z" />
    <glyph glyph-name="Otilde" unicode="&#xd5;" horiz-adv-x="512" 
d="M299 797q-22 0 -45.5 20t-35.5 20q-23 0 -26 -37h-40q2 34 18.5 54t44.5 20q23 0 46.5 -20t34.5 -20q25 0 28 37h38q-3 -34 -19.5 -54t-43.5 -20zM256 -12q-90 0 -142 58t-52 161v285q0 104 51.5 162t142.5 58t143 -58t52 -162v-285q0 -103 -52 -161t-143 -58zM256 32
q72 0 110.5 45t38.5 130v285q0 86 -38.5 131t-110.5 45q-71 0 -109.5 -45t-38.5 -131v-285q0 -85 38.5 -130t109.5 -45z" />
    <glyph glyph-name="Odieresis" unicode="&#xd6;" horiz-adv-x="512" 
d="M195 797q-15 0 -24.5 9t-9.5 24t9.5 24t24.5 9t24 -9t9 -24q0 -33 -33 -33zM317 797q-15 0 -24.5 9t-9.5 24t9.5 24t24.5 9q16 0 25 -9t9 -24q0 -33 -34 -33zM256 -12q-90 0 -142 58t-52 161v285q0 104 51.5 162t142.5 58t143 -58t52 -162v-285q0 -103 -52 -161t-143 -58
zM256 32q72 0 110.5 45t38.5 130v285q0 86 -38.5 131t-110.5 45q-71 0 -109.5 -45t-38.5 -131v-285q0 -85 38.5 -130t109.5 -45z" />
    <glyph glyph-name="multiply" unicode="&#xd7;" horiz-adv-x="428" 
d="M74 135l-29 29l140 140l-139 139l28 30l140 -140l141 139l28 -29l-140 -139l140 -140l-28 -29l-141 140z" />
    <glyph glyph-name="Oslash" unicode="&#xd8;" horiz-adv-x="509" 
d="M379 670q68 -57 68 -178v-284q0 -104 -51.5 -162t-141.5 -58q-43 0 -79 14l-17 -56h-43l23 77q-76 57 -76 185v284q0 104 51 162t141 58q50 0 89 -18l18 59h43zM108 208q0 -93 45 -138l177 580q-32 18 -76 18q-70 0 -108 -45t-38 -131v-284zM401 208v284q0 84 -37 130
l-176 -577q27 -13 66 -13q71 0 109 45t38 131z" />
    <glyph glyph-name="Ugrave" unicode="&#xd9;" horiz-adv-x="504" 
d="M287 770h-44l-100 109h54zM252 -9q-84 0 -133.5 53.5t-49.5 151.5v504h46v-504q0 -80 37 -121t100 -41t100 41t37 121v504h46v-504q0 -98 -49.5 -151.5t-133.5 -53.5z" />
    <glyph glyph-name="Uacute" unicode="&#xda;" horiz-adv-x="504" 
d="M209 770l90 109h54l-100 -109h-44zM252 -9q-84 0 -133.5 53.5t-49.5 151.5v504h46v-504q0 -80 37 -121t100 -41t100 41t37 121v504h46v-504q0 -98 -49.5 -151.5t-133.5 -53.5z" />
    <glyph glyph-name="Ucircumflex" unicode="&#xdb;" horiz-adv-x="504" 
d="M252 847l-62 -77h-42l79 109h49l79 -109h-42zM389 700h46v-504q0 -98 -49.5 -151.5t-133.5 -53.5t-133.5 53.5t-49.5 151.5v504h46v-504q0 -80 37 -121t100 -41t100 41t37 121v504z" />
    <glyph glyph-name="Udieresis" unicode="&#xdc;" horiz-adv-x="504" 
d="M191 797q-15 0 -24.5 9t-9.5 24t9.5 24t24.5 9t24 -9t9 -24q0 -33 -33 -33zM313 797q-15 0 -24.5 9t-9.5 24t9.5 24t24.5 9q16 0 25 -9t9 -24q0 -33 -34 -33zM252 -9q-84 0 -133.5 53.5t-49.5 151.5v504h46v-504q0 -80 37 -121t100 -41t100 41t37 121v504h46v-504
q0 -98 -49.5 -151.5t-133.5 -53.5z" />
    <glyph glyph-name="Yacute" unicode="&#xdd;" horiz-adv-x="413" 
d="M163 770l90 109h54l-100 -109h-44zM184 0v257l-177 443h49l112 -289q3 -10 39 -100l38 101l112 288h49l-177 -443v-257h-45z" />
    <glyph glyph-name="Thorn" unicode="&#xde;" horiz-adv-x="458" 
d="M236 574q95 0 145.5 -54.5t50.5 -156.5q0 -106 -51.5 -161.5t-143.5 -55.5h-111v-145h-45v699h45v-126h110zM237 189q149 0 150 174q0 168 -151 168h-110v-342h111z" />
    <glyph glyph-name="germandbls" unicode="&#xdf;" horiz-adv-x="450" 
d="M292 365q59 -13 89.5 -58t30.5 -117q0 -91 -49 -140.5t-136 -49.5h-66v43h66q139 0 139 148q0 71 -35.5 110.5t-105.5 39.5h-64v43h56q60 0 90 37.5t30 104.5q0 144 -115 144q-108 0 -108 -150v-520h-44v520q0 91 39.5 141.5t112.5 50.5q76 0 118 -50t42 -137
q0 -136 -90 -160z" />
    <glyph glyph-name="agrave" unicode="&#xe0;" horiz-adv-x="441" 
d="M258 606h-42l-85 110h52zM219 534q71 0 111.5 -44t40.5 -121v-369h-38l-4 57q-40 -68 -129 -68q-70 0 -113 42.5t-43 116.5t45.5 114t130.5 40h108v66q0 60 -28.5 92.5t-81.5 32.5q-50 0 -81 -28t-33 -73h-44q4 64 46.5 103t112.5 39zM206 31q58 0 90 33.5t32 93.5v104
h-109q-64 0 -97.5 -29.5t-33.5 -85.5q0 -55 32 -85.5t86 -30.5z" />
    <glyph glyph-name="aacute" unicode="&#xe1;" horiz-adv-x="441" 
d="M302 716l-84 -110h-43l75 110h52zM219 534q71 0 111.5 -44t40.5 -121v-369h-38l-4 57q-40 -68 -129 -68q-70 0 -113 42.5t-43 116.5t45.5 114t130.5 40h108v66q0 60 -28.5 92.5t-81.5 32.5q-50 0 -81 -28t-33 -73h-44q4 64 46.5 103t112.5 39zM206 31q58 0 90 33.5
t32 93.5v104h-109q-64 0 -97.5 -29.5t-33.5 -85.5q0 -55 32 -85.5t86 -30.5z" />
    <glyph glyph-name="acircumflex" unicode="&#xe2;" horiz-adv-x="441" 
d="M219 683l-62 -77h-41l79 109h48l79 -109h-41zM219 534q71 0 111.5 -44t40.5 -121v-369h-38l-4 57q-40 -68 -129 -68q-70 0 -113 42.5t-43 116.5t45.5 114t130.5 40h108v66q0 60 -28.5 92.5t-81.5 32.5q-50 0 -81 -28t-33 -73h-44q4 64 46.5 103t112.5 39zM206 31
q58 0 90 33.5t32 93.5v104h-109q-64 0 -97.5 -29.5t-33.5 -85.5q0 -55 32 -85.5t86 -30.5z" />
    <glyph glyph-name="atilde" unicode="&#xe3;" horiz-adv-x="441" 
d="M180 663q-23 0 -26 -37h-40q2 34 18.5 54t44.5 20q23 0 46.5 -20t34.5 -20q25 0 28 37h38q-3 -34 -19.5 -54t-43.5 -20q-22 0 -45.5 20t-35.5 20zM219 534q71 0 111.5 -44t40.5 -121v-369h-38l-4 57q-40 -68 -129 -68q-70 0 -113 42.5t-43 116.5t45.5 114t130.5 40h108
v66q0 60 -28.5 92.5t-81.5 32.5q-50 0 -81 -28t-33 -73h-44q4 64 46.5 103t112.5 39zM206 31q58 0 90 33.5t32 93.5v104h-109q-64 0 -97.5 -29.5t-33.5 -85.5q0 -55 32 -85.5t86 -30.5z" />
    <glyph glyph-name="adieresis" unicode="&#xe4;" horiz-adv-x="441" 
d="M164 628q-34 0 -34 33q0 15 9 24t25 9q15 0 24 -9t9 -24q0 -33 -33 -33zM275 628q-35 0 -35 33q0 15 9.5 24t25.5 9q15 0 24 -9t9 -24q0 -33 -33 -33zM219 534q71 0 111.5 -44t40.5 -121v-369h-38l-4 57q-40 -68 -129 -68q-70 0 -113 42.5t-43 116.5t45.5 114t130.5 40
h108v66q0 60 -28.5 92.5t-81.5 32.5q-50 0 -81 -28t-33 -73h-44q4 64 46.5 103t112.5 39zM206 31q58 0 90 33.5t32 93.5v104h-109q-64 0 -97.5 -29.5t-33.5 -85.5q0 -55 32 -85.5t86 -30.5z" />
    <glyph glyph-name="aring" unicode="&#xe5;" horiz-adv-x="441" 
d="M218 602q-29 0 -47 18t-18 48q0 28 18 45.5t47 17.5q30 0 48 -17t18 -46q0 -30 -18 -48t-48 -18zM218 702q-16 0 -25.5 -10t-9.5 -25q0 -16 9.5 -26t25.5 -10t25.5 10t9.5 26q0 15 -9.5 25t-25.5 10zM219 534q71 0 111.5 -44t40.5 -121v-369h-38l-4 57q-40 -68 -129 -68
q-70 0 -113 42.5t-43 116.5t45.5 114t130.5 40h108v66q0 60 -28.5 92.5t-81.5 32.5q-50 0 -81 -28t-33 -73h-44q4 64 46.5 103t112.5 39zM206 31q58 0 90 33.5t32 93.5v104h-109q-64 0 -97.5 -29.5t-33.5 -85.5q0 -55 32 -85.5t86 -30.5z" />
    <glyph glyph-name="ae" unicode="&#xe6;" horiz-adv-x="690" 
d="M594 164h43q0 -81 -43 -127.5t-117 -46.5q-99 0 -138 82q-16 -38 -52.5 -59.5t-87.5 -21.5q-70 0 -112.5 41.5t-42.5 112.5q0 72 45.5 109.5t132.5 37.5h95v83q0 55 -27 86t-76 31q-50 0 -79 -27t-31 -72h-43q3 64 44.5 102.5t110.5 38.5q90 0 125 -82q40 82 136 82
q73 0 115.5 -47t42.5 -130v-105h-274v-85q0 -65 30.5 -100t85.5 -35t86 34.5t31 97.5zM361 357v-66h230v66q0 65 -30 100t-84 35q-55 0 -85.5 -35t-30.5 -100zM317 147v105h-97q-132 0 -132 -108q0 -54 31.5 -83.5t88.5 -29.5q52 0 80.5 31.5t28.5 84.5z" />
    <glyph glyph-name="ccedilla" unicode="&#xe7;" horiz-adv-x="426" 
d="M383 171q-1 -82 -42 -129.5t-113 -51.5l-13 -43q10 2 18 2q30 0 50 -18.5t20 -46.5q0 -34 -24 -53.5t-63 -19.5q-35 0 -59 19.5t-26 50.5h37q6 -36 49 -36q22 0 35.5 10.5t13.5 28.5t-11.5 28.5t-30.5 10.5q-20 0 -34 -7l-13 14l19 61q-65 7 -102 53.5t-37 122.5v190
q0 83 43 130t116 47q77 0 121 -47.5t45 -132.5h-44q-1 67 -33 102.5t-89 35.5q-55 0 -85.5 -35t-30.5 -100v-190q0 -65 31 -100t86 -35q57 0 89.5 35.5t33.5 103.5h43z" />
    <glyph glyph-name="egrave" unicode="&#xe8;" horiz-adv-x="441" 
d="M258 603h-42l-85 110h52zM345 157h43q-6 -79 -49.5 -123t-120.5 -44q-74 0 -117.5 47.5t-43.5 129.5v190q0 83 44 130t120 47t121 -47.5t45 -129.5v-117h-287v-73q0 -65 31.5 -100t87.5 -35q112 0 126 125zM221 492q-57 0 -89 -35t-32 -100v-77h243v77q0 65 -32.5 100
t-89.5 35z" />
    <glyph glyph-name="eacute" unicode="&#xe9;" horiz-adv-x="441" 
d="M301 713l-84 -110h-43l75 110h52zM345 157h43q-6 -79 -49.5 -123t-120.5 -44q-74 0 -117.5 47.5t-43.5 129.5v190q0 83 44 130t120 47t121 -47.5t45 -129.5v-117h-287v-73q0 -65 31.5 -100t87.5 -35q112 0 126 125zM221 492q-57 0 -89 -35t-32 -100v-77h243v77
q0 65 -32.5 100t-89.5 35z" />
    <glyph glyph-name="ecircumflex" unicode="&#xea;" horiz-adv-x="441" 
d="M218 680l-62 -77h-41l79 109h48l79 -109h-41zM345 157h43q-6 -79 -49.5 -123t-120.5 -44q-74 0 -117.5 47.5t-43.5 129.5v190q0 83 44 130t120 47t121 -47.5t45 -129.5v-117h-287v-73q0 -65 31.5 -100t87.5 -35q112 0 126 125zM221 492q-57 0 -89 -35t-32 -100v-77h243
v77q0 65 -32.5 100t-89.5 35z" />
    <glyph glyph-name="edieresis" unicode="&#xeb;" horiz-adv-x="441" 
d="M163 625q-34 0 -34 33q0 15 9 24t25 9q15 0 24 -9t9 -24q0 -33 -33 -33zM274 625q-35 0 -35 33q0 15 9.5 24t25.5 9q15 0 24 -9t9 -24q0 -33 -33 -33zM345 157h43q-6 -79 -49.5 -123t-120.5 -44q-74 0 -117.5 47.5t-43.5 129.5v190q0 83 44 130t120 47t121 -47.5
t45 -129.5v-117h-287v-73q0 -65 31.5 -100t87.5 -35q112 0 126 125zM221 492q-57 0 -89 -35t-32 -100v-77h243v77q0 65 -32.5 100t-89.5 35z" />
    <glyph glyph-name="igrave" unicode="&#xec;" horiz-adv-x="182" 
d="M131 606h-42l-85 110h52zM70 0v523h43v-523h-43z" />
    <glyph glyph-name="iacute" unicode="&#xed;" horiz-adv-x="182" 
d="M48 606l75 110h52l-84 -110h-43zM70 0v523h43v-523h-43z" />
    <glyph glyph-name="icircumflex" unicode="&#xee;" horiz-adv-x="224" 
d="M136 715l75 -109h-41l-58 76l-58 -76h-41l75 109h48zM90 0v523h43v-523h-43z" />
    <glyph glyph-name="idieresis" unicode="&#xef;" horiz-adv-x="200" 
d="M46 628q-15 0 -24 9t-9 24t9 23.5t24 8.5q33 0 33 -32q0 -33 -33 -33zM154 628q-34 0 -34 33q0 32 34 32q15 0 24 -8.5t9 -23.5t-9 -24t-24 -9zM78 0v523h43v-523h-43z" />
    <glyph glyph-name="eth" unicode="&#xf0;" horiz-adv-x="445" 
d="M315 635q68 -81 68 -202v-265q0 -83 -44.5 -130.5t-121.5 -47.5q-74 0 -117 47.5t-43 130.5v164q0 83 42 130.5t111 47.5q87 0 130 -64q-4 103 -64 167l-90 -51l-13 27l82 45q-47 39 -108 57l14 39q79 -21 134 -73l70 39l12 -26zM339 168v164q0 65 -32 100.5t-88 35.5
q-57 0 -88 -35t-31 -101v-164q0 -65 31.5 -100.5t86.5 -35.5q57 0 89 35t32 101z" />
    <glyph glyph-name="ntilde" unicode="&#xf1;" horiz-adv-x="453" 
d="M186 660q-23 0 -26 -37h-40q2 34 18.5 54t44.5 20q23 0 46.5 -20t34.5 -20q25 0 28 37h38q-3 -34 -19.5 -54t-43.5 -20q-22 0 -45.5 20t-35.5 20zM254 534q64 0 100 -48.5t36 -147.5v-338h-43v332q0 161 -103 161q-58 0 -94.5 -47.5t-36.5 -126.5v-319h-43v523h37l6 -68
v-9q46 88 141 88z" />
    <glyph glyph-name="ograve" unicode="&#xf2;" horiz-adv-x="446" 
d="M262 606h-42l-85 110h52zM223 -11q-77 0 -121.5 47.5t-44.5 131.5v187q0 84 44.5 131.5t121.5 47.5q76 0 121 -47.5t45 -131.5v-187q0 -84 -45 -131.5t-121 -47.5zM223 31q58 0 90 35.5t32 101.5v187q0 66 -32 101.5t-90 35.5t-90.5 -35.5t-32.5 -101.5v-187
q0 -66 32.5 -101.5t90.5 -35.5z" />
    <glyph glyph-name="oacute" unicode="&#xf3;" horiz-adv-x="446" 
d="M179 606l75 110h52l-84 -110h-43zM223 -11q-77 0 -121.5 47.5t-44.5 131.5v187q0 84 44.5 131.5t121.5 47.5q76 0 121 -47.5t45 -131.5v-187q0 -84 -45 -131.5t-121 -47.5zM223 31q58 0 90 35.5t32 101.5v187q0 66 -32 101.5t-90 35.5t-90.5 -35.5t-32.5 -101.5v-187
q0 -66 32.5 -101.5t90.5 -35.5z" />
    <glyph glyph-name="ocircumflex" unicode="&#xf4;" horiz-adv-x="446" 
d="M223 683l-62 -77h-41l79 109h48l79 -109h-41zM223 534q76 0 121 -47.5t45 -131.5v-187q0 -84 -45 -131.5t-121 -47.5q-77 0 -121.5 47.5t-44.5 131.5v187q0 84 44.5 131.5t121.5 47.5zM345 168v187q0 66 -32 101.5t-90 35.5t-90.5 -35.5t-32.5 -101.5v-187
q0 -66 32.5 -101.5t90.5 -35.5t90 35.5t32 101.5z" />
    <glyph glyph-name="otilde" unicode="&#xf5;" horiz-adv-x="446" 
d="M265 623q-22 0 -45.5 20t-35.5 20q-23 0 -26 -37h-40q2 34 18.5 54t44.5 20q23 0 46.5 -20t34.5 -20q25 0 28 37h38q-3 -34 -19.5 -54t-43.5 -20zM223 -11q-77 0 -121.5 47.5t-44.5 131.5v187q0 84 44.5 131.5t121.5 47.5q76 0 121 -47.5t45 -131.5v-187
q0 -84 -45 -131.5t-121 -47.5zM223 31q58 0 90 35.5t32 101.5v187q0 66 -32 101.5t-90 35.5t-90.5 -35.5t-32.5 -101.5v-187q0 -66 32.5 -101.5t90.5 -35.5z" />
    <glyph glyph-name="odieresis" unicode="&#xf6;" horiz-adv-x="446" 
d="M168 628q-34 0 -34 33q0 15 9 24t25 9q15 0 24 -9t9 -24q0 -33 -33 -33zM279 628q-35 0 -35 33q0 15 9.5 24t25.5 9q15 0 24 -9t9 -24q0 -33 -33 -33zM223 -11q-77 0 -121.5 47.5t-44.5 131.5v187q0 84 44.5 131.5t121.5 47.5q76 0 121 -47.5t45 -131.5v-187
q0 -84 -45 -131.5t-121 -47.5zM223 31q58 0 90 35.5t32 101.5v187q0 66 -32 101.5t-90 35.5t-90.5 -35.5t-32.5 -101.5v-187q0 -66 32.5 -101.5t90.5 -35.5z" />
    <glyph glyph-name="divide" unicode="&#xf7;" horiz-adv-x="431" 
d="M216 406q-16 0 -27 11t-11 27t11 27t27 11t27 -11t11 -27t-11 -27t-27 -11zM49 288v41h333v-41h-333zM216 131q-16 0 -27 11t-11 26q0 16 11 27t27 11t27 -11t11 -27q0 -15 -11 -26t-27 -11z" />
    <glyph glyph-name="oslash" unicode="&#xf8;" horiz-adv-x="446" 
d="M334 497q55 -49 55 -142v-186q0 -83 -45 -131t-121 -48q-44 0 -80 17l-25 -65h-40l34 86q-55 49 -55 141v186q0 84 44.5 131.5t121.5 47.5q45 0 79 -17l26 66h39zM100 169q0 -62 29 -97l158 405q-27 15 -64 15q-58 0 -90.5 -35.5t-32.5 -101.5v-186zM345 169v186
q0 62 -29 97l-157 -405q27 -15 64 -15q58 0 90 35.5t32 101.5z" />
    <glyph glyph-name="ugrave" unicode="&#xf9;" horiz-adv-x="453" 
d="M261 603h-42l-85 110h52zM340 523h43v-523h-37l-6 68v9q-46 -88 -141 -88q-64 0 -100 48.5t-36 147.5v338h43v-332q0 -161 103 -161q58 0 94.5 47.5t36.5 126.5v319z" />
    <glyph glyph-name="uacute" unicode="&#xfa;" horiz-adv-x="453" 
d="M305 713l-84 -110h-43l75 110h52zM340 523h43v-523h-37l-6 68v9q-46 -88 -141 -88q-64 0 -100 48.5t-36 147.5v338h43v-332q0 -161 103 -161q58 0 94.5 47.5t36.5 126.5v319z" />
    <glyph glyph-name="ucircumflex" unicode="&#xfb;" horiz-adv-x="453" 
d="M222 680l-62 -77h-41l79 109h48l79 -109h-41zM340 523h43v-523h-37l-6 68v9q-46 -88 -141 -88q-64 0 -100 48.5t-36 147.5v338h43v-332q0 -161 103 -161q58 0 94.5 47.5t36.5 126.5v319z" />
    <glyph glyph-name="udieresis" unicode="&#xfc;" horiz-adv-x="453" 
d="M167 625q-34 0 -34 33q0 15 9 24t25 9q15 0 24 -9t9 -24q0 -33 -33 -33zM278 625q-35 0 -35 33q0 15 9.5 24t25.5 9q15 0 24 -9t9 -24q0 -33 -33 -33zM340 523h43v-523h-37l-6 68v9q-46 -88 -141 -88q-64 0 -100 48.5t-36 147.5v338h43v-332q0 -161 103 -161
q58 0 94.5 47.5t36.5 126.5v319z" />
    <glyph glyph-name="yacute" unicode="&#xfd;" horiz-adv-x="380" 
d="M277 716l-84 -110h-43l75 110h52zM321 523h46l-182 -596q-18 -56 -43 -85t-69 -29h-31v43h26q29 0 45.5 20t28.5 59l36 118l-165 470h48l91 -264l46 -139l43 139z" />
    <glyph glyph-name="thorn" unicode="&#xfe;" horiz-adv-x="450" 
d="M239 531q70 0 112 -48.5t42 -133.5v-166q0 -85 -42 -133.5t-112 -48.5q-38 0 -72 18t-55 50v-249h-42v901h42v-256q44 66 127 66zM350 183v166q0 69 -31.5 105.5t-88.5 36.5q-51 0 -84.5 -39t-33.5 -99v-174q0 -60 33.5 -99t84.5 -39q56 0 88 36.5t32 105.5z" />
    <glyph glyph-name="ydieresis" unicode="&#xff;" horiz-adv-x="380" 
d="M138 628q-34 0 -34 33q0 15 9 24t25 9q15 0 24 -9t9 -24q0 -33 -33 -33zM249 628q-35 0 -35 33q0 15 9.5 24t25.5 9q15 0 24 -9t9 -24q0 -33 -33 -33zM321 523h46l-182 -596q-18 -56 -43 -85t-69 -29h-31v43h26q29 0 45.5 20t28.5 59l36 118l-165 470h48l91 -264l46 -139
l43 139z" />
    <glyph glyph-name="Amacron" unicode="&#x100;" horiz-adv-x="447" 
d="M310 841v-39h-175v39h175zM386 0l-46 179h-233l-46 -179h-48l185 700h51l185 -700h-48zM118 221h211l-73 287l-32 133h-1l-32 -133z" />
    <glyph glyph-name="amacron" unicode="&#x101;" horiz-adv-x="441" 
d="M307 672v-37h-175v37h175zM219 534q71 0 111.5 -44t40.5 -121v-369h-38l-4 57q-40 -68 -129 -68q-70 0 -113 42.5t-43 116.5t45.5 114t130.5 40h108v66q0 60 -28.5 92.5t-81.5 32.5q-50 0 -81 -28t-33 -73h-44q4 64 46.5 103t112.5 39zM206 31q58 0 90 33.5t32 93.5v104
h-109q-64 0 -97.5 -29.5t-33.5 -85.5q0 -55 32 -85.5t86 -30.5z" />
    <glyph glyph-name="Abreve" unicode="&#x102;" horiz-adv-x="447" 
d="M222 768q-48 0 -76.5 29t-29.5 81h39q3 -73 67 -73q65 0 68 73h39q-1 -52 -29.5 -81t-77.5 -29zM386 0l-46 179h-233l-46 -179h-48l185 700h51l185 -700h-48zM118 221h211l-73 287l-32 133h-1l-32 -133z" />
    <glyph glyph-name="abreve" unicode="&#x103;" horiz-adv-x="441" 
d="M218 605q-48 0 -76 29.5t-30 81.5h39q3 -73 67 -73q65 0 68 73h39q-2 -52 -30 -81.5t-77 -29.5zM219 534q71 0 111.5 -44t40.5 -121v-369h-38l-4 57q-40 -68 -129 -68q-70 0 -113 42.5t-43 116.5t45.5 114t130.5 40h108v66q0 60 -28.5 92.5t-81.5 32.5q-50 0 -81 -28
t-33 -73h-44q4 64 46.5 103t112.5 39zM206 31q58 0 90 33.5t32 93.5v104h-109q-64 0 -97.5 -29.5t-33.5 -85.5q0 -55 32 -85.5t86 -30.5z" />
    <glyph glyph-name="Aogonek" unicode="&#x104;" horiz-adv-x="448" 
d="M359 -109q0 -21 13.5 -31.5t32.5 -10.5q16 0 28 3v-39q-15 -5 -35 -5q-39 0 -60 22.5t-21 54.5q0 62 69 115l-46 179h-233l-46 -179h-48l186 700h49l186 -700h-6q-69 -57 -69 -109zM118 221h211l-73 287l-32 133h-1l-32 -133z" />
    <glyph glyph-name="aogonek" unicode="&#x105;" horiz-adv-x="446" 
d="M341 -192q-40 0 -61 22.5t-21 54.5q0 61 77 115l-3 57q-38 -68 -125 -68q-74 0 -119 42t-45 116t46.5 114.5t131.5 40.5h109v66q0 60 -28.5 92.5t-83.5 32.5q-50 0 -81.5 -28t-33.5 -73h-44q4 64 47 103t113 39q73 0 113.5 -44t40.5 -121v-369q-73 -56 -73 -107
q0 -22 13 -33t34 -11q16 0 28 3v-39q-17 -5 -35 -5zM213 31q56 0 87 32.5t31 88.5v110h-110q-65 0 -99 -29.5t-34 -85.5q0 -55 34 -85.5t91 -30.5z" />
    <glyph glyph-name="Cacute" unicode="&#x106;" horiz-adv-x="474" 
d="M197 770l90 109h54l-100 -109h-44zM245 -12q-84 0 -133.5 54t-49.5 154v308q0 100 49 154t132 54q85 0 133.5 -50.5t54.5 -145.5h-44q-12 155 -144 155q-64 0 -100.5 -42.5t-36.5 -124.5v-308q0 -82 37.5 -124.5t101.5 -42.5q134 0 147 155h44q-7 -95 -56 -145.5
t-135 -50.5z" />
    <glyph glyph-name="cacute" unicode="&#x107;" horiz-adv-x="426" 
d="M173 606l75 110h52l-84 -110h-43zM217 -10q-74 0 -117 47.5t-43 129.5v190q0 83 43 130t116 47q77 0 121 -47.5t45 -132.5h-44q-1 67 -33 102.5t-89 35.5q-55 0 -85.5 -35t-30.5 -100v-190q0 -65 31 -100t86 -35q57 0 89.5 35.5t33.5 103.5h43q-1 -85 -45 -133t-121 -48z
" />
    <glyph glyph-name="Cdotaccent" unicode="&#x10a;" horiz-adv-x="474" 
d="M240 801q-18 0 -28.5 11t-10.5 28q0 18 10.5 28.5t28.5 10.5q17 0 28 -10.5t11 -28.5q0 -17 -11 -28t-28 -11zM245 -12q-84 0 -133.5 54t-49.5 154v308q0 100 49 154t132 54q85 0 133.5 -50.5t54.5 -145.5h-44q-12 155 -144 155q-64 0 -100.5 -42.5t-36.5 -124.5v-308
q0 -82 37.5 -124.5t101.5 -42.5q134 0 147 155h44q-7 -95 -56 -145.5t-135 -50.5z" />
    <glyph glyph-name="cdotaccent" unicode="&#x10b;" horiz-adv-x="426" 
d="M216 622q-17 0 -27.5 10.5t-10.5 28.5q0 17 10.5 28t27.5 11q18 0 28.5 -11t10.5 -28q0 -18 -10.5 -28.5t-28.5 -10.5zM217 -10q-74 0 -117 47.5t-43 129.5v190q0 83 43 130t116 47q77 0 121 -47.5t45 -132.5h-44q-1 67 -33 102.5t-89 35.5q-55 0 -85.5 -35t-30.5 -100
v-190q0 -65 31 -100t86 -35q57 0 89.5 35.5t33.5 103.5h43q-1 -85 -45 -133t-121 -48z" />
    <glyph glyph-name="Ccaron" unicode="&#x10c;" horiz-adv-x="474" 
d="M263 770h-49l-79 109h42l62 -77l61 77h42zM392 184h44q-7 -95 -56 -145.5t-135 -50.5q-84 0 -133.5 54t-49.5 154v308q0 100 49 154t132 54q85 0 133.5 -50.5t54.5 -145.5h-44q-12 155 -144 155q-64 0 -100.5 -42.5t-36.5 -124.5v-308q0 -82 37.5 -124.5t101.5 -42.5
q134 0 147 155z" />
    <glyph glyph-name="ccaron" unicode="&#x10d;" horiz-adv-x="426" 
d="M241 606h-48l-79 110h41l62 -77l62 77h41zM340 171h43q-1 -85 -45 -133t-121 -48q-74 0 -117 47.5t-43 129.5v190q0 83 43 130t116 47q77 0 121 -47.5t45 -132.5h-44q-1 67 -33 102.5t-89 35.5q-55 0 -85.5 -35t-30.5 -100v-190q0 -65 31 -100t86 -35q57 0 89.5 35.5
t33.5 103.5z" />
    <glyph glyph-name="Dcaron" unicode="&#x10e;" horiz-adv-x="493" 
d="M255 770h-49l-79 109h42l62 -77l61 77h42zM234 700q94 0 145.5 -52t51.5 -148v-295q0 -97 -52 -151t-145 -54h-153v700h153zM386 207v291q0 79 -39 119t-113 40h-108v-614h108q73 0 112.5 42t39.5 122z" />
    <glyph glyph-name="dcaron" unicode="&#x10f;" horiz-adv-x="459" 
d="M443 763h50l-27 -161h-32zM341 466v257h42v-723h-36l-5 55q-45 -66 -128 -66q-70 0 -113.5 49t-43.5 136v178q0 85 42.5 133.5t114.5 48.5q38 0 72 -18t55 -50zM223 29q51 0 84.5 37.5t33.5 101.5v188q0 60 -33.5 99t-84.5 39q-59 0 -91 -36t-32 -106v-178
q0 -70 33 -107.5t90 -37.5z" />
    <glyph glyph-name="Dcroat" unicode="&#x110;" horiz-adv-x="506" 
d="M246 700q94 0 146 -52t52 -148v-295q0 -97 -52.5 -151t-145.5 -54h-152v335h-82v41h82v324h152zM399 207v291q0 79 -39.5 119t-113.5 40h-106v-281h106v-41h-106v-292h106q73 0 113 42t40 122z" />
    <glyph glyph-name="dcroat" unicode="&#x111;" horiz-adv-x="461" 
d="M443 652v-35h-60v-617h-36l-5 55q-45 -66 -128 -66q-70 0 -113.5 49t-43.5 136v178q0 85 43 133.5t114 48.5q38 0 72 -18t55 -50v151h-103v35h103v71h42v-71h60zM223 29q51 0 84.5 37.5t33.5 101.5v188q0 60 -33.5 99t-84.5 39q-58 0 -90.5 -36.5t-32.5 -105.5v-178
q0 -70 33 -107.5t90 -37.5z" />
    <glyph glyph-name="Emacron" unicode="&#x112;" horiz-adv-x="446" 
d="M331 841v-39h-175v39h175zM126 42h279v-42h-324v700h317v-42h-272v-281h253v-42h-253v-293z" />
    <glyph glyph-name="emacron" unicode="&#x113;" horiz-adv-x="441" 
d="M306 669v-37h-175v37h175zM345 157h43q-6 -79 -49.5 -123t-120.5 -44q-74 0 -117.5 47.5t-43.5 129.5v190q0 83 44 130t120 47t121 -47.5t45 -129.5v-117h-287v-73q0 -65 31.5 -100t87.5 -35q112 0 126 125zM221 492q-57 0 -89 -35t-32 -100v-77h243v77q0 65 -32.5 100
t-89.5 35z" />
    <glyph glyph-name="Edotaccent" unicode="&#x116;" horiz-adv-x="446" 
d="M244 801q-18 0 -28.5 11t-10.5 28q0 18 10.5 28.5t28.5 10.5q17 0 28 -10.5t11 -28.5q0 -17 -11 -28t-28 -11zM126 42h279v-42h-324v700h317v-42h-272v-281h253v-42h-253v-293z" />
    <glyph glyph-name="edotaccent" unicode="&#x117;" horiz-adv-x="441" 
d="M217 619q-17 0 -27.5 10.5t-10.5 28.5q0 17 10.5 28t27.5 11q18 0 28.5 -11t10.5 -28q0 -18 -10.5 -28.5t-28.5 -10.5zM345 157h43q-6 -79 -49.5 -123t-120.5 -44q-74 0 -117.5 47.5t-43.5 129.5v190q0 83 44 130t120 47t121 -47.5t45 -129.5v-117h-287v-73
q0 -65 31.5 -100t87.5 -35q112 0 126 125zM221 492q-57 0 -89 -35t-32 -100v-77h243v77q0 65 -32.5 100t-89.5 35z" />
    <glyph glyph-name="Eogonek" unicode="&#x118;" horiz-adv-x="453" 
d="M383 -152q16 0 28 3v-39q-12 -4 -35 -4q-39 0 -60 22t-21 54q0 60 69 116h-283v700h317v-42h-272v-281h254v-42h-254v-293h279v-42q-68 -56 -68 -107q0 -22 13.5 -33.5t32.5 -11.5z" />
    <glyph glyph-name="eogonek" unicode="&#x119;" horiz-adv-x="443" 
d="M303 -191q-39 0 -60 23t-21 57q0 55 51 108v1q-26 -8 -53 -8q-76 0 -119.5 47.5t-43.5 129.5v190q0 82 44 129.5t119 47.5t119.5 -47t44.5 -130v-118h-284v-72q0 -65 31.5 -100t90.5 -35q57 0 89 33t36 92h43q-4 -45 -16 -72t-37 -54q-73 -79 -73 -133q0 -48 46 -48
q20 0 29 2v-39q-13 -4 -36 -4zM100 279h241v78q0 64 -31.5 99.5t-88.5 35.5t-89 -35t-32 -100v-78z" />
    <glyph glyph-name="Ecaron" unicode="&#x11a;" horiz-adv-x="446" 
d="M267 770h-49l-79 109h42l62 -77l61 77h42zM126 42h279v-42h-324v700h317v-42h-272v-281h253v-42h-253v-293z" />
    <glyph glyph-name="ecaron" unicode="&#x11b;" horiz-adv-x="441" 
d="M242 603h-48l-79 110h41l62 -77l62 77h41zM345 157h43q-6 -79 -49.5 -123t-120.5 -44q-74 0 -117.5 47.5t-43.5 129.5v190q0 83 44 130t120 47t121 -47.5t45 -129.5v-117h-287v-73q0 -65 31.5 -100t87.5 -35q112 0 126 125zM221 492q-57 0 -89 -35t-32 -100v-77h243v77
q0 65 -32.5 100t-89.5 35z" />
    <glyph glyph-name="Gbreve" unicode="&#x11e;" horiz-adv-x="490" 
d="M240 768q-48 0 -76.5 29t-29.5 81h39q3 -73 67 -73q65 0 68 73h39q-1 -52 -29.5 -81t-77.5 -29zM248 -10q-83 0 -134.5 54t-51.5 151v307q0 101 49.5 154.5t133.5 53.5q82 0 132.5 -50t53.5 -144h-45q-3 76 -40.5 113.5t-100.5 37.5q-64 0 -101.5 -41t-37.5 -124v-307
q0 -79 39.5 -120.5t102.5 -41.5q65 0 105 40.5t40 115.5v137h-146v41h190v-178q0 -93 -53 -146t-136 -53z" />
    <glyph glyph-name="gbreve" unicode="&#x11f;" horiz-adv-x="453" 
d="M222 605q-48 0 -76 29.5t-30 81.5h39q3 -73 67 -73q65 0 68 73h39q-2 -52 -30 -81.5t-77 -29.5zM346 523h38v-557q0 -73 -42.5 -115.5t-113.5 -42.5q-72 0 -115.5 40t-47.5 107h42q5 -51 36 -78.5t85 -27.5q53 0 82.5 30.5t29.5 86.5v108q-41 -62 -120 -62
q-72 0 -117.5 48t-45.5 130v159q0 87 44.5 136t116.5 49q82 0 124 -71zM226 53q52 0 83 35.5t31 96.5v176q0 61 -32.5 96.5t-81.5 35.5q-58 0 -92 -37t-34 -107v-159q0 -65 34.5 -101t91.5 -36z" />
    <glyph glyph-name="Gdotaccent" unicode="&#x120;" horiz-adv-x="490" 
d="M240 801q-18 0 -28.5 11t-10.5 28q0 18 10.5 28.5t28.5 10.5q17 0 28 -10.5t11 -28.5q0 -17 -11 -28t-28 -11zM248 -10q-83 0 -134.5 54t-51.5 151v307q0 101 49.5 154.5t133.5 53.5q82 0 132.5 -50t53.5 -144h-45q-3 76 -40.5 113.5t-100.5 37.5q-64 0 -101.5 -41
t-37.5 -124v-307q0 -79 39.5 -120.5t102.5 -41.5q65 0 105 40.5t40 115.5v137h-146v41h190v-178q0 -93 -53 -146t-136 -53z" />
    <glyph glyph-name="gdotaccent" unicode="&#x121;" horiz-adv-x="453" 
d="M222 622q-17 0 -27.5 10.5t-10.5 28.5q0 17 10.5 28t27.5 11q18 0 28.5 -11t10.5 -28q0 -18 -10.5 -28.5t-28.5 -10.5zM346 523h38v-557q0 -73 -42.5 -115.5t-113.5 -42.5q-72 0 -115.5 40t-47.5 107h42q5 -51 36 -78.5t85 -27.5q53 0 82.5 30.5t29.5 86.5v108
q-41 -62 -120 -62q-72 0 -117.5 48t-45.5 130v159q0 87 44.5 136t116.5 49q82 0 124 -71zM226 53q52 0 83 35.5t31 96.5v176q0 61 -32.5 96.5t-81.5 35.5q-58 0 -92 -37t-34 -107v-159q0 -65 34.5 -101t91.5 -36z" />
    <glyph glyph-name="uni0122" unicode="&#x122;" horiz-adv-x="490" 
d="M248 -10q-83 0 -134.5 54t-51.5 151v307q0 101 49.5 154.5t133.5 53.5q82 0 132.5 -50t53.5 -144h-45q-3 76 -40.5 113.5t-100.5 37.5q-64 0 -101.5 -41t-37.5 -124v-307q0 -79 39.5 -120.5t102.5 -41.5q65 0 105 40.5t40 115.5v137h-146v41h190v-178q0 -93 -53 -146
t-136 -53zM201 -236l18 169h49l-32 -169h-35z" />
    <glyph glyph-name="uni0123" unicode="&#x123;" horiz-adv-x="453" 
d="M254 608h-53l-17 168h33zM346 523h38v-557q0 -73 -42.5 -115.5t-113.5 -42.5q-72 0 -115.5 40t-47.5 107h42q5 -51 36 -78.5t85 -27.5q53 0 82.5 30.5t29.5 86.5v108q-41 -62 -120 -62q-72 0 -117.5 48t-45.5 130v159q0 87 44.5 136t116.5 49q82 0 124 -71zM226 53
q52 0 83 35.5t31 96.5v176q0 61 -32.5 96.5t-81.5 35.5q-58 0 -92 -37t-34 -107v-159q0 -65 34.5 -101t91.5 -36z" />
    <glyph glyph-name="Hbar" unicode="&#x126;" horiz-adv-x="538" 
d="M514 565v-35h-65v-530h-45v335h-269v-335h-45v530h-66v35h66v135h45v-135h269v135h45v-135h65zM404 378v152h-269v-152h269z" />
    <glyph glyph-name="hbar" unicode="&#x127;" horiz-adv-x="456" 
d="M256 534q137 0 137 -208v-326h-44v323q0 170 -103 170q-58 0 -94.5 -47.5t-36.5 -127.5v-318h-43v614h-63v35h63v74h43v-74h102v-35h-102v-170q44 90 141 90z" />
    <glyph glyph-name="Imacron" unicode="&#x12a;" horiz-adv-x="207" 
d="M18 802v39h175v-39h-175zM81 0v700h45v-700h-45z" />
    <glyph glyph-name="imacron" unicode="&#x12b;" horiz-adv-x="180" 
d="M7 634v38h166v-38h-166zM68 0v523h43v-523h-43z" />
    <glyph glyph-name="Iogonek" unicode="&#x12e;" horiz-adv-x="204" 
d="M120 -151q16 0 28 3v-39q-17 -5 -36 -5q-40 0 -61 22.5t-21 56.5q0 60 49 113v700h46v-700q-53 -56 -53 -106q0 -45 48 -45z" />
    <glyph glyph-name="iogonek" unicode="&#x12f;" horiz-adv-x="187" 
d="M94 625q-14 0 -23 9t-9 23t9 23.5t23 9.5t23 -9.5t9 -23.5q0 -13 -9 -22.5t-23 -9.5zM110 -151q16 0 28 3v-39q-17 -5 -35 -5q-40 0 -60.5 22t-20.5 54q0 58 50 115v521h43v-520q-51 -54 -51 -104q0 -23 13 -35t33 -12z" />
    <glyph glyph-name="Idotaccent" unicode="&#x130;" horiz-adv-x="207" 
d="M105 801q-18 0 -28.5 11t-10.5 28q0 18 10.5 28.5t28.5 10.5q17 0 28 -10.5t11 -28.5q0 -17 -11 -28t-28 -11zM81 0v700h45v-700h-45z" />
    <glyph glyph-name="dotlessi" unicode="&#x131;" horiz-adv-x="182" 
d="M70 0v523h43v-523h-43z" />
    <glyph glyph-name="uni0136" unicode="&#x136;" horiz-adv-x="473" 
d="M214 396l252 -396h-54l-227 357l-59 -78v-279h-45v700h45v-351l44 62l213 289h56zM216 -236l18 169h49l-32 -169h-35z" />
    <glyph glyph-name="uni0137" unicode="&#x137;" horiz-adv-x="414" 
d="M195 307l213 -307h-52l-191 273l-52 -57v-216h-43v723h43v-448l217 248h56zM180 -236l17 169h49l-32 -169h-34z" />
    <glyph glyph-name="Lacute" unicode="&#x139;" horiz-adv-x="395" 
d="M214 879l-100 -109h-44l90 109h54zM126 43h258v-43h-303v700h45v-657z" />
    <glyph glyph-name="lacute" unicode="&#x13a;" horiz-adv-x="187" 
d="M51 770l90 109h54l-100 -109h-44zM72 0v723h43v-723h-43z" />
    <glyph glyph-name="uni013B" unicode="&#x13b;" horiz-adv-x="395" 
d="M126 43h258v-43h-303v700h45v-657zM191 -236l18 169h49l-32 -169h-35z" />
    <glyph glyph-name="uni013C" unicode="&#x13c;" horiz-adv-x="201" 
d="M75 0v723h44v-723h-44zM73 -236l17 169h49l-31 -169h-35z" />
    <glyph glyph-name="Lcaron" unicode="&#x13d;" horiz-adv-x="383" 
d="M126 42h246v-42h-291v700h45v-658zM301 700l-27 -158h-31l9 158h49z" />
    <glyph glyph-name="lcaron" unicode="&#x13e;" horiz-adv-x="190" 
d="M166 598l9 165h49l-27 -165h-31zM72 0v723h43v-723h-43z" />
    <glyph glyph-name="Lslash" unicode="&#x141;" horiz-adv-x="410" 
d="M153 42h246v-42h-291v328l-82 -31v43l82 32v328h45v-311l136 53v-44l-136 -52v-304z" />
    <glyph glyph-name="lslash" unicode="&#x142;" horiz-adv-x="227" 
d="M209 457v-41l-75 -27v-389h-43v374l-73 -26v42l73 26v305h43v-290z" />
    <glyph glyph-name="Nacute" unicode="&#x143;" horiz-adv-x="534" 
d="M225 770l90 109h54l-100 -109h-44zM81 0v700h47l223 -477q29 -60 59 -134l2 1q-5 98 -5 147v463h46v-700h-47l-225 480q-39 88 -56 131l-2 -1q3 -63 3 -145v-465h-45z" />
    <glyph glyph-name="nacute" unicode="&#x144;" horiz-adv-x="453" 
d="M308 713l-84 -110h-43l75 110h52zM254 534q64 0 100 -48.5t36 -147.5v-338h-43v332q0 161 -103 161q-58 0 -94.5 -47.5t-36.5 -126.5v-319h-43v523h37l6 -68v-9q46 88 141 88z" />
    <glyph glyph-name="uni0145" unicode="&#x145;" horiz-adv-x="534" 
d="M81 0v700h47l223 -477q29 -60 59 -134l2 1q-5 98 -5 147v463h46v-700h-47l-225 480q-39 88 -56 131l-2 -1q3 -63 3 -145v-465h-45zM228 -236l18 169h49l-32 -169h-35z" />
    <glyph glyph-name="uni0146" unicode="&#x146;" horiz-adv-x="453" 
d="M254 534q64 0 100 -48.5t36 -147.5v-338h-43v332q0 161 -103 161q-58 0 -94.5 -47.5t-36.5 -126.5v-319h-43v523h37l6 -68v-9q46 88 141 88zM197 -236l17 169h49l-32 -169h-34z" />
    <glyph glyph-name="Ncaron" unicode="&#x147;" horiz-adv-x="534" 
d="M291 770h-49l-79 109h42l62 -77l61 77h42zM407 700h46v-700h-47l-225 480q-39 88 -56 131l-2 -1q3 -63 3 -145v-465h-45v700h47l223 -477q29 -60 59 -134l2 1q-5 98 -5 147v463z" />
    <glyph glyph-name="ncaron" unicode="&#x148;" horiz-adv-x="453" 
d="M249 603h-48l-79 110h41l62 -77l62 77h41zM254 534q64 0 100 -48.5t36 -147.5v-338h-43v332q0 161 -103 161q-58 0 -94.5 -47.5t-36.5 -126.5v-319h-43v523h37l6 -68v-9q46 88 141 88z" />
    <glyph glyph-name="Eng" unicode="&#x14a;" horiz-adv-x="534" 
d="M407 700h46v-736q0 -73 -40.5 -116.5t-118.5 -44.5v41q115 4 115 120v32l-230 489q-28 59 -54 126l-2 -1q3 -63 3 -145v-465h-45v700h47l226 -482l58 -138h2q-7 96 -7 154v466z" />
    <glyph glyph-name="eng" unicode="&#x14b;" horiz-adv-x="453" 
d="M231 -198v41q116 4 116 124v365q0 161 -103 161q-58 0 -94.5 -47.5t-36.5 -126.5v-319h-43v523h37l6 -78q44 89 141 89q136 0 136 -196v-371q0 -77 -40 -120.5t-119 -44.5z" />
    <glyph glyph-name="Omacron" unicode="&#x14c;" horiz-adv-x="512" 
d="M169 802v39h175v-39h-175zM256 -12q-90 0 -142 58t-52 161v285q0 104 51.5 162t142.5 58t143 -58t52 -162v-285q0 -103 -52 -161t-143 -58zM256 32q72 0 110.5 45t38.5 130v285q0 86 -38.5 131t-110.5 45q-71 0 -109.5 -45t-38.5 -131v-285q0 -85 38.5 -130t109.5 -45z
" />
    <glyph glyph-name="omacron" unicode="&#x14d;" horiz-adv-x="446" 
d="M136 635v37h175v-37h-175zM223 -11q-77 0 -121.5 47.5t-44.5 131.5v187q0 84 44.5 131.5t121.5 47.5q76 0 121 -47.5t45 -131.5v-187q0 -84 -45 -131.5t-121 -47.5zM223 31q58 0 90 35.5t32 101.5v187q0 66 -32 101.5t-90 35.5t-90.5 -35.5t-32.5 -101.5v-187
q0 -66 32.5 -101.5t90.5 -35.5z" />
    <glyph glyph-name="Ohungarumlaut" unicode="&#x150;" horiz-adv-x="512" 
d="M173 770l71 109h51l-82 -109h-40zM267 770l75 109h50l-85 -109h-40zM256 -12q-90 0 -142 58t-52 161v285q0 104 51.5 162t142.5 58t143 -58t52 -162v-285q0 -103 -52 -161t-143 -58zM256 32q72 0 110.5 45t38.5 130v285q0 86 -38.5 131t-110.5 45q-71 0 -109.5 -45
t-38.5 -131v-285q0 -85 38.5 -130t109.5 -45z" />
    <glyph glyph-name="ohungarumlaut" unicode="&#x151;" horiz-adv-x="446" 
d="M138 606l71 110h51l-82 -110h-40zM232 606l75 110h50l-85 -110h-40zM223 -11q-77 0 -121.5 47.5t-44.5 131.5v187q0 84 44.5 131.5t121.5 47.5q76 0 121 -47.5t45 -131.5v-187q0 -84 -45 -131.5t-121 -47.5zM223 31q58 0 90 35.5t32 101.5v187q0 66 -32 101.5t-90 35.5
t-90.5 -35.5t-32.5 -101.5v-187q0 -66 32.5 -101.5t90.5 -35.5z" />
    <glyph glyph-name="OE" unicode="&#x152;" horiz-adv-x="769" 
d="M450 42h277v-42h-323v65q-48 -77 -147 -77q-91 0 -143 58t-52 161v285q0 104 52 162t143 58q100 0 147 -81v69h316v-42h-270v-281h252v-42h-252v-293zM257 32q70 0 108.5 45t38.5 130v285q0 86 -38.5 131t-108.5 45q-72 0 -110.5 -45t-38.5 -131v-285q0 -85 38.5 -130
t110.5 -45z" />
    <glyph glyph-name="oe" unicode="&#x153;" horiz-adv-x="720" 
d="M624 164h43q-3 -82 -46.5 -128t-118.5 -46q-49 0 -85.5 24t-54.5 67q-39 -91 -142 -91q-75 0 -119 47.5t-44 130.5v185q0 83 44 130.5t119 47.5q103 0 142 -92q18 44 54.5 68t85.5 24q74 0 118 -47t44 -130v-112h-280v-75q0 -65 31 -100t87 -35q57 0 88 34t34 98z
M340 168v185q0 65 -31.5 100.5t-88.5 35.5q-56 0 -88 -35.5t-32 -100.5v-185q0 -65 32 -100.5t88 -35.5q57 0 88.5 35.5t31.5 100.5zM384 354v-74h236v74q0 65 -31 100t-87 35t-87 -35t-31 -100z" />
    <glyph glyph-name="Racute" unicode="&#x154;" horiz-adv-x="472" 
d="M327 879l-100 -109h-44l90 109h54zM387 0l-168 285h-93v-285h-45v700h153q93 0 142.5 -52t49.5 -150q0 -91 -41.5 -146t-116.5 -65l171 -287h-52zM126 657v-330h112q68 0 105 43.5t37 125.5q0 161 -146 161h-108z" />
    <glyph glyph-name="racute" unicode="&#x155;" horiz-adv-x="324" 
d="M265 716l-84 -110h-43l75 110h52zM253 534q33 0 54 -6v-46q-28 9 -63 9q-58 0 -94.5 -47t-36.5 -125v-318h-43v522h37l6 -66v-12q46 89 140 89z" />
    <glyph glyph-name="uni0156" unicode="&#x156;" horiz-adv-x="472" 
d="M268 287l171 -287h-52l-168 285h-93v-285h-45v700h153q93 0 142.5 -52t49.5 -150q0 -91 -41.5 -146t-116.5 -65zM126 657v-330h112q68 0 105 43.5t37 125.5q0 161 -146 161h-108zM199 -236l18 169h49l-32 -169h-35z" />
    <glyph glyph-name="uni0157" unicode="&#x157;" horiz-adv-x="324" 
d="M253 534q33 0 54 -6v-46q-28 9 -63 9q-58 0 -94.5 -47t-36.5 -125v-318h-43v522h37l6 -66v-12q46 89 140 89zM65 -236l17 169h49l-32 -169h-34z" />
    <glyph glyph-name="Rcaron" unicode="&#x158;" horiz-adv-x="472" 
d="M250 770h-49l-79 109h42l62 -77l61 77h42zM387 0l-168 285h-93v-285h-45v700h153q93 0 142.5 -52t49.5 -150q0 -91 -41.5 -146t-116.5 -65l171 -287h-52zM126 657v-330h112q68 0 105 43.5t37 125.5q0 161 -146 161h-108z" />
    <glyph glyph-name="rcaron" unicode="&#x159;" horiz-adv-x="324" 
d="M206 606h-48l-79 110h41l62 -77l62 77h41zM253 534q33 0 54 -6v-46q-28 9 -63 9q-58 0 -94.5 -47t-36.5 -125v-318h-43v522h37l6 -66v-12q46 89 140 89z" />
    <glyph glyph-name="Sacute" unicode="&#x15a;" horiz-adv-x="440" 
d="M177 770l90 109h54l-100 -109h-44zM220 -12q-81 0 -130 50t-53 133h45q4 -67 40 -103t97 -36q64 0 99 37t35 97q0 48 -31.5 86t-77 66l-91 57t-77 72.5t-31.5 99.5q0 72 48.5 118.5t123.5 46.5q76 0 123 -49t52 -130h-46q-4 66 -38 100.5t-89 34.5q-58 0 -93 -33t-35 -88
q0 -40 23 -73.5t57 -55l74 -48t74 -51.5t57 -64.5t23 -88.5q0 -74 -48 -126t-131 -52z" />
    <glyph glyph-name="sacute" unicode="&#x15b;" horiz-adv-x="395" 
d="M152 606l75 110h52l-84 -110h-43zM202 -11q-75 0 -120 42.5t-46 116.5h43q1 -57 33 -87t90 -30q50 0 80.5 26t30.5 70q0 38 -28 64.5t-67.5 42.5t-79.5 34t-68 51t-28 81q0 60 42 97t108 37q70 0 111.5 -40t43.5 -108h-43q-1 51 -30.5 79t-81.5 28q-48 0 -77 -25.5
t-29 -68.5q0 -37 28 -62t68 -41t79.5 -34t67.5 -52t28 -84q0 -61 -44 -99t-111 -38z" />
    <glyph glyph-name="Scedilla" unicode="&#x15e;" horiz-adv-x="440" 
d="M399 166q0 -72 -45.5 -123t-124.5 -55l-13 -41q10 2 19 2q29 0 49 -18.5t20 -46.5q0 -34 -24 -53.5t-62 -19.5q-35 0 -59.5 19.5t-25.5 50.5h37q5 -36 49 -36q22 0 35.5 10.5t13.5 28.5q0 39 -43 39q-21 0 -33 -7l-14 14l19 59q-72 7 -114 56t-46 126h45q4 -67 40 -103
t97 -36q64 0 99 37t35 97q0 48 -31.5 86t-77 66l-91 57t-77 72.5t-31.5 99.5q0 72 48.5 118.5t123.5 46.5q76 0 123 -49t52 -130h-46q-4 66 -38 100.5t-89 34.5q-58 0 -93 -33t-35 -88q0 -40 23 -73.5t57 -55l74 -48t74 -51.5t57 -64.5t23 -88.5z" />
    <glyph glyph-name="scedilla" unicode="&#x15f;" horiz-adv-x="395" 
d="M357 126q0 -59 -42 -97t-107 -40l-13 -42q10 2 18 2q30 0 50 -18.5t20 -46.5q0 -34 -24 -53.5t-63 -19.5q-35 0 -59 19.5t-26 50.5h37q6 -36 49 -36q22 0 35.5 10.5t13.5 28.5t-11.5 28.5t-30.5 10.5q-20 0 -34 -7l-13 14l19 60q-64 8 -101.5 49.5t-38.5 108.5h43
q1 -57 33 -87t90 -30q50 0 80.5 26t30.5 70q0 38 -28 64.5t-67.5 42.5t-79.5 34t-68 51t-28 81q0 60 42 97t108 37q70 0 111.5 -40t43.5 -108h-43q-1 51 -30.5 79t-81.5 28q-48 0 -77 -25.5t-29 -68.5q0 -37 28 -62t68 -41t79.5 -34t67.5 -52t28 -84z" />
    <glyph glyph-name="Scaron" unicode="&#x160;" horiz-adv-x="440" 
d="M243 770h-49l-79 109h42l62 -77l61 77h42zM91 547q0 -40 23 -73.5t57 -55l74 -48t74 -51.5t57 -64.5t23 -88.5q0 -74 -48 -126t-131 -52q-81 0 -130 50t-53 133h45q4 -67 40 -103t97 -36q64 0 99 37t35 97q0 48 -31.5 86t-77 66l-91 57t-77 72.5t-31.5 99.5
q0 72 48.5 118.5t123.5 46.5q76 0 123 -49t52 -130h-46q-4 66 -38 100.5t-89 34.5q-58 0 -93 -33t-35 -88z" />
    <glyph glyph-name="scaron" unicode="&#x161;" horiz-adv-x="395" 
d="M219 606h-48l-79 110h41l62 -77l62 77h41zM86 399q0 -37 28 -62t68 -41t79.5 -34t67.5 -52t28 -84q0 -61 -44 -99t-111 -38q-75 0 -120 42.5t-46 116.5h43q1 -57 33 -87t90 -30q50 0 80.5 26t30.5 70q0 38 -28 64.5t-67.5 42.5t-79.5 34t-68 51t-28 81q0 60 42 97t108 37
q70 0 111.5 -40t43.5 -108h-43q-1 51 -30.5 79t-81.5 28q-48 0 -77 -25.5t-29 -68.5z" />
    <glyph glyph-name="uni0162" unicode="&#x162;" horiz-adv-x="401" 
d="M222 0h-6l-16 -53q10 2 18 2q30 0 50 -18.5t20 -46.5q0 -34 -24 -53.5t-63 -19.5q-35 0 -59 19.5t-26 50.5h37q6 -36 49 -36q22 0 35.5 10.5t13.5 28.5t-11.5 28.5t-30.5 10.5q-20 0 -34 -7l-13 14l22 70h-7v657h-156v43h359v-43h-158v-657z" />
    <glyph glyph-name="uni0163" unicode="&#x163;" horiz-adv-x="288" 
d="M239 -4q-27 0 -50 6l-20 -55q12 2 20 2q28 0 48 -19.5t20 -47.5q0 -35 -24 -55t-63 -20q-35 0 -59 20t-26 51h38q5 -37 49 -37q22 0 35.5 11t13.5 30t-12 30t-31 11q-20 0 -34 -7l-14 13l30 85q-62 35 -62 130v339h-77v40h77v122h43v-122h113v-40h-113v-339
q0 -107 98 -107h25v-41h-25z" />
    <glyph glyph-name="Tcaron" unicode="&#x164;" horiz-adv-x="401" 
d="M223 770h-49l-79 109h42l62 -77l61 77h42zM380 700v-43h-158v-657h-45v657h-156v43h359z" />
    <glyph glyph-name="tcaron" unicode="&#x165;" horiz-adv-x="292" 
d="M259 756l-29 -158h-32l12 158h49zM239 37h25v-41h-25q-69 0 -105 38t-36 110v339h-77v40h77v122h43v-122h113v-40h-113v-339q0 -107 98 -107z" />
    <glyph glyph-name="Tbar" unicode="&#x166;" horiz-adv-x="401" 
d="M380 657h-157v-276h87v-35h-87v-346h-45v346h-86v35h86v276h-157v43h359v-43z" />
    <glyph glyph-name="tbar" unicode="&#x167;" horiz-adv-x="288" 
d="M239 37h25v-41h-25q-69 0 -105 38t-36 110v136h-63v35h63v168h-77v40h77v122h43v-122h113v-40h-113v-168h87v-35h-87v-136q0 -107 98 -107z" />
    <glyph glyph-name="Umacron" unicode="&#x16a;" horiz-adv-x="504" 
d="M165 802v39h175v-39h-175zM252 -9q-84 0 -133.5 53.5t-49.5 151.5v504h46v-504q0 -80 37 -121t100 -41t100 41t37 121v504h46v-504q0 -98 -49.5 -151.5t-133.5 -53.5z" />
    <glyph glyph-name="umacron" unicode="&#x16b;" horiz-adv-x="453" 
d="M309 669v-37h-175v37h175zM340 523h43v-523h-37l-6 68v9q-46 -88 -141 -88q-64 0 -100 48.5t-36 147.5v338h43v-332q0 -161 103 -161q58 0 94.5 47.5t36.5 126.5v319z" />
    <glyph glyph-name="Uring" unicode="&#x16e;" horiz-adv-x="504" 
d="M252 770q-29 0 -47.5 18.5t-18.5 47.5q0 28 18.5 45.5t47.5 17.5t47.5 -17.5t18.5 -45.5q0 -29 -18.5 -47.5t-47.5 -18.5zM252 799q16 0 25.5 10t9.5 26t-9.5 25.5t-25.5 9.5t-25.5 -9.5t-9.5 -25.5t9.5 -26t25.5 -10zM252 -9q-84 0 -133.5 53.5t-49.5 151.5v504h46v-504
q0 -80 37 -121t100 -41t100 41t37 121v504h46v-504q0 -98 -49.5 -151.5t-133.5 -53.5z" />
    <glyph glyph-name="uring" unicode="&#x16f;" horiz-adv-x="453" 
d="M221 599q-29 0 -47 18t-18 48q0 28 18 45.5t47 17.5q30 0 48 -17t18 -46q0 -30 -18 -48t-48 -18zM221 699q-16 0 -25.5 -10t-9.5 -25q0 -16 9.5 -26t25.5 -10t25.5 10t9.5 26q0 15 -9.5 25t-25.5 10zM340 523h43v-523h-37l-6 68v9q-46 -88 -141 -88q-64 0 -100 48.5
t-36 147.5v338h43v-332q0 -161 103 -161q58 0 94.5 47.5t36.5 126.5v319z" />
    <glyph glyph-name="Uhungarumlaut" unicode="&#x170;" horiz-adv-x="504" 
d="M168 770l71 109h51l-82 -109h-40zM262 770l75 109h50l-85 -109h-40zM252 -9q-84 0 -133.5 53.5t-49.5 151.5v504h46v-504q0 -80 37 -121t100 -41t100 41t37 121v504h46v-504q0 -98 -49.5 -151.5t-133.5 -53.5z" />
    <glyph glyph-name="uhungarumlaut" unicode="&#x171;" horiz-adv-x="453" 
d="M259 713l-82 -110h-40l71 110h51zM271 603h-40l75 110h50zM340 523h43v-523h-37l-6 68v9q-46 -88 -141 -88q-64 0 -100 48.5t-36 147.5v338h43v-332q0 -161 103 -161q58 0 94.5 47.5t36.5 126.5v319z" />
    <glyph glyph-name="Uogonek" unicode="&#x172;" horiz-adv-x="500" 
d="M314 -192q-39 0 -59.5 22.5t-20.5 54.5q0 57 63 113v1q-22 -8 -46 -8q-83 0 -132.5 52.5t-49.5 148.5v508h46v-508q0 -77 36.5 -117.5t98.5 -40.5q63 0 99.5 40.5t36.5 117.5v508h45v-508q0 -105 -68 -164q-87 -77 -87 -135q0 -22 13 -33t32 -11q17 0 29 3v-39
q-17 -5 -36 -5z" />
    <glyph glyph-name="uogonek" unicode="&#x173;" horiz-adv-x="454" 
d="M360 -151q12 0 24 3v-39q-15 -5 -33 -5q-39 0 -59.5 22.5t-20.5 53.5q0 61 75 116l-6 68v10q-44 -89 -140 -89q-137 0 -137 196v338h43v-332q0 -161 103 -161q59 0 95 47.5t36 126.5v319h43v-523q-70 -57 -70 -108q0 -21 13 -32t34 -11z" />
    <glyph glyph-name="Wcircumflex" unicode="&#x174;" horiz-adv-x="690" 
d="M346 847l-62 -77h-42l79 109h49l79 -109h-42zM629 700h48l-153 -700h-51l-95 432q-16 68 -32 189h-2q-16 -121 -32 -189l-95 -432h-51l-153 700h48l97 -474q26 -124 32 -160h2l33 166l95 457h50l94 -451q24 -124 34 -172h2l33 165z" />
    <glyph glyph-name="wcircumflex" unicode="&#x175;" horiz-adv-x="598" 
d="M297 680l-62 -77h-41l79 109h48l79 -109h-41zM539 523h46l-130 -523h-48l-80 321q-15 62 -28 132h-1q-8 -56 -27 -132l-81 -321h-47l-130 523h46l77 -332q6 -26 17 -78.5t13 -59.5h1q30 142 32 150l77 310h46l77 -310q2 -8 32 -150h1q2 7 13 59.5t17 78.5z" />
    <glyph glyph-name="Ycircumflex" unicode="&#x176;" horiz-adv-x="413" 
d="M207 847l-62 -77h-42l79 109h49l79 -109h-42zM357 700h49l-177 -443v-257h-45v257l-177 443h49l112 -289q3 -10 39 -100l38 101z" />
    <glyph glyph-name="ycircumflex" unicode="&#x177;" horiz-adv-x="380" 
d="M193 683l-62 -77h-41l79 109h48l79 -109h-41zM321 523h46l-182 -596q-18 -56 -43 -85t-69 -29h-31v43h26q29 0 45.5 20t28.5 59l36 118l-165 470h48l91 -264l46 -139l43 139z" />
    <glyph glyph-name="Ydieresis" unicode="&#x178;" horiz-adv-x="413" 
d="M145 797q-15 0 -24.5 9t-9.5 24t9.5 24t24.5 9t24 -9t9 -24q0 -33 -33 -33zM267 797q-15 0 -24.5 9t-9.5 24t9.5 24t24.5 9q16 0 25 -9t9 -24q0 -33 -34 -33zM184 0v257l-177 443h49l112 -289q3 -10 39 -100l38 101l112 288h49l-177 -443v-257h-45z" />
    <glyph glyph-name="Zacute" unicode="&#x179;" horiz-adv-x="401" 
d="M150 770l90 109h54l-100 -109h-44zM22 0v35l287 622h-275v43h330v-31l-289 -626h293v-43h-346z" />
    <glyph glyph-name="zacute" unicode="&#x17a;" horiz-adv-x="348" 
d="M130 606l75 110h52l-84 -110h-43zM18 0v36l244 447h-230v40h282v-35l-244 -448h250v-40h-302z" />
    <glyph glyph-name="Zdotaccent" unicode="&#x17b;" horiz-adv-x="401" 
d="M192 799q-17 0 -27.5 10.5t-10.5 28.5q0 17 10.5 28t27.5 11q18 0 28.5 -11t10.5 -28q0 -18 -10.5 -28.5t-28.5 -10.5zM22 0v35l287 622h-275v43h330v-31l-289 -626h293v-43h-346z" />
    <glyph glyph-name="zdotaccent" unicode="&#x17c;" horiz-adv-x="348" 
d="M173 622q-17 0 -27.5 10.5t-10.5 28.5q0 17 10.5 28t27.5 11q18 0 28.5 -11t10.5 -28q0 -18 -10.5 -28.5t-28.5 -10.5zM18 0v36l244 447h-230v40h282v-35l-244 -448h250v-40h-302z" />
    <glyph glyph-name="Zcaron" unicode="&#x17d;" horiz-adv-x="401" 
d="M217 770h-49l-79 109h42l62 -77l61 77h42zM75 43h293v-43h-346v35l287 622h-275v43h330v-31z" />
    <glyph glyph-name="zcaron" unicode="&#x17e;" horiz-adv-x="348" 
d="M197 606h-48l-79 110h41l62 -77l62 77h41zM70 40h250v-40h-302v36l244 447h-230v40h282v-35z" />
    <glyph glyph-name="uni0218" unicode="&#x218;" horiz-adv-x="440" 
d="M220 -12q-81 0 -130 50t-53 133h45q4 -67 40 -103t97 -36q64 0 99 37t35 97q0 48 -31.5 86t-77 66l-91 57t-77 72.5t-31.5 99.5q0 72 48.5 118.5t123.5 46.5q76 0 123 -49t52 -130h-46q-4 66 -38 100.5t-89 34.5q-58 0 -93 -33t-35 -88q0 -40 23 -73.5t57 -55l74 -48
t74 -51.5t57 -64.5t23 -88.5q0 -74 -48 -126t-131 -52zM192 -236l17 169h49l-32 -169h-34z" />
    <glyph glyph-name="uni0219" unicode="&#x219;" horiz-adv-x="395" 
d="M202 -11q-75 0 -120 42.5t-46 116.5h43q1 -57 33 -87t90 -30q50 0 80.5 26t30.5 70q0 38 -28 64.5t-67.5 42.5t-79.5 34t-68 51t-28 81q0 60 42 97t108 37q70 0 111.5 -40t43.5 -108h-43q-1 51 -30.5 79t-81.5 28q-48 0 -77 -25.5t-29 -68.5q0 -37 28 -62t68 -41
t79.5 -34t67.5 -52t28 -84q0 -61 -44 -99t-111 -38zM166 -236l17 169h49l-32 -169h-34z" />
    <glyph glyph-name="uni021A" unicode="&#x21a;" horiz-adv-x="401" 
d="M21 700h359v-43h-158v-657h-45v657h-156v43zM161 -236l18 169h49l-32 -169h-35z" />
    <glyph glyph-name="uni021B" unicode="&#x21b;" horiz-adv-x="288" 
d="M239 37h25v-41h-25q-69 0 -105 38t-36 110v339h-77v40h77v122h43v-122h113v-40h-113v-339q0 -107 98 -107zM128 -236l17 169h49l-32 -169h-34z" />
    <glyph glyph-name="gravecomb" unicode="&#x300;" 
d="M-4 606h-42l-85 110h52z" />
    <glyph glyph-name="acutecomb" unicode="&#x301;" 
d="M-123 606l75 110h52l-84 -110h-43z" />
    <glyph glyph-name="uni0302" unicode="&#x302;" 
d="M0 606h-41l-62 77l-62 -77h-41l79 109h48z" />
    <glyph glyph-name="tildecomb" unicode="&#x303;" 
d="M-63 623q-22 0 -45.5 20t-35.5 20q-23 0 -26 -37h-40q2 34 18.5 54t44.5 20q23 0 46.5 -20t34.5 -20q25 0 28 37h38q-3 -34 -19.5 -54t-43.5 -20z" />
    <glyph glyph-name="uni0304" unicode="&#x304;" 
d="M-175 635v37h175v-37h-175z" />
    <glyph glyph-name="uni0306" unicode="&#x306;" 
d="M-110 605q-48 0 -76 29.5t-30 81.5h39q3 -73 67 -73q65 0 68 73h39q-2 -52 -30 -81.5t-77 -29.5z" />
    <glyph glyph-name="uni0307" unicode="&#x307;" 
d="M-89 622q-17 0 -27.5 10.5t-10.5 28.5q0 17 10.5 28t27.5 11q18 0 28.5 -11t10.5 -28q0 -18 -10.5 -28.5t-28.5 -10.5z" />
    <glyph glyph-name="uni0308" unicode="&#x308;" 
d="M-144 625q-34 0 -34 33q0 15 9 24t25 9q15 0 24 -9t9 -24q0 -33 -33 -33zM-33 625q-35 0 -35 33q0 15 9.5 24t25.5 9q15 0 24 -9t9 -24q0 -33 -33 -33z" />
    <glyph glyph-name="uni030A" unicode="&#x30a;" 
d="M-77 602q-29 0 -47 18t-18 48q0 28 18 45.5t47 17.5q30 0 48 -17t18 -46q0 -30 -18 -48t-48 -18zM-77 631q16 0 25.5 10t9.5 26q0 15 -9.5 25t-25.5 10t-25.5 -10t-9.5 -25q0 -16 9.5 -26t25.5 -10z" />
    <glyph glyph-name="uni030B" unicode="&#x30b;" 
d="M-218 606l71 110h51l-82 -110h-40zM-124 606l75 110h50l-85 -110h-40z" />
    <glyph glyph-name="uni030C" unicode="&#x30c;" 
d="M-44 716h41l-79 -110h-48l-79 110h41l62 -77z" />
    <glyph glyph-name="uni0312" unicode="&#x312;" 
d="M-53 608l-17 168h33l37 -168h-53z" />
    <glyph glyph-name="uni0326" unicode="&#x326;" 
d="M-74 -236l17 169h49l-32 -169h-34z" />
    <glyph glyph-name="uni0327" unicode="&#x327;" 
d="M-97 -189q-35 0 -59 19.5t-26 50.5h37q6 -36 49 -36q22 0 35.5 10.5t13.5 28.5t-11.5 28.5t-30.5 10.5q-20 0 -34 -7l-13 14l22 70h32l-16 -53q10 2 18 2q30 0 50 -18.5t20 -46.5q0 -34 -24 -53.5t-63 -19.5z" />
    <glyph glyph-name="uni0328" unicode="&#x328;" 
d="M-36 -192q-39 0 -60 22t-21 54q0 60 67 116h40q-65 -57 -65 -109q0 -21 13.5 -31.5t32.5 -10.5q15 0 29 3v-39q-17 -5 -36 -5z" />
    <glyph glyph-name="uni0335" unicode="&#x335;" 
d="M-210 372v35h200v-35h-200z" />
    <glyph glyph-name="uni0336" unicode="&#x336;" 
d="M-330 372v35h320v-35h-320z" />
    <glyph glyph-name="uni0337" unicode="&#x337;" 
d="M-225 -43l162 590h43l-162 -590h-43z" />
    <glyph glyph-name="uni0338" unicode="&#x338;" 
d="M-324 -36l215 771h43l-216 -771h-42z" />
    <glyph glyph-name="uni0401" unicode="&#x401;" horiz-adv-x="446" 
d="M177 797q-15 0 -24.5 9t-9.5 24t9.5 24t24.5 9t24 -9t9 -24q0 -33 -33 -33zM299 797q-15 0 -24.5 9t-9.5 24t9.5 24t24.5 9q16 0 25 -9t9 -24q0 -33 -34 -33zM126 42h279v-42h-324v700h317v-42h-272v-281h253v-42h-253v-293z" />
    <glyph glyph-name="uni0402" unicode="&#x402;" horiz-adv-x="548" 
d="M332 -8v41q116 4 116 124v164q0 169 -102 169q-58 0 -94.5 -47.5t-36.5 -126.5v-316h-45v657h-149v43h344v-43h-150v-215q45 89 140 89q136 0 136 -207v-167q0 -78 -40 -121t-119 -44z" />
    <glyph glyph-name="uni0403" unicode="&#x403;" horiz-adv-x="406" 
d="M323 879l-100 -109h-44l90 109h54zM385 700v-43h-259v-657h-45v700h304z" />
    <glyph glyph-name="uni0404" unicode="&#x404;" horiz-adv-x="474" 
d="M392 184h44q-7 -95 -56 -145.5t-135 -50.5q-84 0 -133.5 54t-49.5 154v308q0 100 49 154t132 54q85 0 133.5 -50.5t54.5 -145.5h-44q-12 155 -144 155q-64 0 -100.5 -42.5t-36.5 -124.5v-125h222v-43h-222v-140q0 -82 37.5 -124.5t101.5 -42.5q134 0 147 155z" />
    <glyph glyph-name="uni0405" unicode="&#x405;" horiz-adv-x="440" 
d="M220 -12q-81 0 -130 50t-53 133h45q4 -67 40 -103t97 -36q64 0 99 37t35 97q0 48 -31.5 86t-77 66l-91 57t-77 72.5t-31.5 99.5q0 72 48.5 118.5t123.5 46.5q76 0 123 -49t52 -130h-46q-4 66 -38 100.5t-89 34.5q-58 0 -93 -33t-35 -88q0 -40 23 -73.5t57 -55l74 -48
t74 -51.5t57 -64.5t23 -88.5q0 -74 -48 -126t-131 -52z" />
    <glyph glyph-name="uni0406" unicode="&#x406;" horiz-adv-x="207" 
d="M81 0v700h45v-700h-45z" />
    <glyph glyph-name="uni0407" unicode="&#x407;" horiz-adv-x="207" 
d="M44 797q-15 0 -24.5 9t-9.5 24t9.5 24t24.5 9t24 -9t9 -24q0 -33 -33 -33zM166 797q-15 0 -24.5 9t-9.5 24t9.5 24t24.5 9q16 0 25 -9t9 -24q0 -33 -34 -33zM81 0v700h45v-700h-45z" />
    <glyph glyph-name="uni0408" unicode="&#x408;" horiz-adv-x="232" 
d="M-4 -75v43q57 0 85 32.5t28 101.5v598h45v-598q0 -177 -158 -177z" />
    <glyph glyph-name="uni0409" unicode="&#x409;" horiz-adv-x="720" 
d="M4 -8v43q58 0 74 109q13 92 32 556h276v-297h112q94 0 146.5 -52.5t52.5 -147.5q0 -96 -52.5 -149.5t-146.5 -53.5h-157v657h-188q-17 -424 -31 -519q-9 -62 -38.5 -104t-79.5 -42zM386 43h112q74 0 113.5 41t39.5 119q0 77 -39.5 116.5t-113.5 39.5h-112v-316z" />
    <glyph glyph-name="uni040A" unicode="&#x40a;" horiz-adv-x="769" 
d="M81 0v700h45v-310h265v310h45v-309h112q93 0 145.5 -50.5t52.5 -141.5q0 -94 -52.5 -146.5t-145.5 -52.5h-157v348h-265v-348h-45zM436 43h112q73 0 112.5 40t39.5 116q0 73 -39.5 111t-112.5 38h-112v-305z" />
    <glyph glyph-name="uni040B" unicode="&#x40b;" horiz-adv-x="553" 
d="M170 0v657h-149v43h344v-43h-150v-214q44 88 139 88q136 0 136 -207v-324h-43v321q0 169 -102 169q-58 0 -94 -47t-36 -127v-316h-45z" />
    <glyph glyph-name="uni040C" unicode="&#x40c;" horiz-adv-x="473" 
d="M330 879l-100 -109h-44l90 109h54zM412 0l-227 357l-59 -78v-279h-45v700h45v-351l44 62l213 289h56l-225 -304l252 -396h-54z" />
    <glyph glyph-name="uni040D" unicode="&#x40d;" horiz-adv-x="533" 
d="M302 770h-44l-100 109h54zM81 0v700h45v-503q0 -76 -1 -105l1 -1l44 98l232 511h50v-700h-45v507v102h-1l-35 -82l-241 -527h-49z" />
    <glyph glyph-name="uni040E" unicode="&#x40e;" horiz-adv-x="396" 
d="M203 768q-48 0 -76.5 29t-29.5 81h39q3 -73 67 -73q65 0 68 73h39q-1 -52 -29.5 -81t-77.5 -29zM341 700h47l-184 -586q-37 -122 -134 -122h-24v43h23q67 0 94 93l30 97l-183 475h49l155 -409z" />
    <glyph glyph-name="uni040F" unicode="&#x40f;" horiz-adv-x="521" 
d="M239 -115v115h-158v700h45v-657h269v657h45v-700h-157v-115h-44z" />
    <glyph glyph-name="uni0410" unicode="&#x410;" horiz-adv-x="447" 
d="M386 0l-46 179h-233l-46 -179h-48l185 700h51l185 -700h-48zM118 221h211l-73 287l-32 133h-1l-32 -133z" />
    <glyph glyph-name="uni0411" unicode="&#x411;" horiz-adv-x="482" 
d="M81 0v700h326v-43h-281v-247h123q87 0 141 -53.5t54 -149.5q0 -97 -54 -152t-141 -55h-168zM126 43h123q67 0 108 42.5t41 121.5q0 78 -41 119.5t-108 41.5h-123v-325z" />
    <glyph glyph-name="uni0412" unicode="&#x412;" horiz-adv-x="485" 
d="M317 363q63 -13 95.5 -58.5t32.5 -114.5q0 -91 -52 -140.5t-145 -49.5h-167v700h154q86 0 133.5 -47t47.5 -132q0 -131 -99 -158zM235 657h-109v-275h114q65 0 97.5 37t32.5 102q0 136 -135 136zM248 43q151 0 151 147q0 68 -41.5 108.5t-115.5 40.5h-116v-296h122z" />
    <glyph glyph-name="uni0413" unicode="&#x413;" horiz-adv-x="406" 
d="M385 700v-43h-259v-657h-45v700h304z" />
    <glyph glyph-name="uni0414" unicode="&#x414;" horiz-adv-x="516" 
d="M422 42h60v-155h-45v113h-384v-113h-44v155h42q31 32 52 111t24 173l12 374h283v-658zM376 42v615h-193l-12 -340q-8 -185 -64 -275h269z" />
    <glyph glyph-name="uni0415" unicode="&#x415;" horiz-adv-x="446" 
d="M126 42h279v-42h-324v700h317v-42h-272v-281h253v-42h-253v-293z" />
    <glyph glyph-name="uni0416" unicode="&#x416;" horiz-adv-x="696" 
d="M635 0l-220 346l-45 -61v-285h-44v285l-44 61l-221 -346h-53l245 385l-228 315h53l248 -346v346h44v-346l248 346h53l-228 -315l245 -385h-53z" />
    <glyph glyph-name="uni0417" unicode="&#x417;" horiz-adv-x="474" 
d="M297 361q129 -31 129 -175q0 -92 -52 -145t-138 -53q-87 0 -140 52.5t-58 142.5h46q6 -71 45.5 -111t104.5 -40q67 0 106.5 41t39.5 112q0 75 -42.5 114.5t-114.5 39.5h-61v43h61q66 0 104.5 36.5t38.5 107.5q0 68 -35 105t-98 37q-64 0 -99 -39t-40 -112h-46
q5 92 53.5 143.5t132.5 51.5q82 0 129.5 -49.5t47.5 -139.5q0 -130 -114 -162z" />
    <glyph glyph-name="uni0418" unicode="&#x418;" horiz-adv-x="533" 
d="M81 0v700h45v-503q0 -76 -1 -105l1 -1l44 98l232 511h50v-700h-45v507v102h-1l-35 -82l-241 -527h-49z" />
    <glyph glyph-name="uni0419" unicode="&#x419;" horiz-adv-x="533" 
d="M266 768q-48 0 -76.5 29t-29.5 81h39q3 -73 67 -73q65 0 68 73h39q-1 -52 -29.5 -81t-77.5 -29zM81 0v700h45v-503q0 -76 -1 -105l1 -1l44 98l232 511h50v-700h-45v507v102h-1l-35 -82l-241 -527h-49z" />
    <glyph glyph-name="uni041A" unicode="&#x41a;" horiz-adv-x="473" 
d="M412 0l-227 357l-59 -78v-279h-45v700h45v-351l44 62l213 289h56l-225 -304l252 -396h-54z" />
    <glyph glyph-name="uni041B" unicode="&#x41b;" horiz-adv-x="480" 
d="M4 -8v43q34 0 53 32.5t24 76.5q15 102 33 556h285v-700h-46v657h-195q-18 -420 -33 -519q-8 -61 -38.5 -103.5t-82.5 -42.5z" />
    <glyph glyph-name="uni041C" unicode="&#x41c;" horiz-adv-x="638" 
d="M509 700h48v-699h-46v451q0 55 4 149l-2 1l-55 -137l-116 -290h-46l-117 290l-54 137l-2 -1q3 -71 3 -149v-451h-45v699h48l142 -344q9 -22 26.5 -69t20.5 -56h2q31 89 47 125z" />
    <glyph glyph-name="uni041D" unicode="&#x41d;" horiz-adv-x="521" 
d="M395 700h46v-700h-46v335h-269v-335h-45v700h45v-322h269v322z" />
    <glyph glyph-name="uni041E" unicode="&#x41e;" horiz-adv-x="512" 
d="M256 -12q-90 0 -142 58t-52 161v285q0 104 51.5 162t142.5 58t143 -58t52 -162v-285q0 -103 -52 -161t-143 -58zM256 32q72 0 110.5 45t38.5 130v285q0 86 -38.5 131t-110.5 45q-71 0 -109.5 -45t-38.5 -131v-285q0 -85 38.5 -130t109.5 -45z" />
    <glyph glyph-name="uni041F" unicode="&#x41f;" horiz-adv-x="521" 
d="M441 700v-700h-46v657h-269v-657h-45v700h360z" />
    <glyph glyph-name="uni0420" unicode="&#x420;" horiz-adv-x="474" 
d="M239 700q94 0 145 -55t52 -156q0 -105 -51 -161t-146 -56h-113v-272h-45v700h158zM239 315q151 0 151 174q1 82 -37.5 125t-113.5 43h-113v-342h113z" />
    <glyph glyph-name="uni0421" unicode="&#x421;" horiz-adv-x="474" 
d="M245 -12q-84 0 -133.5 54t-49.5 154v308q0 100 49 154t132 54q85 0 133.5 -50.5t54.5 -145.5h-44q-12 155 -144 155q-64 0 -100.5 -42.5t-36.5 -124.5v-308q0 -82 37.5 -124.5t101.5 -42.5q134 0 147 155h44q-7 -95 -56 -145.5t-135 -50.5z" />
    <glyph glyph-name="uni0422" unicode="&#x422;" horiz-adv-x="401" 
d="M380 700v-43h-158v-657h-45v657h-156v43h359z" />
    <glyph glyph-name="uni0423" unicode="&#x423;" horiz-adv-x="396" 
d="M341 700h47l-184 -586q-37 -122 -134 -122h-24v43h23q67 0 94 93l30 97l-183 475h49l155 -409z" />
    <glyph glyph-name="uni0424" unicode="&#x424;" horiz-adv-x="645" 
d="M300 -53v80h-36q-104 0 -162 63.5t-58 177.5v167q0 114 58 177t162 63h36v74h45v-74h35q105 0 163 -63t58 -177v-167q0 -114 -58.5 -177.5t-162.5 -63.5h-35v-80h-45zM264 71h36v560h-36q-84 0 -129 -50t-45 -146v-167q0 -96 45 -146.5t129 -50.5zM345 71h35
q85 0 130 50.5t45 146.5v167q0 96 -44.5 146t-130.5 50h-35v-560z" />
    <glyph glyph-name="uni0425" unicode="&#x425;" horiz-adv-x="433" 
d="M413 0h-50l-146 319l-146 -319h-50l170 363l-162 337h51l137 -294l137 294h50l-161 -337z" />
    <glyph glyph-name="uni0426" unicode="&#x426;" horiz-adv-x="534" 
d="M456 -115v115h-375v700h45v-657h266v657h45v-657h63v-158h-44z" />
    <glyph glyph-name="uni0427" unicode="&#x427;" horiz-adv-x="484" 
d="M357 700h46v-699h-46v287q-56 -29 -116 -29q-88 0 -142 53t-54 149v239h45v-239q0 -78 41 -118.5t110 -40.5q60 0 116 30v368z" />
    <glyph glyph-name="uni0428" unicode="&#x428;" horiz-adv-x="784" 
d="M81 0v700h45v-657h243v657h46v-657h242v657h46v-700h-622z" />
    <glyph glyph-name="uni0429" unicode="&#x429;" horiz-adv-x="799" 
d="M721 -115v115h-640v700h45v-657h243v657h46v-657h242v657h46v-657h61v-158h-43z" />
    <glyph glyph-name="uni042A" unicode="&#x42a;" horiz-adv-x="519" 
d="M137 0v657h-117v43h162v-293h112q95 0 148 -53t53 -149q0 -97 -53 -151t-148 -54h-157zM182 43h112q75 0 115 41.5t40 120.5q0 77 -40 117.5t-115 40.5h-112v-320z" />
    <glyph glyph-name="uni042B" unicode="&#x42b;" horiz-adv-x="649" 
d="M81 0v700h45v-297h110q94 0 146.5 -52.5t52.5 -147.5q0 -96 -52.5 -149.5t-146.5 -53.5h-155zM522 0v700h46v-700h-46zM126 43h110q74 0 113.5 41t39.5 119q0 77 -39.5 116.5t-113.5 39.5h-110v-316z" />
    <glyph glyph-name="uni042C" unicode="&#x42c;" horiz-adv-x="466" 
d="M81 0v700h45v-295h121q91 0 143.5 -53t52.5 -147q0 -97 -52.5 -151t-143.5 -54h-166zM126 43h121q71 0 110.5 41.5t39.5 120.5q0 77 -39 117t-111 40h-121v-319z" />
    <glyph glyph-name="uni042D" unicode="&#x42d;" horiz-adv-x="474" 
d="M231 712q83 0 132 -54t49 -154v-308q0 -100 -49.5 -154t-133.5 -54q-86 0 -135 50.5t-56 145.5h44q13 -155 147 -155q64 0 101.5 42.5t37.5 124.5v140h-222v43h222v125q0 82 -36.5 124.5t-100.5 42.5q-132 0 -144 -155h-44q6 95 54.5 145.5t133.5 50.5z" />
    <glyph glyph-name="uni042E" unicode="&#x42e;" horiz-adv-x="708" 
d="M452 710q91 0 142.5 -59t51.5 -167v-268q0 -108 -51.5 -167t-142.5 -59t-142.5 59t-51.5 167v119h-132v-335h-45v700h45v-322h132v106q0 108 51.5 167t142.5 59zM600 216v268q0 90 -38.5 136t-109.5 46t-109.5 -46t-38.5 -136v-268q0 -90 38.5 -136t109.5 -46t109.5 46
t38.5 136z" />
    <glyph glyph-name="uni042F" unicode="&#x42f;" horiz-adv-x="473" 
d="M32 0l178 286q-75 10 -118 63.5t-43 141.5q0 100 52.5 154.5t142.5 54.5h149v-700h-46v284h-87l-175 -284h-53zM243 326h104v331h-103q-72 0 -110.5 -41.5t-38.5 -122.5t39 -124t109 -43z" />
    <glyph glyph-name="uni0430" unicode="&#x430;" horiz-adv-x="441" 
d="M219 534q71 0 111.5 -44t40.5 -121v-369h-38l-4 57q-40 -68 -129 -68q-70 0 -113 42.5t-43 116.5t45.5 114t130.5 40h108v66q0 60 -28.5 92.5t-81.5 32.5q-50 0 -81 -28t-33 -73h-44q4 64 46.5 103t112.5 39zM206 31q58 0 90 33.5t32 93.5v104h-109q-64 0 -97.5 -29.5
t-33.5 -85.5q0 -55 32 -85.5t86 -30.5z" />
    <glyph glyph-name="uni0431" unicode="&#x431;" horiz-adv-x="455" 
d="M233 -10q-75 0 -119 47.5t-44 130.5v304q0 154 163 199q39 10 61 23.5t38 44.5l35 -25q-27 -61 -122 -87q-61 -17 -96.5 -50t-35.5 -105v-53q39 80 135 80q70 0 110 -48t40 -135v-148q0 -83 -44.5 -130.5t-120.5 -47.5zM233 32q57 0 89 35t32 101v141q0 74 -30 111
t-84 37t-90.5 -37t-36.5 -111v-141q0 -65 32 -100.5t88 -35.5z" />
    <glyph glyph-name="uni0432" unicode="&#x432;" horiz-adv-x="422" 
d="M294 279q42 -16 67 -51.5t25 -79.5q0 -71 -43 -109.5t-124 -38.5h-149v522h138q71 0 111.5 -36t40.5 -98q0 -70 -66 -109zM113 481v-187h99q46 0 75 26.5t29 67.5q0 43 -28.5 68t-80.5 25h-94zM218 41q124 0 124 107q0 49 -32 77t-89 28h-108v-212h105z" />
    <glyph glyph-name="uni0433" unicode="&#x433;" horiz-adv-x="334" 
d="M319 523v-42h-206v-481h-43v523h249z" />
    <glyph glyph-name="uni0434" unicode="&#x434;" horiz-adv-x="440" 
d="M0 -115v156h35q48 63 59 232q8 118 10 250h260v-482h56v-156h-42v115h-336v-115h-42zM86 41h234v441h-174q-1 -107 -9 -214q-12 -162 -51 -227z" />
    <glyph glyph-name="uni0435" unicode="&#x435;" horiz-adv-x="441" 
d="M345 157h43q-6 -79 -49.5 -123t-120.5 -44q-74 0 -117.5 47.5t-43.5 129.5v190q0 83 44 130t120 47t121 -47.5t45 -129.5v-117h-287v-73q0 -65 31.5 -100t87.5 -35q112 0 126 125zM221 492q-57 0 -89 -35t-32 -100v-77h243v77q0 65 -32.5 100t-89.5 35z" />
    <glyph glyph-name="uni0436" unicode="&#x436;" horiz-adv-x="590" 
d="M532 0l-170 262l-46 -58v-204h-42v204l-46 58l-170 -262h-52l196 295l-180 228h54l109 -142l89 -115v257h42v-257l89 115l109 142h54l-180 -228l196 -295h-52z" />
    <glyph glyph-name="uni0437" unicode="&#x437;" horiz-adv-x="393" 
d="M262 274q45 -12 71 -46t26 -81q0 -68 -47 -112.5t-119 -44.5q-74 0 -119.5 43t-48.5 111h43q3 -50 36.5 -81t88.5 -31t88.5 32t33.5 85q0 46 -33 74.5t-93 28.5h-75v41h72q53 0 82 27t29 70t-28.5 71.5t-77.5 28.5q-103 0 -111 -112h-43q3 72 42.5 112.5t111.5 40.5
q65 0 107 -40.5t42 -98.5q0 -44 -21.5 -74t-56.5 -44z" />
    <glyph glyph-name="uni0438" unicode="&#x438;" horiz-adv-x="450" 
d="M70 0v523h43v-337q0 -76 -2 -107l2 -1q4 11 38 81l185 364h45v-523h-43v319q0 73 3 129l-2 1q-12 -30 -45 -96l-181 -353h-43z" />
    <glyph glyph-name="uni0439" unicode="&#x439;" horiz-adv-x="450" 
d="M225 605q-48 0 -76 29.5t-30 81.5h39q3 -73 67 -73q65 0 68 73h39q-2 -52 -30 -81.5t-77 -29.5zM70 0v523h43v-337q0 -76 -2 -107l2 -1q4 11 38 81l185 364h45v-523h-43v319q0 73 3 129l-2 1q-12 -30 -45 -96l-181 -353h-43z" />
    <glyph glyph-name="uni043A" unicode="&#x43a;" horiz-adv-x="411" 
d="M352 0l-188 263l-51 -61v-202h-43v523h43v-258l77 94l135 164h56l-188 -226l212 -297h-53z" />
    <glyph glyph-name="uni043B" unicode="&#x43b;" horiz-adv-x="427" 
d="M9 -6v42q37 0 54 43t24 124q10 126 13 320h258v-523h-43v482h-172q-5 -189 -13 -286q-8 -99 -36 -150.5t-85 -51.5z" />
    <glyph glyph-name="uni043C" unicode="&#x43c;" horiz-adv-x="535" 
d="M420 523h45v-523h-42v327q0 23 1.5 61t1.5 56l-1 1l-46 -111l-89 -191h-45l-89 191l-46 111l-1 -1q0 -18 1.5 -56t1.5 -61v-327h-42v523h45l125 -270l27 -63h1l27 63z" />
    <glyph glyph-name="uni043D" unicode="&#x43d;" horiz-adv-x="443" 
d="M330 523h43v-523h-43v252h-217v-252h-43v523h43v-230h217v230z" />
    <glyph glyph-name="uni043E" unicode="&#x43e;" horiz-adv-x="446" 
d="M223 -11q-77 0 -121.5 47.5t-44.5 131.5v187q0 84 44.5 131.5t121.5 47.5q76 0 121 -47.5t45 -131.5v-187q0 -84 -45 -131.5t-121 -47.5zM223 31q58 0 90 35.5t32 101.5v187q0 66 -32 101.5t-90 35.5t-90.5 -35.5t-32.5 -101.5v-187q0 -66 32.5 -101.5t90.5 -35.5z" />
    <glyph glyph-name="uni043F" unicode="&#x43f;" horiz-adv-x="443" 
d="M70 0v523h303v-523h-43v482h-217v-482h-43z" />
    <glyph glyph-name="uni0440" unicode="&#x440;" horiz-adv-x="453" 
d="M242 534q68 0 111 -49.5t43 -135.5v-178q0 -85 -43 -133.5t-114 -48.5q-38 0 -72 18t-55 50v-237h-42v703h36l5 -63q41 74 131 74zM353 171v178q0 70 -32.5 107.5t-87.5 37.5q-51 0 -86 -39.5t-35 -111.5v-176q0 -60 33.5 -99t84.5 -39q58 0 90.5 36.5t32.5 105.5z" />
    <glyph glyph-name="uni0441" unicode="&#x441;" horiz-adv-x="426" 
d="M217 -10q-74 0 -117 47.5t-43 129.5v190q0 83 43 130t116 47q77 0 121 -47.5t45 -132.5h-44q-1 67 -33 102.5t-89 35.5q-55 0 -85.5 -35t-30.5 -100v-190q0 -65 31 -100t86 -35q57 0 89.5 35.5t33.5 103.5h43q-1 -85 -45 -133t-121 -48z" />
    <glyph glyph-name="uni0442" unicode="&#x442;" horiz-adv-x="338" 
d="M322 523v-40h-132v-483h-43v483h-131v40h306z" />
    <glyph glyph-name="uni0443" unicode="&#x443;" horiz-adv-x="380" 
d="M321 523h46l-182 -596q-18 -56 -43 -85t-69 -29h-31v43h26q29 0 45.5 20t28.5 59l36 118l-165 470h48l91 -264l46 -139l43 139z" />
    <glyph glyph-name="uni0444" unicode="&#x444;" horiz-adv-x="609" 
d="M364 530q84 0 136 -53t52 -146v-142q0 -91 -52 -143.5t-136 -52.5h-38v-173h-43v173h-38q-84 0 -136 52.5t-52 143.5v142q0 93 52 146t136 53h38v182h43v-182h38zM245 35h38v453h-38q-66 0 -105.5 -41t-39.5 -116v-142q0 -73 39.5 -113.5t105.5 -40.5zM509 189v142
q0 75 -39.5 116t-105.5 41h-38v-453h38q65 0 105 40.5t40 113.5z" />
    <glyph glyph-name="uni0445" unicode="&#x445;" horiz-adv-x="369" 
d="M360 0h-51l-124 226l-125 -226h-51l151 263l-144 260h49l120 -219l120 219h48l-142 -260z" />
    <glyph glyph-name="uni0446" unicode="&#x446;" horiz-adv-x="452" 
d="M384 -115v115h-314v523h43v-482h214v482h43v-482h57v-156h-43z" />
    <glyph glyph-name="uni0447" unicode="&#x447;" horiz-adv-x="416" 
d="M303 0v208q-46 -25 -111 -25q-71 0 -114 49.5t-43 136.5v154h43v-154q0 -70 32 -107t86 -37q66 0 107 28v270h43v-523h-43z" />
    <glyph glyph-name="uni0448" unicode="&#x448;" horiz-adv-x="677" 
d="M63 0v523h43v-482h207v482h44v-482h207v482h43v-523h-544z" />
    <glyph glyph-name="uni0449" unicode="&#x449;" horiz-adv-x="693" 
d="M628 -115v115h-558v523h43v-482h206v482h44v-482h206v482h44v-483h55v-155h-40z" />
    <glyph glyph-name="uni044A" unicode="&#x44a;" horiz-adv-x="448" 
d="M266 333q71 0 118 -47t47 -119t-47 -119.5t-118 -47.5h-146v483h-104v40h148v-190h102zM266 42q54 0 87.5 34.5t33.5 90.5q0 55 -33.5 89.5t-87.5 34.5h-102v-249h102z" />
    <glyph glyph-name="uni044B" unicode="&#x44b;" horiz-adv-x="573" 
d="M215 326q71 0 118 -46.5t47 -116.5t-47 -116.5t-118 -46.5h-145v520h43v-194h102zM460 520h44v-520h-44v520zM215 42q54 0 88 34t34 87q0 54 -34 87.5t-88 33.5h-102v-242h102z" />
    <glyph glyph-name="uni044C" unicode="&#x44c;" horiz-adv-x="397" 
d="M215 333q71 0 118 -47t47 -119t-47 -119.5t-118 -47.5h-145v523h43v-190h102zM215 42q54 0 88 35t34 90t-34 89.5t-88 34.5h-102v-249h102z" />
    <glyph glyph-name="uni044D" unicode="&#x44d;" horiz-adv-x="425" 
d="M209 534q73 0 116.5 -47t43.5 -130v-190q0 -82 -43.5 -129.5t-117.5 -47.5q-76 0 -120 48t-46 133h44q2 -68 33.5 -103.5t88.5 -35.5q55 0 86 35t31 100v79h-195v40h195v71q0 65 -30.5 100t-85.5 35q-115 0 -120 -138h-44q2 85 45.5 132.5t118.5 47.5z" />
    <glyph glyph-name="uni044E" unicode="&#x44e;" horiz-adv-x="601" 
d="M382 534q75 0 118.5 -47.5t43.5 -130.5v-188q0 -83 -43.5 -130.5t-118.5 -47.5t-119 47.5t-44 130.5v82h-106v-250h-43v523h43v-232h106v65q0 83 44 130.5t119 47.5zM500 168v188q0 66 -31 101t-87 35q-57 0 -88 -35t-31 -101v-188q0 -66 31 -101t88 -35q56 0 87 35
t31 101z" />
    <glyph glyph-name="uni044F" unicode="&#x44f;" horiz-adv-x="395" 
d="M194 523h138v-523h-43v201h-95l-127 -201h-51l131 203q-51 9 -82 53t-31 106q0 71 44 116t116 45zM289 241v240h-95q-54 0 -85.5 -32.5t-31.5 -86.5q0 -55 29.5 -88t80.5 -33h102z" />
    <glyph glyph-name="uni0451" unicode="&#x451;" horiz-adv-x="441" 
d="M163 625q-34 0 -34 33q0 15 9 24t25 9q15 0 24 -9t9 -24q0 -33 -33 -33zM274 625q-35 0 -35 33q0 15 9.5 24t25.5 9q15 0 24 -9t9 -24q0 -33 -33 -33zM345 157h43q-6 -79 -49.5 -123t-120.5 -44q-74 0 -117.5 47.5t-43.5 129.5v190q0 83 44 130t120 47t121 -47.5
t45 -129.5v-117h-287v-73q0 -65 31.5 -100t87.5 -35q112 0 126 125zM221 492q-57 0 -89 -35t-32 -100v-77h243v77q0 65 -32.5 100t-89.5 35z" />
    <glyph glyph-name="uni0452" unicode="&#x452;" horiz-adv-x="463" 
d="M241 -198v41q116 4 116 124v356q0 170 -103 170q-58 0 -94.5 -47.5t-36.5 -127.5v-318h-44v616h-74v35h74v72h44v-72h111v-35h-111v-172q44 90 141 90q136 0 136 -208v-359q0 -78 -40 -121t-119 -44z" />
    <glyph glyph-name="uni0453" unicode="&#x453;" horiz-adv-x="334" 
d="M268 716l-84 -110h-43l75 110h52zM319 523v-42h-206v-481h-43v523h249z" />
    <glyph glyph-name="uni0454" unicode="&#x454;" horiz-adv-x="425" 
d="M339 171h44q-2 -85 -46 -133t-120 -48q-74 0 -117 47.5t-43 129.5v190q0 83 43 130t116 47q75 0 118.5 -47.5t45.5 -132.5h-44q-5 138 -120 138q-55 0 -85.5 -35t-30.5 -100v-71h195v-40h-195v-79q0 -65 31 -100t86 -35q117 0 122 139z" />
    <glyph glyph-name="uni0455" unicode="&#x455;" horiz-adv-x="395" 
d="M202 -11q-75 0 -120 42.5t-46 116.5h43q1 -57 33 -87t90 -30q50 0 80.5 26t30.5 70q0 38 -28 64.5t-67.5 42.5t-79.5 34t-68 51t-28 81q0 60 42 97t108 37q70 0 111.5 -40t43.5 -108h-43q-1 51 -30.5 79t-81.5 28q-48 0 -77 -25.5t-29 -68.5q0 -37 28 -62t68 -41
t79.5 -34t67.5 -52t28 -84q0 -61 -44 -99t-111 -38z" />
    <glyph glyph-name="uni0456" unicode="&#x456;" horiz-adv-x="182" 
d="M91 622q-17 0 -27.5 10.5t-10.5 28.5q0 17 10.5 28t27.5 11q18 0 28.5 -11t10.5 -28q0 -18 -10.5 -28.5t-28.5 -10.5zM70 0v523h43v-523h-43z" />
    <glyph glyph-name="uni0457" unicode="&#x457;" horiz-adv-x="200" 
d="M46 628q-15 0 -24 9t-9 24t9 23.5t24 8.5q33 0 33 -32q0 -33 -33 -33zM154 628q-34 0 -34 33q0 32 34 32q15 0 24 -8.5t9 -23.5t-9 -24t-24 -9zM78 0v523h43v-523h-43z" />
    <glyph glyph-name="uni0458" unicode="&#x458;" horiz-adv-x="222" 
d="M113 621q-17 0 -27.5 11t-10.5 28q0 18 10.5 28.5t27.5 10.5q18 0 28.5 -10.5t10.5 -28.5q0 -17 -10.5 -28t-28.5 -11zM-24 -190v41q116 4 116 129v543h43v-543q0 -80 -39.5 -124.5t-119.5 -45.5z" />
    <glyph glyph-name="uni0459" unicode="&#x459;" horiz-adv-x="642" 
d="M9 -6v42q37 0 54 43t24 124q10 126 13 320h258v-197h102q71 0 118.5 -46.5t47.5 -116.5q0 -71 -47 -117t-119 -46h-145v482h-172q-5 -189 -13 -286q-7 -99 -35.5 -150.5t-85.5 -51.5zM358 42h102q54 0 88 34t34 87q0 54 -34 87.5t-88 33.5h-102v-242z" />
    <glyph glyph-name="uni045A" unicode="&#x45a;" horiz-adv-x="656" 
d="M70 0v523h43v-216h216v216h43v-216h102q71 0 118 -42.5t47 -107.5q0 -68 -47 -112.5t-118 -44.5h-145v266h-216v-266h-43zM372 42h102q54 0 87.5 32t33.5 83q0 48 -33.5 78.5t-87.5 30.5h-102v-224z" />
    <glyph glyph-name="uni045B" unicode="&#x45b;" horiz-adv-x="456" 
d="M256 534q137 0 137 -208v-326h-44v323q0 170 -103 170q-58 0 -94.5 -47.5t-36.5 -127.5v-318h-43v614h-63v35h63v74h43v-74h102v-35h-102v-170q44 90 141 90z" />
    <glyph glyph-name="uni045C" unicode="&#x45c;" horiz-adv-x="411" 
d="M285 716l-84 -110h-43l75 110h52zM352 0l-188 263l-51 -61v-202h-43v523h43v-258l77 94l135 164h56l-188 -226l212 -297h-53z" />
    <glyph glyph-name="uni045D" unicode="&#x45d;" horiz-adv-x="450" 
d="M265 606h-42l-85 110h52zM70 0v523h43v-337q0 -76 -2 -107l2 -1q4 11 38 81l185 364h45v-523h-43v319q0 73 3 129l-2 1q-12 -30 -45 -96l-181 -353h-43z" />
    <glyph glyph-name="uni045E" unicode="&#x45e;" horiz-adv-x="380" 
d="M193 605q-48 0 -76 29.5t-30 81.5h39q3 -73 67 -73q65 0 68 73h39q-2 -52 -30 -81.5t-77 -29.5zM321 523h46l-182 -596q-18 -56 -43 -85t-69 -29h-31v43h26q29 0 45.5 20t28.5 59l36 118l-165 470h48l91 -264l46 -139l43 139z" />
    <glyph glyph-name="uni045F" unicode="&#x45f;" horiz-adv-x="442" 
d="M373 523v-523h-129v-115h-42v115h-132v523h43v-482h216v482h44z" />
    <glyph glyph-name="uni0490" unicode="&#x490;" horiz-adv-x="401" 
d="M337 795h42v-138h-253v-657h-45v700h256v95z" />
    <glyph glyph-name="uni0491" unicode="&#x491;" horiz-adv-x="334" 
d="M277 621h42v-140h-206v-481h-43v523h207v98z" />
    <glyph glyph-name="Wgrave" unicode="&#x1e80;" horiz-adv-x="690" 
d="M381 770h-44l-100 109h54zM166 0l-153 700h48l97 -474q26 -124 32 -160h2l33 166l95 457h50l94 -451q24 -124 34 -172h2l33 165l96 469h48l-153 -700h-51l-95 432q-16 68 -32 189h-2q-16 -121 -32 -189l-95 -432h-51z" />
    <glyph glyph-name="wgrave" unicode="&#x1e81;" horiz-adv-x="598" 
d="M336 603h-42l-85 110h52zM539 523h46l-130 -523h-48l-80 321q-15 62 -28 132h-1q-8 -56 -27 -132l-81 -321h-47l-130 523h46l77 -332q6 -26 17 -78.5t13 -59.5h1q30 142 32 150l77 310h46l77 -310q2 -8 32 -150h1q2 7 13 59.5t17 78.5z" />
    <glyph glyph-name="Wacute" unicode="&#x1e82;" horiz-adv-x="690" 
d="M302 770l90 109h54l-100 -109h-44zM166 0l-153 700h48l97 -474q26 -124 32 -160h2l33 166l95 457h50l94 -451q24 -124 34 -172h2l33 165l96 469h48l-153 -700h-51l-95 432q-16 68 -32 189h-2q-16 -121 -32 -189l-95 -432h-51z" />
    <glyph glyph-name="wacute" unicode="&#x1e83;" horiz-adv-x="598" 
d="M380 713l-84 -110h-43l75 110h52zM539 523h46l-130 -523h-48l-80 321q-15 62 -28 132h-1q-8 -56 -27 -132l-81 -321h-47l-130 523h46l77 -332q6 -26 17 -78.5t13 -59.5h1q30 142 32 150l77 310h46l77 -310q2 -8 32 -150h1q2 7 13 59.5t17 78.5z" />
    <glyph glyph-name="Wdieresis" unicode="&#x1e84;" horiz-adv-x="690" 
d="M284 797q-15 0 -24.5 9t-9.5 24t9.5 24t24.5 9t24 -9t9 -24q0 -33 -33 -33zM406 797q-15 0 -24.5 9t-9.5 24t9.5 24t24.5 9q16 0 25 -9t9 -24q0 -33 -34 -33zM166 0l-153 700h48l97 -474q26 -124 32 -160h2l33 166l95 457h50l94 -451q24 -124 34 -172h2l33 165l96 469h48
l-153 -700h-51l-95 432q-16 68 -32 189h-2q-16 -121 -32 -189l-95 -432h-51z" />
    <glyph glyph-name="wdieresis" unicode="&#x1e85;" horiz-adv-x="598" 
d="M242 625q-34 0 -34 33q0 15 9 24t25 9q15 0 24 -9t9 -24q0 -33 -33 -33zM353 625q-35 0 -35 33q0 15 9.5 24t25.5 9q15 0 24 -9t9 -24q0 -33 -33 -33zM539 523h46l-130 -523h-48l-80 321q-15 62 -28 132h-1q-8 -56 -27 -132l-81 -321h-47l-130 523h46l77 -332
q6 -26 17 -78.5t13 -59.5h1q30 142 32 150l77 310h46l77 -310q2 -8 32 -150h1q2 7 13 59.5t17 78.5z" />
    <glyph glyph-name="Ygrave" unicode="&#x1ef2;" horiz-adv-x="413" 
d="M242 770h-44l-100 109h54zM184 0v257l-177 443h49l112 -289q3 -10 39 -100l38 101l112 288h49l-177 -443v-257h-45z" />
    <glyph glyph-name="ygrave" unicode="&#x1ef3;" horiz-adv-x="380" 
d="M233 606h-42l-85 110h52zM321 523h46l-182 -596q-18 -56 -43 -85t-69 -29h-31v43h26q29 0 45.5 20t28.5 59l36 118l-165 470h48l91 -264l46 -139l43 139z" />
    <glyph glyph-name="endash" unicode="&#x2013;" horiz-adv-x="433" 
d="M48 236v41h338v-41h-338z" />
    <glyph glyph-name="emdash" unicode="&#x2014;" horiz-adv-x="553" 
d="M48 236v41h458v-41h-458z" />
    <glyph glyph-name="quoteleft" unicode="&#x2018;" horiz-adv-x="115" 
d="M23 508l41 193h32l-20 -193h-53z" />
    <glyph glyph-name="quoteright" unicode="&#x2019;" horiz-adv-x="115" 
d="M19 510l20 193h53l-41 -193h-32z" />
    <glyph glyph-name="quotesinglbase" unicode="&#x201a;" horiz-adv-x="137" 
d="M32 -126l20 193h53l-41 -193h-32z" />
    <glyph glyph-name="quotedblleft" unicode="&#x201c;" horiz-adv-x="207" 
d="M23 507l41 193h32l-20 -193h-53zM115 507l41 193h32l-20 -193h-53z" />
    <glyph glyph-name="quotedblright" unicode="&#x201d;" horiz-adv-x="207" 
d="M19 507l20 193h53l-41 -193h-32zM111 507l20 193h53l-41 -193h-32z" />
    <glyph glyph-name="quotedblbase" unicode="&#x201e;" horiz-adv-x="229" 
d="M32 -126l20 193h53l-41 -193h-32zM124 -126l20 193h53l-41 -193h-32z" />
    <glyph glyph-name="dagger" unicode="&#x2020;" horiz-adv-x="358" 
d="M328 512v-41h-127v-564h-44v564h-125v41h125v199h44v-199h127z" />
    <glyph glyph-name="daggerdbl" unicode="&#x2021;" horiz-adv-x="361" 
d="M330 471h-126v-306h126v-41h-126v-217h-44v217h-126v41h126v306h-126v41h126v199h44v-199h126v-41z" />
    <glyph glyph-name="bullet" unicode="&#x2022;" horiz-adv-x="182" 
d="M90 194q-25 0 -40.5 16t-15.5 41t15.5 41t40.5 16q26 0 41.5 -16t15.5 -41t-15.5 -41t-41.5 -16z" />
    <glyph glyph-name="ellipsis" unicode="&#x2026;" horiz-adv-x="479" 
d="M87 -9q-17 0 -27 10.5t-10 27.5t10 27.5t27 10.5t27.5 -10.5t10.5 -27.5t-10.5 -27.5t-27.5 -10.5zM240 -9q-17 0 -27.5 10.5t-10.5 27.5t10.5 27.5t27.5 10.5t27 -10.5t10 -27.5t-10 -27.5t-27 -10.5zM392 -9q-17 0 -27.5 10.5t-10.5 27.5t10.5 27.5t27.5 10.5
t27.5 -10.5t10.5 -27.5t-10.5 -27.5t-27.5 -10.5z" />
    <glyph glyph-name="perthousand" unicode="&#x2030;" horiz-adv-x="844" 
d="M121 395q-39 0 -64 26.5t-25 71.5v116q0 45 24.5 72t64.5 27q41 0 65.5 -27t24.5 -72v-116q0 -45 -24.5 -71.5t-65.5 -26.5zM22 0l493 700h43l-493 -700h-43zM121 430q53 0 53 63v116q0 64 -53 64q-25 0 -39 -16.5t-14 -47.5v-116q0 -30 14.5 -46.5t38.5 -16.5zM461 -8
q-40 0 -65 26.5t-25 71.5v116q0 45 25 72t65 27t65 -27t25 -72v-116q0 -45 -25 -71.5t-65 -26.5zM703 -8q-40 0 -65 26.5t-25 71.5v116q0 45 25 72t65 27t65 -27t25 -72v-116q0 -45 -25 -71.5t-65 -26.5zM461 27q53 0 53 63v116q0 64 -53 64t-53 -64v-116q0 -63 53 -63z
M703 27q53 0 53 63v116q0 64 -53 64q-25 0 -39 -16.5t-14 -47.5v-116q0 -30 14.5 -46.5t38.5 -16.5z" />
    <glyph glyph-name="guilsinglleft" unicode="&#x2039;" horiz-adv-x="267" 
d="M174 89l-126 156v24l126 156h46l-136 -168l136 -168h-46z" />
    <glyph glyph-name="guilsinglright" unicode="&#x203a;" horiz-adv-x="267" 
d="M93 89h-45l135 168l-135 168h45l127 -156v-24z" />
    <glyph glyph-name="fraction" unicode="&#x2044;" horiz-adv-x="544" 
d="M16 0l464 700h48l-465 -700h-47z" />
    <glyph glyph-name="Euro" unicode="&#x20ac;" horiz-adv-x="537" 
d="M456 184h44q-7 -95 -56.5 -145.5t-135.5 -50.5q-83 0 -133 54t-50 154v78h-82v35h82v81h-82v35h82v79q0 100 49 154t132 54q84 0 133 -50t56 -146h-45q-12 155 -144 155q-63 0 -99.5 -42t-36.5 -125v-79h186v-35h-186v-81h186v-35h-186v-78q0 -82 37 -124.5t101 -42.5
q133 0 148 155z" />
    <glyph glyph-name="trademark" unicode="&#x2122;" horiz-adv-x="463" 
d="M36 673v27h146v-27h-59v-238h-28v238h-59zM390 700h32v-265h-28v117q0 17 0.5 52t0.5 46l-1 1l-24 -56l-39 -89h-28l-38 89q-15 31 -25 56l-1 -1q0 -11 1 -46t1 -52v-117h-28v265h31l48 -105q2 -4 12 -28.5l13 -31.5q2 5 12 28.5t14 31.5z" />
    <glyph glyph-name="partialdiff" unicode="&#x2202;" horiz-adv-x="440" 
d="M161 730q96 -25 159 -101.5t63 -195.5v-265q0 -83 -44.5 -130.5t-121.5 -47.5q-74 0 -117 47.5t-43 130.5v164q0 83 42 130.5t111 47.5q87 0 130 -64q-4 96 -55.5 157.5t-137.5 87.5zM339 168v164q0 65 -32 100.5t-88 35.5q-57 0 -88 -35t-31 -101v-164
q0 -65 31.5 -100.5t86.5 -35.5q57 0 89 35t32 101z" />
    <glyph glyph-name="emptyset" unicode="&#x2205;" horiz-adv-x="813" 
d="M653 613q99 -99 99 -263q0 -161 -95.5 -259.5t-252.5 -98.5q-130 0 -219 69l-82 -96h-45l101 119q-102 99 -102 266q0 161 95.5 259.5t251.5 98.5q132 0 224 -72l84 99h44zM93 350q0 -150 89 -239l423 498q-84 65 -201 65q-140 0 -225.5 -89t-85.5 -235zM404 26
q141 0 226.5 89t85.5 235q0 147 -87 236l-421 -497q78 -63 196 -63z" />
    <glyph glyph-name="product" unicode="&#x220f;" horiz-adv-x="495" 
d="M81 -99v799h333v-799h-44v756h-245v-756h-44z" />
    <glyph glyph-name="summation" unicode="&#x2211;" horiz-adv-x="371" 
d="M44 -1v41l170 310l-170 310v41h283v-42h-237l164 -294v-30l-164 -294h237v-42h-283z" />
    <glyph glyph-name="minus" unicode="&#x2212;" horiz-adv-x="431" 
d="M49 288v41h333v-41h-333z" />
    <glyph glyph-name="radical" unicode="&#x221a;" horiz-adv-x="463" 
d="M203 0l-98 458h-84v41h119l101 -452l161 749h44l-168 -796h-75z" />
    <glyph glyph-name="infinity" unicode="&#x221e;" horiz-adv-x="635" 
d="M445 395q57 0 95.5 -40.5t38.5 -103.5q0 -64 -38 -104t-95 -40q-50 0 -79 25.5t-49 71.5q-21 -46 -50 -71.5t-79 -25.5q-57 0 -94.5 40t-37.5 104q0 63 38 103.5t95 40.5q48 0 77 -24t51 -68q22 44 50.5 68t76.5 24zM189 147q21 0 38 8t29.5 25.5t20 32t18.5 40.5
q-14 34 -24.5 52t-31.5 34t-49 16q-42 0 -66.5 -28t-24.5 -76q0 -47 25 -75.5t65 -28.5zM446 147q40 0 65 28.5t25 75.5q0 48 -24.5 76t-66.5 28q-28 0 -49 -16t-31.5 -34t-24.5 -52q11 -26 18.5 -40.5t20 -32t29.5 -25.5t38 -8z" />
    <glyph glyph-name="integral" unicode="&#x222b;" horiz-adv-x="306" 
d="M19 -188v41q112 4 112 115v584q0 73 40 114t117 42v-42q-114 -3 -114 -114v-584q0 -73 -39 -114t-116 -42z" />
    <glyph glyph-name="approxequal" unicode="&#x2248;" horiz-adv-x="447" 
d="M309 319q-30 0 -87 26t-80 26q-37 0 -65 -42l-23 32q37 53 86 53q30 0 87.5 -26t79.5 -26q36 0 63 43l24 -31q-35 -55 -85 -55zM309 180q-30 0 -87 26t-80 26q-36 0 -65 -43l-23 33q37 52 86 52q30 0 87.5 -26t79.5 -26q35 0 63 43l24 -30q-35 -55 -85 -55z" />
    <glyph glyph-name="notequal" unicode="&#x2260;" horiz-adv-x="447" 
d="M390 398h-124l-47 -89h171v-41h-193l-38 -73h-40l38 73h-100v41h121l47 89h-168v41h189l41 78h41l-41 -78h103v-41z" />
    <glyph glyph-name="lessequal" unicode="&#x2264;" horiz-adv-x="392" 
d="M343 505v-44l-249 -119l249 -119v-44l-294 139v48zM49 87v40h294v-40h-294z" />
    <glyph glyph-name="greaterequal" unicode="&#x2265;" horiz-adv-x="392" 
d="M49 505l294 -139v-48l-294 -139v44l249 119l-249 119v44zM49 87v40h294v-40h-294z" />
    <glyph glyph-name="lozenge" unicode="&#x25ca;" horiz-adv-x="456" 
d="M204 -1l-147 336v30l147 335h48l148 -335v-30l-148 -336h-48zM228 38l134 312l-134 312l-134 -312z" />
    <glyph glyph-name="i.loclTRK" horiz-adv-x="182" 
d="M91 622q-17 0 -27.5 10.5t-10.5 28.5q0 17 10.5 28t27.5 11q18 0 28.5 -11t10.5 -28q0 -18 -10.5 -28.5t-28.5 -10.5zM70 0v523h43v-523h-43z" />
    <glyph glyph-name="uni0414.loclBGR" horiz-adv-x="467" 
d="M6 -113v156h40l163 657h50l163 -657h39v-156h-44v113h-367v-113h-44zM93 43h283l-93 390l-49 210h-1l-47 -210z" />
    <glyph glyph-name="uni041B.loclBGR" horiz-adv-x="438" 
d="M193 700h53l180 -700h-49l-118 477l-18.5 76.5l-20.5 84.5h-2q-1 -3 -39 -161l-118 -477h-48z" />
    <glyph glyph-name="uni0432.loclBGR" horiz-adv-x="443" 
d="M274 385q125 -26 125 -185q0 -101 -48 -155t-127 -54q-75 0 -116 49.5t-41 145.5v353q0 89 41 141t115 52q70 0 111 -47.5t41 -128.5q0 -65 -27 -109t-74 -62zM219 691q-51 0 -79.5 -40t-28.5 -112v-147l76 5q72 5 108 48t36 110q0 65 -28.5 100.5t-83.5 35.5zM223 33
q62 0 97 41t35 123q0 169 -159 158l-85 -5v-169q0 -148 112 -148z" />
    <glyph glyph-name="uni0433.loclBGR" horiz-adv-x="392" 
d="M195 -10q-69 0 -113 37t-44 99q0 49 27 83t66 53t77.5 35.5t65.5 41.5t27 61q0 43 -27.5 68t-73.5 25q-107 0 -109 -107h-43q1 67 42.5 107.5t109.5 40.5q66 0 106 -36t40 -96q0 -46 -27 -78.5t-66 -51l-77.5 -35.5t-65.5 -44.5t-27 -65.5q0 -43 32 -69t80 -26
q112 0 118 116h43q-3 -74 -46 -116t-115 -42z" />
    <glyph glyph-name="uni0434.loclBGR" horiz-adv-x="453" 
d="M346 523h38v-557q0 -73 -42.5 -115.5t-113.5 -42.5q-72 0 -115.5 40t-47.5 107h42q5 -51 36 -78.5t85 -27.5q53 0 82.5 30.5t29.5 86.5v108q-41 -62 -120 -62q-72 0 -117.5 48t-45.5 130v159q0 87 44.5 136t116.5 49q82 0 124 -71zM226 53q52 0 83 35.5t31 96.5v176
q0 61 -32.5 96.5t-81.5 35.5q-58 0 -92 -37t-34 -107v-159q0 -65 34.5 -101t91.5 -36z" />
    <glyph glyph-name="uni0436.loclBGR" horiz-adv-x="590" 
d="M533 0l-175 267l-42 -52v-215h-42v215l-42 52l-175 -267h-51l199 300l-184 223h54l199 -246v444h42v-444l199 246h54l-184 -223l199 -300h-51z" />
    <glyph glyph-name="uni0437.loclBGR" horiz-adv-x="415" 
d="M257 192q109 -34 109 -188q0 -94 -45 -144.5t-126 -50.5q-155 0 -165 183h44q9 -140 120 -140q61 0 94.5 39.5t33.5 113.5q0 77 -36 120t-101 43h-61v42h59q60 0 92.5 38t32.5 104q0 65 -30.5 102.5t-83.5 37.5q-104 0 -113 -137h-44q5 86 45.5 132.5t112.5 46.5
q73 0 114.5 -48t41.5 -134q0 -130 -94 -160z" />
    <glyph glyph-name="uni0438.loclBGR" horiz-adv-x="453" 
d="M340 523h43v-523h-37l-6 68v9q-46 -88 -141 -88q-64 0 -100 48.5t-36 147.5v338h43v-332q0 -161 103 -161q58 0 94.5 47.5t36.5 126.5v319z" />
    <glyph glyph-name="uni0439.loclBGR" horiz-adv-x="453" 
d="M224 605q-48 0 -76 29.5t-30 81.5h39q3 -73 67 -73q65 0 68 73h39q-2 -52 -30 -81.5t-77 -29.5zM340 523h43v-523h-37l-6 68v9q-46 -88 -141 -88q-64 0 -100 48.5t-36 147.5v338h43v-332q0 -161 103 -161q58 0 94.5 47.5t36.5 126.5v319z" />
    <glyph glyph-name="uni045D.loclBGR" horiz-adv-x="459" 
d="M260 606h-42l-85 110h52zM347 523h43v-523h-37l-6 68v11q-44 -90 -141 -90q-136 0 -136 196v338h43v-332q0 -161 102 -161q59 0 95.5 47t36.5 127v319z" />
    <glyph glyph-name="uni043A.loclBGR" horiz-adv-x="414" 
d="M356 0l-191 273l-52 -57v-216h-43v723h43v-448l217 248h56l-191 -216l213 -307h-52z" />
    <glyph glyph-name="uni043B.loclBGR" horiz-adv-x="372" 
d="M163 523h47l149 -523h-45l-90 325q-5 17 -18 69t-19 72h-2l-36 -141l-90 -325h-46z" />
    <glyph glyph-name="uni043F.loclBGR" horiz-adv-x="453" 
d="M254 534q64 0 100 -48.5t36 -147.5v-338h-43v332q0 161 -103 161q-58 0 -94.5 -47.5t-36.5 -126.5v-319h-43v523h37l6 -68v-9q46 88 141 88z" />
    <glyph glyph-name="uni0442.loclBGR" horiz-adv-x="710" 
d="M516 534q62 0 96.5 -50t34.5 -148v-336h-43v333q0 160 -97 160q-57 0 -92 -47.5t-35 -126.5v-319h-43v333q0 160 -99 160q-55 0 -90 -47.5t-35 -126.5v-319h-43v523h37l6 -75v-2q42 88 134 88q95 0 123 -108q19 50 56.5 79t89.5 29z" />
    <glyph glyph-name="uni0446.loclBGR" horiz-adv-x="468" 
d="M402 -115v117q-51 22 -59 82q-44 -95 -144 -95q-136 0 -136 196v338h43v-332q0 -161 102 -161q58 0 94.5 47.5t36.5 126.5v319h44v-398q0 -43 14 -63.5t46 -24.5v-152h-41z" />
    <glyph glyph-name="uni0448.loclBGR" horiz-adv-x="710" 
d="M597 523h43v-523h-37l-6 75v2q-42 -88 -134 -88q-95 0 -123 108q-19 -50 -56.5 -79t-89.5 -29q-62 0 -96.5 50t-34.5 148v336h43v-333q0 -160 97 -160q57 0 92 47.5t35 126.5v319h43v-333q0 -160 99 -160q55 0 90 47.5t35 126.5v319z" />
    <glyph glyph-name="uni0449.loclBGR" horiz-adv-x="723" 
d="M656 -115v115q-47 21 -59 84q-41 -95 -137 -95q-92 0 -120 106q-40 -106 -145 -106q-62 0 -97 50t-35 148v336h43v-333q0 -160 97 -160q57 0 91.5 47.5t34.5 126.5v319h43v-333q0 -160 97 -160q55 0 90 47.5t35 126.5v319h43v-398q0 -45 14.5 -65.5t46.5 -23.5v-151h-42z
" />
    <glyph glyph-name="uni044C.loclBGR" horiz-adv-x="401" 
d="M229 356q68 1 111.5 -49t43.5 -132q0 -85 -44.5 -135.5t-116.5 -50.5q-71 0 -115.5 48t-44.5 127v359h43v-233q40 64 123 66zM223 31q53 0 85.5 38t32.5 106q0 65 -32 102t-86 37q-53 0 -85 -37t-32 -105q0 -66 32 -103.5t85 -37.5z" />
    <glyph glyph-name="uni044A.loclBGR" horiz-adv-x="453" 
d="M281 356q68 1 112 -49t44 -132q0 -85 -45 -135.5t-117 -50.5q-71 0 -115.5 48t-44.5 127v319h-104v40h148v-231q40 62 122 64zM275 31q54 0 86 38t32 106q0 65 -32 102t-86 37q-53 0 -84.5 -37t-31.5 -105q0 -66 31.5 -103.5t84.5 -37.5z" />
    <glyph glyph-name="uni044E.loclBGR" horiz-adv-x="603" 
d="M384 531q75 0 118.5 -47.5t43.5 -130.5v-185q0 -83 -43.5 -130.5t-118.5 -47.5t-119 47.5t-44 130.5v82h-106v-250h-43v721h43v-430h106v62q0 83 44 130.5t119 47.5zM503 168v185q0 65 -31.5 100.5t-87.5 35.5q-57 0 -88 -35t-31 -101v-185q0 -66 31 -101t88 -35
q56 0 87.5 35.5t31.5 100.5z" />
    <glyph glyph-name="uni0432.ss01" horiz-adv-x="443" 
d="M274 385q125 -26 125 -185q0 -101 -48 -155t-127 -54q-75 0 -116 49.5t-41 145.5v353q0 89 41 141t115 52q70 0 111 -47.5t41 -128.5q0 -65 -27 -109t-74 -62zM219 691q-51 0 -79.5 -40t-28.5 -112v-147l76 5q72 5 108 48t36 110q0 65 -28.5 100.5t-83.5 35.5zM223 33
q62 0 97 41t35 123q0 169 -159 158l-85 -5v-169q0 -148 112 -148z" />
    <glyph glyph-name="uni0433.ss01" horiz-adv-x="392" 
d="M195 -10q-69 0 -113 37t-44 99q0 49 27 83t66 53t77.5 35.5t65.5 41.5t27 61q0 43 -27.5 68t-73.5 25q-107 0 -109 -107h-43q1 67 42.5 107.5t109.5 40.5q66 0 106 -36t40 -96q0 -46 -27 -78.5t-66 -51l-77.5 -35.5t-65.5 -44.5t-27 -65.5q0 -43 32 -69t80 -26
q112 0 118 116h43q-3 -74 -46 -116t-115 -42z" />
    <glyph glyph-name="uni0434.ss01" horiz-adv-x="453" 
d="M346 523h38v-557q0 -73 -42.5 -115.5t-113.5 -42.5q-72 0 -115.5 40t-47.5 107h42q5 -51 36 -78.5t85 -27.5q53 0 82.5 30.5t29.5 86.5v108q-41 -62 -120 -62q-72 0 -117.5 48t-45.5 130v159q0 87 44.5 136t116.5 49q82 0 124 -71zM226 53q52 0 83 35.5t31 96.5v176
q0 61 -32.5 96.5t-81.5 35.5q-58 0 -92 -37t-34 -107v-159q0 -65 34.5 -101t91.5 -36z" />
    <glyph glyph-name="uni0436.ss01" horiz-adv-x="590" 
d="M533 0l-175 267l-42 -52v-215h-42v215l-42 52l-175 -267h-51l199 300l-184 223h54l199 -246v444h42v-444l199 246h54l-184 -223l199 -300h-51z" />
    <glyph glyph-name="uni0437.ss01" horiz-adv-x="415" 
d="M257 192q109 -34 109 -188q0 -94 -45 -144.5t-126 -50.5q-155 0 -165 183h44q9 -140 120 -140q61 0 94.5 39.5t33.5 113.5q0 77 -36 120t-101 43h-61v42h59q60 0 92.5 38t32.5 104q0 65 -30.5 102.5t-83.5 37.5q-104 0 -113 -137h-44q5 86 45.5 132.5t112.5 46.5
q73 0 114.5 -48t41.5 -134q0 -130 -94 -160z" />
    <glyph glyph-name="uni0438.ss01" horiz-adv-x="453" 
d="M340 523h43v-523h-37l-6 68v9q-46 -88 -141 -88q-64 0 -100 48.5t-36 147.5v338h43v-332q0 -161 103 -161q58 0 94.5 47.5t36.5 126.5v319z" />
    <glyph glyph-name="uni0439.ss01" horiz-adv-x="453" 
d="M224 605q-48 0 -76 29.5t-30 81.5h39q3 -73 67 -73q65 0 68 73h39q-2 -52 -30 -81.5t-77 -29.5zM340 523h43v-523h-37l-6 68v9q-46 -88 -141 -88q-64 0 -100 48.5t-36 147.5v338h43v-332q0 -161 103 -161q58 0 94.5 47.5t36.5 126.5v319z" />
    <glyph glyph-name="uni045D.ss01" horiz-adv-x="459" 
d="M260 606h-42l-85 110h52zM347 523h43v-523h-37l-6 68v11q-44 -90 -141 -90q-136 0 -136 196v338h43v-332q0 -161 102 -161q59 0 95.5 47t36.5 127v319z" />
    <glyph glyph-name="uni043A.ss01" horiz-adv-x="414" 
d="M356 0l-191 273l-52 -57v-216h-43v723h43v-448l217 248h56l-191 -216l213 -307h-52z" />
    <glyph glyph-name="uni043B.ss01" horiz-adv-x="372" 
d="M163 523h47l149 -523h-45l-90 325q-5 17 -18 69t-19 72h-2l-36 -141l-90 -325h-46z" />
    <glyph glyph-name="uni043F.ss01" horiz-adv-x="453" 
d="M254 534q64 0 100 -48.5t36 -147.5v-338h-43v332q0 161 -103 161q-58 0 -94.5 -47.5t-36.5 -126.5v-319h-43v523h37l6 -68v-9q46 88 141 88z" />
    <glyph glyph-name="uni0442.ss01" horiz-adv-x="710" 
d="M516 534q62 0 96.5 -50t34.5 -148v-336h-43v333q0 160 -97 160q-57 0 -92 -47.5t-35 -126.5v-319h-43v333q0 160 -99 160q-55 0 -90 -47.5t-35 -126.5v-319h-43v523h37l6 -75v-2q42 88 134 88q95 0 123 -108q19 50 56.5 79t89.5 29z" />
    <glyph glyph-name="uni0446.ss01" horiz-adv-x="468" 
d="M402 -115v117q-51 22 -59 82q-44 -95 -144 -95q-136 0 -136 196v338h43v-332q0 -161 102 -161q58 0 94.5 47.5t36.5 126.5v319h44v-398q0 -43 14 -63.5t46 -24.5v-152h-41z" />
    <glyph glyph-name="uni0448.ss01" horiz-adv-x="710" 
d="M597 523h43v-523h-37l-6 75v2q-42 -88 -134 -88q-95 0 -123 108q-19 -50 -56.5 -79t-89.5 -29q-62 0 -96.5 50t-34.5 148v336h43v-333q0 -160 97 -160q57 0 92 47.5t35 126.5v319h43v-333q0 -160 99 -160q55 0 90 47.5t35 126.5v319z" />
    <glyph glyph-name="uni0449.ss01" horiz-adv-x="723" 
d="M656 -115v115q-47 21 -59 84q-41 -95 -137 -95q-92 0 -120 106q-40 -106 -145 -106q-62 0 -97 50t-35 148v336h43v-333q0 -160 97 -160q57 0 91.5 47.5t34.5 126.5v319h43v-333q0 -160 97 -160q55 0 90 47.5t35 126.5v319h43v-398q0 -45 14.5 -65.5t46.5 -23.5v-151h-42z
" />
    <glyph glyph-name="uni044C.ss01" horiz-adv-x="401" 
d="M229 356q68 1 111.5 -49t43.5 -132q0 -85 -44.5 -135.5t-116.5 -50.5q-71 0 -115.5 48t-44.5 127v359h43v-233q40 64 123 66zM223 31q53 0 85.5 38t32.5 106q0 65 -32 102t-86 37q-53 0 -85 -37t-32 -105q0 -66 32 -103.5t85 -37.5z" />
    <glyph glyph-name="uni044A.ss01" horiz-adv-x="453" 
d="M281 356q68 1 112 -49t44 -132q0 -85 -45 -135.5t-117 -50.5q-71 0 -115.5 48t-44.5 127v319h-104v40h148v-231q40 62 122 64zM275 31q54 0 86 38t32 106q0 65 -32 102t-86 37q-53 0 -84.5 -37t-31.5 -105q0 -66 31.5 -103.5t84.5 -37.5z" />
    <glyph glyph-name="uni044E.ss01" horiz-adv-x="603" 
d="M384 531q75 0 118.5 -47.5t43.5 -130.5v-185q0 -83 -43.5 -130.5t-118.5 -47.5t-119 47.5t-44 130.5v82h-106v-250h-43v721h43v-430h106v62q0 83 44 130.5t119 47.5zM503 168v185q0 65 -31.5 100.5t-87.5 35.5q-57 0 -88 -35t-31 -101v-185q0 -66 31 -101t88 -35
q56 0 87.5 35.5t31.5 100.5z" />
    <glyph glyph-name="zero.lf" horiz-adv-x="452" 
d="M226 -10q-72 0 -118 48t-46 125v374q0 77 46 125t118 48t118 -48t46 -125v-374q0 -77 -46 -125t-118 -48zM226 32q54 0 87.5 35.5t33.5 95.5v374q0 60 -33.5 95.5t-87.5 35.5t-87 -35.5t-33 -95.5v-374q0 -60 33 -95.5t87 -35.5z" />
    <glyph glyph-name="one.lf" horiz-adv-x="271" 
d="M149 700h41v-700h-44v641l-117 -96v54z" />
    <glyph glyph-name="two.lf" horiz-adv-x="393" 
d="M34 0v38q0 52 20.5 103t50.5 90t66 81l66 77.5t50.5 78.5t20.5 84q0 52 -31.5 84t-83.5 31q-49 0 -79.5 -33.5t-32.5 -94.5h-44q5 76 47.5 123t108.5 47q71 1 115.5 -44t44.5 -113q0 -55 -28.5 -110t-68.5 -100.5l-80.5 -91t-69 -99.5t-28.5 -109h280v-42h-324z" />
    <glyph glyph-name="three.lf" horiz-adv-x="396" 
d="M179 411q80 0 124 -45.5t44 -124.5v-63q0 -89 -45 -138t-119 -49q-72 0 -117.5 48t-45.5 135h44q2 -72 34 -106.5t84 -34.5q57 0 89 37t32 108v63q0 64 -34.5 97.5t-92.5 33.5h-55v36l157 251h-238v41h295v-31l-163 -258h7z" />
    <glyph glyph-name="four.lf" horiz-adv-x="394" 
d="M389 239v-43h-82v-196h-44l-1 196h-249v27l166 477h45l-159 -461h197l1 249h44v-249h82z" />
    <glyph glyph-name="five.lf" horiz-adv-x="405" 
d="M213 468q68 0 109 -48.5t41 -132.5v-98q0 -97 -41.5 -148t-112.5 -51q-69 0 -112.5 46.5t-45.5 125.5h44q1 -61 32 -95t82 -34q52 0 81 38.5t29 117.5v97q0 68 -28.5 104t-81.5 36q-82 0 -106 -86h-43v360h287v-42h-243v-241q39 51 109 51z" />
    <glyph glyph-name="six.lf" horiz-adv-x="430" 
d="M227 462q67 0 114 -47.5t47 -122.5v-127q0 -78 -47 -126t-116 -48t-116 46.5t-47 119.5v383q0 76 45.5 123t115.5 47q66 0 111.5 -45t49.5 -118h-45q-3 56 -35.5 88.5t-80.5 32.5q-51 0 -84 -34.5t-33 -92.5v-138q43 59 121 59zM344 165v127q0 58 -35 93t-88 35
q-49 0 -82 -34t-33 -88v-141q0 -55 34 -89t85 -34t85 35.5t34 95.5z" />
    <glyph glyph-name="seven.lf" horiz-adv-x="356" 
d="M82 0l187 657h-263v43h313v-27l-191 -673h-46z" />
    <glyph glyph-name="eight.lf" horiz-adv-x="449" 
d="M299 360q45 -19 70.5 -62t25.5 -99v-26q0 -84 -46 -133t-125 -49t-124.5 49t-45.5 133v26q0 56 25.5 99t70.5 62q-39 19 -61.5 62t-22.5 97v15q0 81 42.5 128t115.5 47q74 0 116.5 -47t42.5 -128v-15q0 -54 -22.5 -97t-61.5 -62zM110 519q0 -64 30.5 -100.5t83.5 -36.5
t84 36.5t31 100.5v15q0 61 -31 96.5t-84 35.5t-83.5 -35.5t-30.5 -96.5v-15zM351 173v26q0 64 -34 102t-93 38q-58 0 -92 -38t-34 -102v-26q0 -64 34 -101.5t92 -37.5q59 0 93 37.5t34 101.5z" />
    <glyph glyph-name="nine.lf" horiz-adv-x="430" 
d="M205 709q69 0 116 -46.5t47 -119.5v-383q0 -76 -45.5 -123t-115.5 -47q-66 0 -111 45t-49 118h44q3 -56 35.5 -88.5t80.5 -32.5q52 0 84.5 34.5t32.5 92.5v137q-44 -58 -121 -58q-67 0 -114 47.5t-47 122.5v127q0 78 47 126t116 48zM209 280q49 0 82 34t33 88v141
q0 56 -34 89.5t-85 33.5t-85 -35t-34 -96v-127q0 -58 35 -93t88 -35z" />
    <glyph glyph-name="zero.lf.zero" horiz-adv-x="452" 
d="M226 710q72 0 118 -48t46 -125v-374q0 -77 -46 -125t-118 -48t-118 48t-46 125v374q0 77 46 125t118 48zM226 668q-54 0 -87 -35.5t-33 -95.5v-304l241 294v10q0 60 -33.5 95.5t-87.5 35.5zM226 32q54 0 87.5 35.5t33.5 95.5v305l-241 -294v-11q0 -60 33 -95.5t87 -35.5z
" />
    <glyph glyph-name="zero.tf" horiz-adv-x="446" 
d="M230 -10q-72 0 -118 48t-46 125v374q0 77 46 125t118 48t118 -48t46 -125v-374q0 -77 -46 -125t-118 -48zM230 32q54 0 87 35.5t33 95.5v374q0 60 -33 95.5t-87 35.5t-87 -35.5t-33 -95.5v-374q0 -60 33 -95.5t87 -35.5z" />
    <glyph glyph-name="one.tf" horiz-adv-x="446" 
d="M260 42h116v-42h-280v42h120v599l-117 -96v54l120 101h41v-658z" />
    <glyph glyph-name="two.tf" horiz-adv-x="446" 
d="M72 0v38q0 52 20.5 103t51.5 90l67.5 81l67.5 77.5t51.5 78.5t20.5 84q0 51 -32 83t-85 32q-51 0 -82 -33.5t-33 -94.5h-44q5 76 48 122.5t111 47.5q72 1 116.5 -44t44.5 -113q0 -47 -20.5 -94t-51.5 -83.5l-67.5 -78l-67.5 -78.5t-51.5 -83.5t-20.5 -92.5h284v-42h-328z
" />
    <glyph glyph-name="three.tf" horiz-adv-x="446" 
d="M215 411q80 0 124 -46t44 -125v-62q0 -89 -45 -138t-120 -49q-72 0 -118 48t-46 135h44q2 -72 34.5 -106.5t85.5 -34.5q58 0 89.5 36.5t31.5 108.5v62q0 64 -34.5 98t-92.5 34h-56v36l158 251h-240v41h297v-31l-164 -258h8z" />
    <glyph glyph-name="four.tf" horiz-adv-x="446" 
d="M414 239v-43h-82v-196h-44v196h-250v27l165 477h46l-159 -461h198v249h44v-249h82z" />
    <glyph glyph-name="five.tf" horiz-adv-x="446" 
d="M239 468q67 0 108 -48.5t41 -132.5v-98q0 -97 -41 -148t-113 -51q-69 0 -112.5 46.5t-44.5 125.5h44q1 -61 31.5 -95t81.5 -34q110 0 110 156v97q0 68 -28.5 104t-81.5 36q-80 0 -106 -86h-42v360h286v-42h-243v-242q39 52 110 52z" />
    <glyph glyph-name="six.tf" horiz-adv-x="446" 
d="M230 462q67 0 114 -47.5t47 -122.5v-127q0 -78 -47 -126t-116 -48t-116 46.5t-47 119.5v383q0 76 45.5 123t115.5 47q66 0 111 -45t49 -118h-44q-3 56 -35.5 88.5t-80.5 32.5q-52 0 -84.5 -34.5t-32.5 -92.5v-137q43 58 121 58zM347 165v127q0 58 -35 93t-88 35
q-49 0 -82 -34t-33 -88v-141q0 -55 34 -89t85 -34t85 35.5t34 95.5z" />
    <glyph glyph-name="seven.tf" horiz-adv-x="446" 
d="M129 0l204 657h-277v43h327v-27l-208 -673h-46z" />
    <glyph glyph-name="eight.tf" horiz-adv-x="446" 
d="M305 360q44 -18 70 -61t26 -100v-26q0 -84 -46 -133t-125 -49t-124.5 49t-45.5 133v26q0 57 25.5 100t69.5 61q-39 19 -61.5 62t-22.5 97v15q0 81 42.5 128t116.5 47t116.5 -47t42.5 -128v-15q0 -54 -22.5 -97t-61.5 -62zM115 519q0 -64 31 -100.5t84 -36.5t84 36.5
t31 100.5v15q0 61 -31 96.5t-84 35.5t-84 -35.5t-31 -96.5v-15zM356 173v26q0 65 -34 102.5t-92 37.5t-92 -37.5t-34 -102.5v-26q0 -65 34 -102t92 -37t92 37t34 102z" />
    <glyph glyph-name="nine.tf" horiz-adv-x="446" 
d="M218 714q69 0 116 -46.5t47 -119.5v-383q0 -76 -45 -123t-116 -47q-66 0 -111 45t-49 118h44q3 -56 35.5 -88.5t80.5 -32.5q52 0 84.5 34.5t32.5 92.5v137q-43 -58 -121 -58q-67 0 -114 47.5t-47 122.5v127q0 78 47 126t116 48zM222 285q49 0 82 34t33 88v141
q0 56 -34 89.5t-85 33.5t-85 -35t-34 -96v-127q0 -58 35 -93t88 -35z" />
    <glyph glyph-name="zero.tf.zero" horiz-adv-x="446" 
d="M230 710q72 0 118 -48t46 -125v-374q0 -77 -46 -125t-118 -48t-118 48t-46 125v374q0 77 46 125t118 48zM230 668q-54 0 -87 -35.5t-33 -95.5v-304l240 293v11q0 60 -33 95.5t-87 35.5zM230 32q54 0 87 35.5t33 95.5v304l-240 -293v-11q0 -60 33 -95.5t87 -35.5z" />
    <glyph glyph-name="zero.zero" horiz-adv-x="446" 
d="M226 710q72 0 118 -48t46 -125v-374q0 -77 -46 -125t-118 -48t-118 48t-46 125v374q0 77 46 125t118 48zM226 668q-54 0 -87 -35.5t-33 -95.5v-304l241 294v10q0 60 -33.5 95.5t-87.5 35.5zM226 32q54 0 87.5 35.5t33.5 95.5v305l-241 -294v-11q0 -60 33 -95.5t87 -35.5z
" />
    <glyph glyph-name="hyphen.case" horiz-adv-x="333" 
d="M48 336v41h238v-41h-238z" />
    <glyph glyph-name="endash.case" horiz-adv-x="433" 
d="M48 336v41h338v-41h-338z" />
    <glyph glyph-name="emdash.case" horiz-adv-x="553" 
d="M48 336v41h458v-41h-458z" />
    <glyph glyph-name="guillemotleft.case" horiz-adv-x="431" 
d="M174 149l-126 156v24l126 156h46l-136 -168l136 -168h-46zM338 149l-126 156v24l126 156h46l-136 -168l136 -168h-46z" />
    <glyph glyph-name="guillemotright.case" horiz-adv-x="431" 
d="M93 149h-45l135 168l-135 168h45l127 -156v-24zM257 149h-45l135 168l-135 168h45l127 -156v-24z" />
    <glyph glyph-name="guilsinglleft.case" horiz-adv-x="267" 
d="M174 149l-126 156v24l126 156h46l-136 -168l136 -168h-46z" />
    <glyph glyph-name="guilsinglright.case" horiz-adv-x="267" 
d="M93 149h-45l135 168l-135 168h45l127 -156v-24z" />
    <glyph glyph-name="uni0308.case" 
d="M-150 797q-15 0 -24.5 9t-9.5 24t9.5 24t24.5 9t24 -9t9 -24q0 -33 -33 -33zM-28 797q-15 0 -24.5 9t-9.5 24t9.5 24t24.5 9q16 0 25 -9t9 -24q0 -33 -34 -33z" />
    <glyph glyph-name="uni0307.case" 
d="M-34 801q-18 0 -28.5 11t-10.5 28q0 18 10.5 28.5t28.5 10.5q17 0 28 -10.5t11 -28.5q0 -17 -11 -28t-28 -11z" />
    <glyph glyph-name="gravecomb.case" 
d="M-6 770h-44l-100 109h54z" />
    <glyph glyph-name="acutecomb.case" 
d="M-144 770l90 109h54l-100 -109h-44z" />
    <glyph glyph-name="uni030B.case" 
d="M-207 770l71 109h51l-82 -109h-40zM-113 770l75 109h50l-85 -109h-40z" />
    <glyph glyph-name="uni0302.case" 
d="M-8 770h-42l-61 77l-62 -77h-42l79 109h49z" />
    <glyph glyph-name="uni030C.case" 
d="M-51 879h42l-79 -109h-49l-79 109h42l62 -77z" />
    <glyph glyph-name="uni0306.case" 
d="M-110 768q-48 0 -76.5 29t-29.5 81h39q3 -73 67 -73q65 0 68 73h39q-1 -52 -29.5 -81t-77.5 -29z" />
    <glyph glyph-name="uni030A.case" 
d="M-66 770q-29 0 -47.5 18.5t-18.5 47.5q0 28 18.5 45.5t47.5 17.5t47.5 -17.5t18.5 -45.5q0 -29 -18.5 -47.5t-47.5 -18.5zM-66 799q16 0 25.5 10t9.5 26t-9.5 25.5t-25.5 9.5t-25.5 -9.5t-9.5 -25.5t9.5 -26t25.5 -10z" />
    <glyph glyph-name="tildecomb.case" 
d="M-60 797q-22 0 -45.5 20t-35.5 20q-23 0 -26 -37h-40q2 34 18.5 54t44.5 20q23 0 46.5 -20t34.5 -20q25 0 28 37h38q-3 -34 -19.5 -54t-43.5 -20z" />
    <glyph glyph-name="uni0304.case" 
d="M-171 802v39h175v-39h-175z" />
    <glyph glyph-name="uni0312.case" 
d="M-71 770l-17 169h33l37 -169h-53z" />
    <glyph glyph-name="uni0326.case" 
d="M-83 -236l18 169h49l-32 -169h-35z" />
    <glyph glyph-name="uni0327.case" 
d="M-100 -189q-35 0 -59 19.5t-26 50.5h37q6 -36 49 -36q22 0 35.5 10.5t13.5 28.5t-11.5 28.5t-30.5 10.5q-20 0 -34 -7l-13 14l22 70h32l-16 -53q10 2 18 2q30 0 50 -18.5t20 -46.5q0 -34 -24 -53.5t-63 -19.5z" />
    <glyph glyph-name="uni0328.case" 
d="M-34 -192q-39 0 -60 22t-21 54q0 60 66 116h41q-65 -57 -65 -109q0 -21 13.5 -31.5t32.5 -10.5q16 0 28 3v-39q-15 -5 -35 -5z" />
    <glyph glyph-name="uni0337.case" 
d="M-203 -43l162 590h43l-162 -590h-43z" />
    <glyph glyph-name="uni0338.case" 
d="M-353 -36l215 771h43l-216 -771h-42z" />
    <glyph glyph-name="brevecombcy" 
d="M-110 605q-48 0 -76 29.5t-30 81.5h39q3 -73 67 -73q65 0 68 73h39q-2 -52 -30 -81.5t-77 -29.5z" />
    <glyph glyph-name="brevecombcy.case" 
d="M-110 768q-48 0 -76.5 29t-29.5 81h39q3 -73 67 -73q65 0 68 73h39q-1 -52 -29.5 -81t-77.5 -29z" />
    </font>
</defs>
</svg>
