<?xml version="1.0" standalone="no"?>
<!DOCTYPE svg PUBLIC "-//W3C//DTD SVG 1.1//EN" "http://www.w3.org/Graphics/SVG/1.1/DTD/svg11.dtd" >
<svg>
<metadata>
Created by FontForge 20090622 at Wed Sep 26 07:09:05 2018
 By deploy user
Copyright (c) 2016 by Fontfabric LLC. All rights reserved.
</metadata>
<defs>
<font id="Akrobat-ExtraBold" horiz-adv-x="0" >
  <font-face 
    font-family="Akrobat ExtraBold"
    font-weight="800"
    font-stretch="normal"
    units-per-em="1000"
    panose-1="0 0 9 0 0 0 0 0 0 0"
    ascent="800"
    descent="-200"
    x-height="529"
    cap-height="700"
    bbox="-532 -273 815 986"
    underline-thickness="50"
    underline-position="-50"
    unicode-range="U+0020-U+25CA"
  />
<missing-glyph horiz-adv-x="500" 
d="M410 800v-1000h-317v1000h317zM333 733h-165v-33h65v-37h-66v-33h166v33h-66v37h66v33zM267 604h-100v-104h166v34h-66v70zM233 570v-36h-33v36h33zM333 473h-166v-33h66v-37h-66v-33h100v70h66v33zM333 413h-33v-66h-133v-34h166v100zM333 291h-100v-56h34v23h33v-47
h-100v80h-33v-113h166v113zM333 118h-166v-113h166v113zM300 85v-47h-100v47h100zM333 -18h-166v-33h70l-70 -47v-33h166v33h-102l70 47h32v33z" />
    <glyph glyph-name=".notdef" horiz-adv-x="500" 
d="M410 800v-1000h-317v1000h317zM333 733h-165v-33h65v-37h-66v-33h166v33h-66v37h66v33zM267 604h-100v-104h166v34h-66v70zM233 570v-36h-33v36h33zM333 473h-166v-33h66v-37h-66v-33h100v70h66v33zM333 413h-33v-66h-133v-34h166v100zM333 291h-100v-56h34v23h33v-47
h-100v80h-33v-113h166v113zM333 118h-166v-113h166v113zM300 85v-47h-100v47h100zM333 -18h-166v-33h70l-70 -47v-33h166v33h-102l70 47h32v33z" />
    <glyph glyph-name=".null" 
 />
    <glyph glyph-name="nonmarkingreturn" horiz-adv-x="333" 
 />
    <glyph glyph-name="space" unicode=" " horiz-adv-x="207" 
 />
    <glyph glyph-name="exclam" unicode="!" horiz-adv-x="266" 
d="M73 181v519h119v-519h-119zM133 -12q-31 0 -49.5 19t-18.5 50t18.5 49.5t49.5 18.5t49.5 -18.5t18.5 -49.5t-18.5 -50t-49.5 -19z" />
    <glyph glyph-name="quotedbl" unicode="&#x22;" horiz-adv-x="313" 
d="M21 450l21 250h112l-62 -250h-71zM167 450l20 250h113l-63 -250h-70z" />
    <glyph glyph-name="numbersign" unicode="#" horiz-adv-x="646" 
d="M84 0l40 174h-116l20 87h115l38 167h-115l20 87h115l43 185h107l-42 -185h105l43 185h108l-42 -185h115l-20 -87h-115l-39 -167h116l-20 -87h-115l-40 -174h-108l40 174h-106l-40 -174h-107zM250 261h106l38 167h-105z" />
    <glyph glyph-name="dollar" unicode="$" horiz-adv-x="472" 
d="M446 183q0 -74 -43 -126.5t-119 -66.5v-75h-102v76q-75 14 -117 67.5t-43 139.5h126q1 -92 87 -92q41 0 62 21.5t21 56.5q0 29 -21 55t-52 44.5t-68 43t-68 49.5t-52 66t-21 90q0 67 39 115t107 62v76h102v-76q71 -14 111 -65.5t41 -131.5h-126q-1 83 -76 83
q-34 0 -53.5 -18t-19.5 -48q0 -25 15.5 -46t41 -38t56 -34t60.5 -38t55.5 -46t41 -62t15.5 -82z" />
    <glyph glyph-name="percent" unicode="%" horiz-adv-x="593" 
d="M111 388q-48 0 -76.5 28.5t-28.5 80.5v104q0 52 28.5 81t76.5 29t76.5 -29t28.5 -81v-104q0 -52 -28.5 -80.5t-76.5 -28.5zM17 0l476 700h82l-476 -700h-82zM111 453q32 0 32 43v106q0 44 -32 44q-33 0 -33 -44v-106q0 -43 33 -43zM468 -9q-48 0 -76.5 28.5t-28.5 81.5
v103q0 53 28.5 82t76.5 29t76.5 -29t28.5 -82v-103q0 -53 -28.5 -81.5t-76.5 -28.5zM468 56q32 0 32 43v107q0 43 -32 43q-33 0 -33 -43v-107q0 -43 33 -43z" />
    <glyph glyph-name="ampersand" unicode="&#x26;" horiz-adv-x="597" 
d="M560 0h-122l-36 53q-70 -67 -157 -67q-73 0 -126 47.5t-53 130.5q0 62 29 111.5t80 99.5q-70 112 -70 179q0 64 40.5 112t116.5 48q78 0 117.5 -46.5t39.5 -113.5q0 -56 -28 -101t-79 -95l89 -125q14 32 21 58h110q-21 -84 -64 -155zM211 550q0 -36 41 -102q60 58 60 104
q0 24 -12.5 42t-37.5 18q-22 0 -36.5 -15.5t-14.5 -46.5zM251 96q45 0 89 46l-103 143q-56 -59 -56 -112q0 -35 19.5 -56t50.5 -21z" />
    <glyph glyph-name="quotesingle" unicode="'" horiz-adv-x="168" 
d="M21 450l21 250h112l-62 -250h-71z" />
    <glyph glyph-name="parenleft" unicode="(" horiz-adv-x="302" 
d="M260 -123q-93 1 -143.5 54t-50.5 147v541q0 94 50.5 147t143.5 54v-110q-76 -2 -76 -84v-555q0 -81 76 -84v-110z" />
    <glyph glyph-name="parenright" unicode=")" horiz-adv-x="302" 
d="M42 -123v110q76 3 76 84v555q0 82 -76 84v110q93 -1 143.5 -54t50.5 -147v-541q0 -94 -50.5 -147t-143.5 -54z" />
    <glyph glyph-name="asterisk" unicode="*" horiz-adv-x="313" 
d="M111 480l-62 45l46 62l-74 24l24 73l73 -24v77h77v-77l73 24l24 -73l-74 -23l46 -63l-62 -45l-46 62z" />
    <glyph glyph-name="plus" unicode="+" horiz-adv-x="471" 
d="M430 364v-108h-140v-144h-109v144h-140v108h140v144h109v-144h140z" />
    <glyph glyph-name="comma" unicode="," horiz-adv-x="181" 
d="M24 -140l20 250h113l-63 -250h-70z" />
    <glyph glyph-name="hyphen" unicode="-" horiz-adv-x="315" 
d="M34 206v102h247v-102h-247z" />
    <glyph glyph-name="period" unicode="." horiz-adv-x="200" 
d="M100 -12q-31 0 -49.5 19t-18.5 50t18.5 49.5t49.5 18.5t50 -18.5t19 -49.5t-19 -50t-50 -19z" />
    <glyph glyph-name="slash" unicode="/" horiz-adv-x="433" 
d="M5 -121l321 936h102l-320 -936h-103z" />
    <glyph glyph-name="zero" unicode="0" horiz-adv-x="478" 
d="M239 -10q-90 0 -141.5 54.5t-51.5 149.5v310q0 96 51.5 151t141.5 55q91 0 143 -55t52 -151v-310q0 -95 -52 -149.5t-143 -54.5zM239 99q80 0 80 94v310q0 96 -80 96q-79 0 -79 -96v-310q0 -94 79 -94z" />
    <glyph glyph-name="one" unicode="1" horiz-adv-x="307" 
d="M162 700h79v-700h-117v541l-100 -63v130z" />
    <glyph glyph-name="two" unicode="2" horiz-adv-x="430" 
d="M25 0v76q0 63 26.5 120.5t64 100.5t74.5 81t63.5 77.5t26.5 74.5q0 30 -17 50.5t-50 20.5q-32 0 -50.5 -22t-19.5 -62h-112q4 94 51.5 144.5t129.5 50.5q88 0 136.5 -52.5t48.5 -124.5q0 -51 -25.5 -101.5t-62.5 -91.5l-73.5 -79.5t-62 -78.5t-25.5 -75h253v-109h-376z
" />
    <glyph glyph-name="three" unicode="3" horiz-adv-x="429" 
d="M254 426q64 -6 100.5 -56.5t36.5 -120.5v-45q0 -216 -189 -216q-88 0 -137 52.5t-52 150.5h116q3 -46 20.5 -67t51.5 -21q39 0 55.5 24.5t16.5 78.5v39q0 52 -20.5 72.5t-62.5 20.5h-65v79l107 176h-195v107h338v-78z" />
    <glyph glyph-name="four" unicode="4" horiz-adv-x="447" 
d="M445 273v-107h-75v-166h-115v166h-248v63l136 471h117l-125 -427h122l16 221h97v-221h75z" />
    <glyph glyph-name="five" unicode="5" horiz-adv-x="446" 
d="M252 480q70 0 113.5 -51.5t43.5 -144.5v-86q0 -100 -49 -155t-134 -55q-82 0 -131 52.5t-51 143.5h117q2 -43 18 -62t47 -19q32 0 48 22t16 76v75q0 50 -15 71t-45 21q-52 0 -65 -61h-111v393h332v-105h-219v-139q37 24 85 24z" />
    <glyph glyph-name="six" unicode="6" horiz-adv-x="455" 
d="M254 458q75 0 123.5 -49.5t48.5 -126.5v-105q0 -85 -53 -137t-138 -52q-84 0 -136.5 52t-52.5 137v347q0 85 52 136.5t136 51.5q82 0 133.5 -50.5t54.5 -135.5h-116q-8 71 -73 71q-33 0 -52 -19t-19 -54v-100q36 34 92 34zM309 178v96q0 36 -20.5 56t-53.5 20
q-34 0 -53.5 -20t-19.5 -56v-96q0 -36 20 -55.5t53 -19.5q34 0 54 20t20 55z" />
    <glyph glyph-name="seven" unicode="7" horiz-adv-x="379" 
d="M52 0l177 592h-233v108h366v-85l-188 -615h-122z" />
    <glyph glyph-name="eight" unicode="8" horiz-adv-x="465" 
d="M355 367q72 -50 72 -148v-28q0 -94 -52.5 -148.5t-141.5 -54.5t-141.5 54t-52.5 149v28q0 46 19 85t52 62q-59 54 -59 138v18q0 86 49.5 138t132.5 52t132.5 -52t49.5 -138v-18q0 -82 -60 -137zM166 518v-18q0 -84 67 -84q66 0 66 84v18q0 80 -66 80q-67 0 -67 -80z
M309 191v27q0 88 -76 88q-77 0 -77 -88v-27q0 -87 77 -87q76 0 76 87z" />
    <glyph glyph-name="nine" unicode="9" horiz-adv-x="458" 
d="M227 712q84 0 136.5 -52t52.5 -137v-347q0 -85 -52 -136.5t-136 -51.5q-82 0 -133.5 50.5t-54.5 135.5h116q8 -71 73 -71q33 0 52 19t19 54v100q-36 -34 -92 -34q-75 0 -123.5 49.5t-48.5 126.5v105q0 85 53 137t138 52zM227 350q34 0 53.5 20t19.5 56v96q0 36 -20 55.5
t-53 19.5q-34 0 -54 -20t-20 -55v-96q0 -36 20.5 -56t53.5 -20z" />
    <glyph glyph-name="colon" unicode=":" horiz-adv-x="186" 
d="M99 329q-31 0 -49.5 18.5t-18.5 49.5t18.5 49.5t49.5 18.5t50 -18.5t19 -49.5t-19 -49.5t-50 -18.5zM99 -12q-31 0 -49.5 19t-18.5 50t18.5 49.5t49.5 18.5t50 -18.5t19 -49.5t-19 -50t-50 -19z" />
    <glyph glyph-name="semicolon" unicode=";" horiz-adv-x="190" 
d="M98 330q-31 0 -50 19t-19 49q0 31 19 50t50 19t49.5 -19t18.5 -50q0 -30 -18.5 -49t-49.5 -19zM24 -140l20 250h113l-63 -250h-70z" />
    <glyph glyph-name="less" unicode="&#x3c;" horiz-adv-x="441" 
d="M400 492v-110l-238 -83l238 -84v-110l-359 137v114z" />
    <glyph glyph-name="equal" unicode="=" horiz-adv-x="471" 
d="M41 350v107h389v-107h-389zM41 153v106h389v-106h-389z" />
    <glyph glyph-name="greater" unicode="&#x3e;" horiz-adv-x="441" 
d="M41 492l359 -136v-114l-359 -137v110l238 84l-238 83v110z" />
    <glyph glyph-name="question" unicode="?" horiz-adv-x="403" 
d="M127 181v34q0 52 14 93t33.5 66.5t39.5 47.5t34 49t14 58q0 32 -17 53.5t-53 21.5q-71 0 -74 -91h-114q5 93 54.5 146.5t132.5 53.5t135.5 -50.5t52.5 -132.5q0 -42 -14 -77.5t-34 -60l-40 -49t-34 -57t-14 -70.5v-35h-116zM186 -12q-31 0 -49.5 19t-18.5 50t18.5 49.5
t49.5 18.5t50 -18.5t19 -49.5t-19 -50t-50 -19z" />
    <glyph glyph-name="at" unicode="@" horiz-adv-x="818" 
d="M432 -120q-187 0 -288.5 100t-101.5 284v115q0 166 99 257.5t275 91.5q172 0 266 -86t94 -243v-108q0 -101 -50.5 -150t-118.5 -49q-74 0 -106 64q-33 -66 -111 -66q-62 0 -97.5 39.5t-35.5 113.5v118q0 77 35.5 117t91.5 40q60 0 91 -52l7 38h71v-248q0 -37 11 -55.5
t43 -18.5q75 0 75 109v108q0 117 -67.5 177.5t-197.5 60.5q-137 0 -209 -66t-72 -192v-115q0 -143 74 -218.5t216 -75.5q117 0 207 46l47 -71q-94 -65 -248 -65zM403 181q25 0 40 18.5t15 52.5v106q0 31 -14 50t-40 19q-50 0 -50 -63v-118q0 -65 49 -65z" />
    <glyph glyph-name="A" unicode="A" horiz-adv-x="485" 
d="M353 0l-28 127h-164l-28 -127h-128l172 700h132l172 -700h-128zM186 244h114l-28 130q-8 40 -28 172h-3q-14 -109 -27 -172z" />
    <glyph glyph-name="B" unicode="B" horiz-adv-x="513" 
d="M392 359q42 -21 65.5 -62t23.5 -92q0 -93 -56.5 -149t-147.5 -56h-211v700h205q83 0 134 -53.5t51 -141.5q0 -96 -64 -146zM252 584h-63v-172h67q75 0 75 88q0 84 -79 84zM258 116q97 0 97 89q0 45 -25.5 68.5t-72.5 23.5h-68v-181h69z" />
    <glyph glyph-name="C" unicode="C" horiz-adv-x="498" 
d="M256 -12q-99 0 -154.5 57.5t-55.5 164.5v280q0 108 55.5 166t154.5 58q100 0 155.5 -57.5t60.5 -164.5h-123q-3 54 -26 78.5t-68 24.5q-82 0 -82 -105v-280q0 -103 83 -103q46 0 69 24.5t27 76.5h123q-4 -106 -60.5 -163t-158.5 -57z" />
    <glyph glyph-name="D" unicode="D" horiz-adv-x="515" 
d="M66 0v700h183q104 0 162 -59.5t58 -166.5v-245q0 -108 -57.5 -168.5t-160.5 -60.5h-185zM189 117h62q94 0 94 113v244q0 109 -94 109h-62v-466z" />
    <glyph glyph-name="E" unicode="E" horiz-adv-x="465" 
d="M189 116h239v-116h-362v700h352v-116h-229v-173h210v-112h-210v-183z" />
    <glyph glyph-name="F" unicode="F" horiz-adv-x="428" 
d="M404 584h-215v-175h196v-113h-196v-296h-123v700h338v-116z" />
    <glyph glyph-name="G" unicode="G" horiz-adv-x="512" 
d="M260 -12q-101 0 -157.5 58t-56.5 165v278q0 108 56.5 165.5t157.5 57.5q97 0 151 -56.5t58 -163.5h-123q-2 53 -23 77t-63 24q-87 0 -87 -104v-278q0 -104 89 -104q91 0 91 102v68h-97v109h217v-177q-2 -106 -58 -163.5t-155 -57.5z" />
    <glyph glyph-name="H" unicode="H" horiz-adv-x="548" 
d="M358 700h124v-700h-124v295h-169v-295h-123v700h123v-288h169v288z" />
    <glyph glyph-name="I" unicode="I" horiz-adv-x="254" 
d="M66 0v700h123v-700h-123z" />
    <glyph glyph-name="J" unicode="J" horiz-adv-x="304" 
d="M0 -136v113q60 0 89 29.5t29 102.5v591h123v-591q0 -117 -61.5 -181t-179.5 -64z" />
    <glyph glyph-name="K" unicode="K" horiz-adv-x="517" 
d="M377 0l-147 285l-43 -67v-218h-121v700h121v-287l41 82l117 205h142l-188 -305l218 -395h-140z" />
    <glyph glyph-name="L" unicode="L" horiz-adv-x="414" 
d="M189 117h219v-117h-342v700h123v-583z" />
    <glyph glyph-name="M" unicode="M" horiz-adv-x="708" 
d="M518 700h125v-700h-121v219q6 157 10 241l-5 2l-65 -184l-47 -124h-122l-47 124l-65 184l-5 -2q4 -84 10 -241v-219h-120v700h124l114 -274q33 -81 48 -130h4q12 39 49 130z" />
    <glyph glyph-name="N" unicode="N" horiz-adv-x="563" 
d="M66 0v700h122l146 -329l56 -143l3 3q-17 134 -17 256v213h121v-700h-122l-135 304l-65 171l-3 -3q15 -132 15 -271v-201h-121z" />
    <glyph glyph-name="O" unicode="O" horiz-adv-x="533" 
d="M267 -12q-104 0 -162.5 63t-58.5 174v250q0 111 58.5 174t162.5 63q103 0 161.5 -63t58.5 -174v-250q0 -111 -58.5 -174t-161.5 -63zM267 107q93 0 93 118v250q0 118 -93 118q-94 0 -94 -118v-250q0 -118 94 -118z" />
    <glyph glyph-name="P" unicode="P" horiz-adv-x="514" 
d="M260 700q106 0 165 -61.5t59 -171.5t-59 -171t-165 -61h-71v-235h-123v700h194zM259 351q99 0 99 116t-99 116h-70v-232h70z" />
    <glyph glyph-name="Q" unicode="Q" horiz-adv-x="542" 
d="M493 475v-250q0 -109 -57 -172l55 -66l-72 -63l-63 77q-38 -13 -85 -13q-104 0 -162.5 63t-58.5 174v250q0 111 58.5 174t162.5 63t163 -63t59 -174zM177 225q0 -118 94 -118t94 118v250q0 118 -94 118t-94 -118v-250z" />
    <glyph glyph-name="R" unicode="R" horiz-adv-x="516" 
d="M370 0l-125 244h-56v-244h-123v700h192q103 0 159.5 -59.5t56.5 -166.5q0 -155 -110 -208l141 -266h-135zM189 583v-222h68q91 0 91 112q0 110 -91 110h-68z" />
    <glyph glyph-name="S" unicode="S" horiz-adv-x="472" 
d="M234 -14q-98 0 -154.5 56t-57.5 156h126q1 -92 87 -92q41 0 62 21.5t21 56.5q0 29 -21 55t-52 44.5t-68 43t-68 49.5t-52 66t-21 90q0 80 53.5 131t144.5 51q94 0 147.5 -54t54.5 -148h-126q-1 83 -76 83q-34 0 -53.5 -18t-19.5 -48q0 -25 15.5 -46t41 -38t56 -34
t60.5 -38t55.5 -46t41 -62t15.5 -82q0 -85 -57 -141t-155 -56z" />
    <glyph glyph-name="T" unicode="T" horiz-adv-x="440" 
d="M424 700v-117h-141v-583h-126v583h-141v117h408z" />
    <glyph glyph-name="U" unicode="U" horiz-adv-x="534" 
d="M267 -11q-100 0 -156.5 60.5t-56.5 168.5v482h125v-482q0 -110 88 -110t88 110v482h125v-482q0 -108 -56.5 -168.5t-156.5 -60.5z" />
    <glyph glyph-name="V" unicode="V" horiz-adv-x="479" 
d="M174 0l-169 700h128l73 -356q15 -75 31 -191h4q23 143 32 191l73 356h128l-169 -700h-131z" />
    <glyph glyph-name="W" unicode="W" horiz-adv-x="773" 
d="M162 0l-157 700h127l63 -355q23 -128 30 -191h4q3 22 31 193l62 343h129l62 -343q28 -171 31 -193h4q7 63 30 191l63 355h127l-157 -700h-131l-58 269q-25 110 -33 227h-4q-11 -125 -34 -227l-58 -269h-131z" />
    <glyph glyph-name="X" unicode="X" horiz-adv-x="497" 
d="M483 0h-135l-99 243l-100 -243h-135l166 362l-156 338h134l91 -222l90 222h135l-157 -338z" />
    <glyph glyph-name="Y" unicode="Y" horiz-adv-x="460" 
d="M169 0v218l-168 482h128l67 -212q15 -44 33 -111h3q15 59 33 113l66 210h128l-167 -482v-218h-123z" />
    <glyph glyph-name="Z" unicode="Z" horiz-adv-x="427" 
d="M15 0v84l235 499h-219v117h369v-85l-234 -498h239v-117h-390z" />
    <glyph glyph-name="bracketleft" unicode="[" horiz-adv-x="311" 
d="M66 -120v940h203v-109h-86v-722h86v-109h-203z" />
    <glyph glyph-name="backslash" unicode="\" horiz-adv-x="505" 
d="M464 -121h-102l-321 936h103z" />
    <glyph glyph-name="bracketright" unicode="]" horiz-adv-x="311" 
d="M245 820v-940h-203v109h86v722h-86v109h203z" />
    <glyph glyph-name="asciicircum" unicode="^" horiz-adv-x="349" 
d="M341 473h-104l-62 133l-63 -133h-105l116 227h102z" />
    <glyph glyph-name="underscore" unicode="_" horiz-adv-x="379" 
d="M17 -123v113h345v-113h-345z" />
    <glyph glyph-name="a" unicode="a" horiz-adv-x="458" 
d="M228 542q177 0 177 -199v-343h-95l-7 50q-36 -64 -117 -64q-72 0 -115.5 46t-43.5 119q0 80 53 122t144 42h62v28q0 85 -60 85q-59 0 -66 -58h-118q4 80 53 126t133 46zM286 165v54h-60q-79 0 -79 -68q0 -28 17 -45t50 -17t52.5 20t19.5 56z" />
    <glyph glyph-name="b" unicode="b" horiz-adv-x="470" 
d="M259 542q77 0 123.5 -56t46.5 -150v-141q0 -95 -46.5 -151t-123.5 -56q-32 0 -63.5 17t-52.5 42l-7 -48h-82v726h115v-218q40 35 90 35zM309 195v141q0 93 -68 93q-35 0 -53.5 -24t-18.5 -69v-141q0 -46 19 -70.5t53 -24.5q68 0 68 95z" />
    <glyph glyph-name="c" unicode="c" horiz-adv-x="440" 
d="M226 -12q-86 0 -135 52t-49 145v161q0 92 49 144t135 52q90 0 138.5 -51.5t51.5 -144.5h-119q-3 83 -69 83q-67 0 -67 -83v-161q0 -84 67 -84q66 0 70 84h119q-2 -93 -53 -145t-138 -52z" />
    <glyph glyph-name="d" unicode="d" horiz-adv-x="470" 
d="M301 725h116v-726h-83l-6 49q-20 -26 -52 -43t-65 -17q-76 0 -122.5 56t-46.5 151v141q0 94 46 150t123 56q50 0 90 -35v218zM301 195v141q0 45 -18.5 69t-52.5 24q-68 0 -68 -93v-141q0 -95 68 -95q34 0 52.5 24t18.5 71z" />
    <glyph glyph-name="e" unicode="e" horiz-adv-x="456" 
d="M302 167h119q-8 -85 -58.5 -132t-135.5 -47q-86 0 -135.5 54t-49.5 150v149q0 95 49.5 148t137.5 53q89 0 139.5 -53t50.5 -148v-118h-259v-31q0 -91 69 -91q34 0 50 15t23 51zM230 432q-70 0 -70 -90v-35h142v35q0 90 -72 90z" />
    <glyph glyph-name="f" unicode="f" horiz-adv-x="311" 
d="M273 632q-38 0 -55 -19.5t-17 -63.5v-20h95v-108h-95v-421h-117v421h-75v108h75v20q0 87 46.5 138.5t142.5 51.5h33v-107h-33z" />
    <glyph glyph-name="g" unicode="g" horiz-adv-x="474" 
d="M337 529h83v-551q0 -78 -48.5 -125t-133.5 -47q-83 0 -131 46.5t-50 124.5h116q6 -61 65 -61q29 0 45.5 16.5t16.5 45.5v73q-40 -27 -89 -27q-74 0 -121.5 54.5t-47.5 141.5v122q0 89 47.5 144.5t121.5 55.5q72 0 118 -49zM230 136q70 0 70 84v124q0 41 -18.5 62.5
t-51.5 21.5q-69 0 -69 -86v-122q0 -84 69 -84z" />
    <glyph glyph-name="h" unicode="h" horiz-adv-x="473" 
d="M276 542q71 0 109.5 -55.5t38.5 -163.5v-323h-118v322q0 57 -15 82t-47 25q-34 0 -53 -25.5t-19 -72.5v-331h-118v724h118v-239q41 57 104 57z" />
    <glyph glyph-name="i" unicode="i" horiz-adv-x="226" 
d="M113 611q-30 0 -49 19.5t-19 49.5t19 49.5t49 19.5q29 0 49 -19.5t20 -49.5q0 -28 -20 -48.5t-49 -20.5zM54 0v529h118v-529h-118z" />
    <glyph glyph-name="j" unicode="j" horiz-adv-x="254" 
d="M131 610q-30 0 -49 19.5t-19 49.5t19 49.5t49 19.5q29 0 49 -19.5t20 -49.5q0 -28 -20 -48.5t-49 -20.5zM-12 -194v113q85 1 85 86v524h118v-517q0 -98 -52 -151.5t-151 -54.5z" />
    <glyph glyph-name="k" unicode="k" horiz-adv-x="449" 
d="M321 0l-119 226l-31 -33v-193h-117v725h117v-381l122 185h137l-150 -211l174 -318h-133z" />
    <glyph glyph-name="l" unicode="l" horiz-adv-x="216" 
d="M49 0v725h118v-725h-118z" />
    <glyph glyph-name="m" unicode="m" horiz-adv-x="712" 
d="M515 542q70 0 109 -54.5t39 -160.5v-327h-117v326q0 103 -59 103q-32 0 -51 -25.5t-19 -72.5v-331h-117v326q0 55 -15 79t-45 24q-32 0 -50.5 -25.5t-18.5 -72.5v-331h-117v529h79l10 -56q41 69 125 69q82 0 120 -71q42 71 127 71z" />
    <glyph glyph-name="n" unicode="n" horiz-adv-x="473" 
d="M272 542q73 0 112.5 -54t39.5 -160v-328h-118v325q0 104 -62 104q-34 0 -53 -25.5t-19 -72.5v-331h-118v529h80l10 -57q42 70 128 70z" />
    <glyph glyph-name="o" unicode="o" horiz-adv-x="467" 
d="M233 -13q-90 0 -140.5 54t-50.5 152v143q0 98 50.5 152t140.5 54q91 0 141.5 -54t50.5 -152v-143q0 -98 -50.5 -152t-141.5 -54zM233 102q72 0 72 91v143q0 91 -72 91q-71 0 -71 -91v-143q0 -91 71 -91z" />
    <glyph glyph-name="p" unicode="p" horiz-adv-x="470" 
d="M259 541q77 0 123.5 -56t46.5 -151v-141q0 -95 -46.5 -150.5t-123.5 -55.5q-52 0 -90 35v-202h-115v710h82l7 -49q20 26 51.5 43t64.5 17zM309 193v141q0 95 -68 95q-34 0 -53 -24.5t-19 -70.5v-141q0 -45 19 -69.5t53 -24.5q68 0 68 94z" />
    <glyph glyph-name="q" unicode="q" horiz-adv-x="470" 
d="M334 530h83v-710h-116v201q-39 -34 -90 -34q-77 0 -123 55.5t-46 150.5v141q0 95 46.5 151t122.5 56q33 0 65 -17t52 -43zM230 99q34 0 52.5 24.5t18.5 69.5v141q0 47 -18.5 71t-52.5 24q-68 0 -68 -95v-141q0 -94 68 -94z" />
    <glyph glyph-name="r" unicode="r" horiz-adv-x="345" 
d="M279 541q36 0 57 -10v-114q-31 13 -65 13q-47 0 -73 -29.5t-26 -86.5v-314h-118v529h80l11 -63q43 75 134 75z" />
    <glyph glyph-name="s" unicode="s" horiz-adv-x="425" 
d="M219 -14q-92 0 -144 52t-54 128h118q1 -31 19.5 -51.5t57.5 -20.5q32 0 50 14.5t18 38.5q0 22 -19 38.5t-47 26.5t-61 25t-61 31.5t-47 48.5t-19 74q0 70 48 110.5t129 40.5q86 0 131 -47t50 -126h-114q-3 68 -67 68q-28 0 -44 -13t-16 -34q0 -23 26.5 -39t63.5 -29
t74.5 -31t64 -54.5t26.5 -89.5q0 -73 -49 -117t-134 -44z" />
    <glyph glyph-name="t" unicode="t" horiz-adv-x="326" 
d="M265 104h33v-111h-40q-82 0 -129.5 49.5t-47.5 135.5v244h-71v107h71v126h117v-126h92v-107h-92v-245q0 -73 67 -73z" />
    <glyph glyph-name="u" unicode="u" horiz-adv-x="473" 
d="M301 529h118v-529h-80l-10 57q-42 -70 -128 -70q-73 0 -112.5 54t-39.5 160v328h118v-325q0 -104 62 -104q34 0 53 25.5t19 72.5v331z" />
    <glyph glyph-name="v" unicode="v" horiz-adv-x="422" 
d="M145 0l-143 529h125l44 -199q21 -93 37 -191h6q29 152 37 191l44 199h125l-143 -529h-132z" />
    <glyph glyph-name="w" unicode="w" horiz-adv-x="652" 
d="M528 529h122l-123 -529h-127l-35 152q-29 127 -36 224h-5q-8 -97 -36 -224l-35 -152h-128l-123 529h122l37 -209q23 -141 28 -190h5q7 57 30 185l40 204h125l39 -204q23 -128 30 -185h5q5 49 28 190z" />
    <glyph glyph-name="x" unicode="x" horiz-adv-x="423" 
d="M427 0h-133l-83 169l-82 -169h-133l142 266l-129 263h129l73 -162l73 162h130l-127 -263z" />
    <glyph glyph-name="y" unicode="y" horiz-adv-x="432" 
d="M311 529h119l-166 -556q-24 -77 -59.5 -119.5t-95.5 -42.5h-61v114h37q51 0 71 69l16 55l-170 480h125l58 -179l37 -125l36 124z" />
    <glyph glyph-name="z" unicode="z" horiz-adv-x="371" 
d="M6 0v75l192 345h-173v109h322v-75l-189 -346h199v-108h-351z" />
    <glyph glyph-name="braceleft" unicode="{" horiz-adv-x="339" 
d="M222 495q0 -91 -62 -144q62 -53 62 -144v-141q0 -34 20 -54t56 -20v-112q-90 0 -141 53t-51 147v142q0 69 -64 72v114q64 3 64 72v140q0 94 51 147t141 53v-112q-36 0 -56 -20t-20 -54v-139z" />
    <glyph glyph-name="bar" unicode="|" horiz-adv-x="219" 
d="M49 -96v899h120v-899h-120z" />
    <glyph glyph-name="braceright" unicode="}" horiz-adv-x="339" 
d="M233 479q0 -70 65 -73v-113q-65 -5 -65 -73v-139q0 -94 -51 -147.5t-140 -53.5v113q36 0 55.5 19.5t19.5 53.5v140q0 89 63 143q-63 54 -63 144v141q0 35 -19.5 54.5t-55.5 19.5v112q89 0 140 -53t51 -147v-141z" />
    <glyph glyph-name="asciitilde" unicode="~" horiz-adv-x="475" 
d="M335 234q-37 0 -98 23.5t-84 23.5q-36 0 -61 -37l-60 73q43 66 109 66q36 0 97 -23.5t84 -23.5q37 0 60 38l63 -74q-44 -66 -110 -66z" />
    <glyph glyph-name="uni00A0" unicode="&#xa0;" horiz-adv-x="207" 
 />
    <glyph glyph-name="exclamdown" unicode="&#xa1;" horiz-adv-x="266" 
d="M133 404q-31 0 -49.5 18.5t-18.5 49.5t18.5 49.5t49.5 18.5t49.5 -18.5t18.5 -49.5t-18.5 -49.5t-49.5 -18.5zM73 -180v528h119v-528h-119z" />
    <glyph glyph-name="cent" unicode="&#xa2;" horiz-adv-x="439" 
d="M416 185q-2 -80 -40 -130t-106 -63v-67h-92v68q-65 13 -100.5 63t-35.5 129v160q0 78 35.5 127.5t100.5 62.5v66h92v-65q68 -12 104.5 -61t38.5 -130h-119q-3 82 -67 82q-66 0 -66 -82v-160q0 -84 66 -84q67 0 70 84h119z" />
    <glyph glyph-name="sterling" unicode="&#xa3;" horiz-adv-x="482" 
d="M189 113h262v-113h-424v102q59 7 59 85v104h-60v104h60v124q0 87 48.5 140t128.5 53t129.5 -53.5t54.5 -148.5h-119q-9 83 -66 83q-26 0 -41.5 -18.5t-15.5 -54.5v-125h157v-104h-157v-103q0 -45 -16 -75z" />
    <glyph glyph-name="currency" unicode="&#xa4;" horiz-adv-x="465" 
d="M100 71l-68 49l52 71q-21 37 -21 92v77q0 52 20 92l-51 70l68 50l43 -59q39 23 89 23t91 -23l42 59l68 -50l-51 -70q20 -40 20 -92v-77q0 -55 -21 -92l52 -71l-68 -49l-44 59q-38 -22 -89 -22q-50 0 -88 22zM232 212q60 0 60 72v75q0 72 -60 72q-59 0 -59 -72v-75
q0 -72 59 -72z" />
    <glyph glyph-name="yen" unicode="&#xa5;" horiz-adv-x="460" 
d="M459 700l-142 -409h132v-72h-157v-61h157v-72h-157v-86h-123v86h-158v72h158v61h-158v72h133l-143 409h128l67 -212q15 -44 33 -111h3q15 59 33 113l66 210h128z" />
    <glyph glyph-name="brokenbar" unicode="&#xa6;" horiz-adv-x="199" 
d="M39 488v315h120v-315h-120zM39 -92v316h120v-316h-120z" />
    <glyph glyph-name="section" unicode="&#xa7;" horiz-adv-x="428" 
d="M346 216q51 -44 51 -110q0 -74 -48 -118t-132 -44q-91 0 -140.5 51.5t-51.5 127.5h117q4 -71 72 -71q31 0 48 14.5t17 40.5q0 25 -26.5 43t-64.5 33t-75.5 33.5t-64 54.5t-26.5 86q0 81 67 122q-52 44 -52 112t46.5 108t124.5 40q84 0 127.5 -46.5t48.5 -125.5h-114
q-3 66 -62 66q-26 0 -40.5 -12.5t-14.5 -31.5q0 -20 18.5 -35.5t46 -26t60 -26.5t60 -34.5t46 -53t18.5 -80.5q0 -75 -56 -117zM245 282q39 9 39 48q0 27 -22.5 45t-64.5 36q-25 -1 -41.5 -15t-16.5 -36q0 -26 25.5 -43t80.5 -35z" />
    <glyph glyph-name="copyright" unicode="&#xa9;" horiz-adv-x="684" 
d="M342 -7q-140 0 -218 85.5t-78 238.5v76q0 151 78 236t218 85t218 -85t78 -236v-76q0 -153 -78 -238.5t-218 -85.5zM342 67q106 0 161 64t55 186v76q0 121 -55 183.5t-161 62.5t-161 -62.5t-55 -183.5v-76q0 -122 55 -186t161 -64zM340 150q-60 0 -94.5 37.5t-34.5 103.5
v123q0 66 34.5 103t94.5 37q62 0 96 -36.5t36 -103.5h-83q-1 59 -47 59q-48 0 -48 -59v-123q0 -59 48 -59q47 0 50 59h83q-1 -67 -37 -104t-98 -37z" />
    <glyph glyph-name="guillemotleft" unicode="&#xab;" horiz-adv-x="488" 
d="M147 86l-113 151v40l113 151h116l-127 -171l127 -171h-116zM339 86l-114 151v40l114 151h115l-127 -171l127 -171h-115z" />
    <glyph glyph-name="logicalnot" unicode="&#xac;" horiz-adv-x="475" 
d="M334 187v69h-290v108h397v-177h-107z" />
    <glyph glyph-name="registered" unicode="&#xae;" horiz-adv-x="456" 
d="M231 714q86 0 133.5 -49.5t47.5 -141.5v-59q0 -96 -47.5 -147.5t-133.5 -51.5q-87 0 -134.5 51.5t-47.5 147.5v59q0 92 47.5 141.5t134.5 49.5zM369 463v59q0 151 -138 151q-139 0 -139 -151v-59q0 -159 139 -159q138 0 138 159zM310 533q0 -51 -38 -72l49 -92h-50
l-42 84h-20v-84h-46v244h70q37 0 57 -21t20 -59zM209 569v-73h23q32 0 32 37q0 36 -32 36h-23z" />
    <glyph glyph-name="degree" unicode="&#xb0;" horiz-adv-x="311" 
d="M156 439q-61 0 -97.5 37.5t-36.5 99.5q0 61 36.5 98.5t97.5 37.5t97.5 -37.5t36.5 -98.5q0 -62 -36.5 -99.5t-97.5 -37.5zM156 516q25 0 40 16.5t15 43.5t-15 43.5t-40 16.5t-40 -16.5t-15 -43.5t15 -43.5t40 -16.5z" />
    <glyph glyph-name="plusminus" unicode="&#xb1;" horiz-adv-x="475" 
d="M292 428h140v-106h-140v-130h-109v130h-139v106h139v130h109v-130zM44 45v101h388v-101h-388z" />
    <glyph glyph-name="paragraph" unicode="&#xb6;" horiz-adv-x="615" 
d="M207 -91v470q-74 0 -119.5 44t-45.5 118q0 75 45.5 119t119.5 44h342v-795h-119v683h-104v-683h-119z" />
    <glyph glyph-name="periodcentered" unicode="&#xb7;" horiz-adv-x="200" 
d="M100 190q-31 0 -49.5 18.5t-18.5 49.5t18.5 49.5t49.5 18.5t50 -18.5t19 -49.5t-19 -49.5t-50 -18.5z" />
    <glyph glyph-name="guillemotright" unicode="&#xbb;" horiz-adv-x="488" 
d="M149 86h-115l127 171l-127 171h115l114 -151v-40zM341 86h-116l127 171l-127 171h116l113 -151v-40z" />
    <glyph glyph-name="questiondown" unicode="&#xbf;" horiz-adv-x="403" 
d="M209 402q-31 0 -49.5 18.5t-18.5 49.5t18.5 49.5t49.5 18.5t49.5 -18.5t18.5 -49.5t-18.5 -49.5t-49.5 -18.5zM204 -186q-83 0 -135 50t-52 133q0 42 14 77t33.5 60l39.5 49.5t34 57t14 70.5v35h117v-35q0 -52 -14 -92.5t-34 -66t-40 -47.5t-34 -49t-14 -58
q0 -32 17.5 -54t52.5 -22q70 0 75 92h114q-6 -93 -55 -146.5t-133 -53.5z" />
    <glyph glyph-name="Agrave" unicode="&#xc0;" horiz-adv-x="485" 
d="M309 767h-85l-111 132h103zM353 0l-28 127h-164l-28 -127h-128l172 700h132l172 -700h-128zM186 244h114l-28 130q-8 40 -28 172h-3q-14 -109 -27 -172z" />
    <glyph glyph-name="Aacute" unicode="&#xc1;" horiz-adv-x="485" 
d="M375 899l-111 -132h-86l94 132h103zM353 0l-28 127h-164l-28 -127h-128l172 700h132l172 -700h-128zM186 244h114l-28 130q-8 40 -28 172h-3q-14 -109 -27 -172z" />
    <glyph glyph-name="Acircumflex" unicode="&#xc2;" horiz-adv-x="485" 
d="M242 836l-47 -69h-81l81 132h93l81 -132h-81zM353 0l-28 127h-164l-28 -127h-128l172 700h132l172 -700h-128zM186 244h114l-28 130q-8 40 -28 172h-3q-14 -109 -27 -172z" />
    <glyph glyph-name="Atilde" unicode="&#xc3;" horiz-adv-x="485" 
d="M216 813q-22 0 -25 -26h-72q3 48 26.5 74t59.5 26q23 0 46 -14.5t32 -14.5q23 0 26 26h71q-3 -46 -26 -73t-60 -27q-23 0 -45.5 14.5t-32.5 14.5zM353 0l-28 127h-164l-28 -127h-128l172 700h132l172 -700h-128zM186 244h114l-28 130q-8 40 -28 172h-3q-14 -109 -27 -172
z" />
    <glyph glyph-name="Adieresis" unicode="&#xc4;" horiz-adv-x="485" 
d="M165 778q-25 0 -40.5 15t-15.5 41t15.5 41t40.5 15t40 -15.5t15 -40.5t-15 -40.5t-40 -15.5zM319 778q-25 0 -40.5 15t-15.5 41t15.5 41t40.5 15t40.5 -15t15.5 -41t-15.5 -41t-40.5 -15zM353 0l-28 127h-164l-28 -127h-128l172 700h132l172 -700h-128zM186 244h114
l-28 130q-8 40 -28 172h-3q-14 -109 -27 -172z" />
    <glyph glyph-name="Aring" unicode="&#xc5;" horiz-adv-x="485" 
d="M245 763q-39 0 -62.5 23.5t-23.5 61.5q0 37 23.5 60t62.5 23t63 -23t24 -60q0 -38 -24 -61.5t-63 -23.5zM245 880q-14 0 -23 -9t-9 -24t9 -23.5t23 -8.5q33 0 33 32q0 15 -9 24t-24 9zM353 0l-28 127h-164l-28 -127h-128l172 700h132l172 -700h-128zM186 244h114l-28 130
q-8 40 -28 172h-3q-14 -109 -27 -172z" />
    <glyph glyph-name="AE" unicode="&#xc6;" horiz-adv-x="705" 
d="M451 116h217v-116h-340v132h-149l-48 -132h-131l268 700h390v-116h-207v-173h188v-112h-188v-183zM221 248h107v316h-4q-26 -106 -54 -183z" />
    <glyph glyph-name="Ccedilla" unicode="&#xc7;" horiz-adv-x="498" 
d="M475 208q-4 -97 -51 -152.5t-133 -65.5l-11 -38q3 1 11 1q32 0 52.5 -19t20.5 -50q0 -40 -29 -63.5t-77 -23.5q-41 0 -71 23t-34 60h65q13 -24 41 -24q17 0 26.5 8.5t9.5 21.5q0 27 -35 27q-18 0 -32 -6l-20 19l18 63q-85 9 -132.5 66t-47.5 155v280q0 108 55.5 166
t154.5 58q100 0 155.5 -57.5t60.5 -164.5h-123q-3 54 -26 78.5t-68 24.5q-82 0 -82 -105v-280q0 -103 83 -103q46 0 69 24.5t27 76.5h123z" />
    <glyph glyph-name="Egrave" unicode="&#xc8;" horiz-adv-x="465" 
d="M313 767h-85l-111 132h103zM189 116h239v-116h-362v700h352v-116h-229v-173h210v-112h-210v-183z" />
    <glyph glyph-name="Eacute" unicode="&#xc9;" horiz-adv-x="465" 
d="M371 899l-111 -132h-86l94 132h103zM189 116h239v-116h-362v700h352v-116h-229v-173h210v-112h-210v-183z" />
    <glyph glyph-name="Ecircumflex" unicode="&#xca;" horiz-adv-x="465" 
d="M246 836l-47 -69h-81l81 132h93l81 -132h-81zM189 116h239v-116h-362v700h352v-116h-229v-173h210v-112h-210v-183z" />
    <glyph glyph-name="Edieresis" unicode="&#xcb;" horiz-adv-x="465" 
d="M170 778q-26 0 -41 15t-15 41t15 41t41 15q25 0 40 -15.5t15 -40.5t-15 -40.5t-40 -15.5zM324 778q-26 0 -41 15t-15 41t15 41t41 15t41 -15t15 -41t-15 -41t-41 -15zM189 116h239v-116h-362v700h352v-116h-229v-173h210v-112h-210v-183z" />
    <glyph glyph-name="Igrave" unicode="&#xcc;" horiz-adv-x="254" 
d="M195 767h-85l-111 132h103zM66 0v700h123v-700h-123z" />
    <glyph glyph-name="Iacute" unicode="&#xcd;" horiz-adv-x="254" 
d="M64 767l94 132h103l-111 -132h-86zM66 0v700h123v-700h-123z" />
    <glyph glyph-name="Icircumflex" unicode="&#xce;" horiz-adv-x="254" 
d="M128 836l-47 -69h-81l81 132h93l81 -132h-81zM66 0v700h123v-700h-123z" />
    <glyph glyph-name="Idieresis" unicode="&#xcf;" horiz-adv-x="259" 
d="M57 778q-25 0 -40.5 15t-15.5 41t15.5 41t40.5 15t40.5 -15t15.5 -41t-15.5 -41t-40.5 -15zM204 778q-26 0 -41 15t-15 41t15 41t41 15t41 -15t15 -41t-15 -41t-41 -15zM68 0v700h123v-700h-123z" />
    <glyph glyph-name="Eth" unicode="&#xd0;" horiz-adv-x="525" 
d="M251 700q106 0 167 -55.5t61 -154.5v-276q0 -101 -61 -157.5t-165 -56.5h-180v319h-66v77h66v304h178zM353 215v274q0 50 -24 72t-70 22h-63v-187h77v-77h-77v-202h63q47 0 70.5 22.5t23.5 75.5z" />
    <glyph glyph-name="Ntilde" unicode="&#xd1;" horiz-adv-x="563" 
d="M333 784q-23 0 -45.5 14.5t-32.5 14.5q-22 0 -25 -26h-72q3 48 26.5 74t59.5 26q23 0 46 -14.5t32 -14.5q23 0 26 26h71q-3 -46 -26 -73t-60 -27zM66 0v700h122l146 -329l56 -143l3 3q-17 134 -17 256v213h121v-700h-122l-135 304l-65 171l-3 -3q15 -132 15 -271v-201
h-121z" />
    <glyph glyph-name="Ograve" unicode="&#xd2;" horiz-adv-x="533" 
d="M332 767h-85l-111 132h103zM267 -12q-104 0 -162.5 63t-58.5 174v250q0 111 58.5 174t162.5 63q103 0 161.5 -63t58.5 -174v-250q0 -111 -58.5 -174t-161.5 -63zM267 107q93 0 93 118v250q0 118 -93 118q-94 0 -94 -118v-250q0 -118 94 -118z" />
    <glyph glyph-name="Oacute" unicode="&#xd3;" horiz-adv-x="533" 
d="M202 767l94 132h103l-111 -132h-86zM267 -12q-104 0 -162.5 63t-58.5 174v250q0 111 58.5 174t162.5 63q103 0 161.5 -63t58.5 -174v-250q0 -111 -58.5 -174t-161.5 -63zM267 107q93 0 93 118v250q0 118 -93 118q-94 0 -94 -118v-250q0 -118 94 -118z" />
    <glyph glyph-name="Ocircumflex" unicode="&#xd4;" horiz-adv-x="533" 
d="M266 836l-47 -69h-81l81 132h93l81 -132h-81zM267 712q103 0 161.5 -63t58.5 -174v-250q0 -111 -58.5 -174t-161.5 -63q-104 0 -162.5 63t-58.5 174v250q0 111 58.5 174t162.5 63zM360 225v250q0 118 -93 118q-94 0 -94 -118v-250q0 -118 94 -118q93 0 93 118z" />
    <glyph glyph-name="Otilde" unicode="&#xd5;" horiz-adv-x="533" 
d="M318 784q-23 0 -45.5 14.5t-32.5 14.5q-22 0 -25 -26h-72q3 48 26.5 74t59.5 26q23 0 46 -14.5t32 -14.5q23 0 26 26h71q-3 -46 -26 -73t-60 -27zM267 -12q-104 0 -162.5 63t-58.5 174v250q0 111 58.5 174t162.5 63q103 0 161.5 -63t58.5 -174v-250q0 -111 -58.5 -174
t-161.5 -63zM267 107q93 0 93 118v250q0 118 -93 118q-94 0 -94 -118v-250q0 -118 94 -118z" />
    <glyph glyph-name="Odieresis" unicode="&#xd6;" horiz-adv-x="533" 
d="M189 778q-25 0 -40.5 15t-15.5 41t15.5 41t40.5 15t40 -15.5t15 -40.5t-15 -40.5t-40 -15.5zM343 778q-25 0 -40.5 15t-15.5 41t15.5 41t40.5 15t40.5 -15t15.5 -41t-15.5 -41t-40.5 -15zM267 -12q-104 0 -162.5 63t-58.5 174v250q0 111 58.5 174t162.5 63
q103 0 161.5 -63t58.5 -174v-250q0 -111 -58.5 -174t-161.5 -63zM267 107q93 0 93 118v250q0 118 -93 118q-94 0 -94 -118v-250q0 -118 94 -118z" />
    <glyph glyph-name="multiply" unicode="&#xd7;" horiz-adv-x="471" 
d="M114 100l-77 77l122 122l-121 120l76 78l122 -122l121 122l77 -78l-121 -120l121 -122l-77 -77l-121 122z" />
    <glyph glyph-name="Oslash" unicode="&#xd8;" horiz-adv-x="541" 
d="M415 666q76 -64 76 -191v-250q0 -111 -58.5 -174t-162.5 -63q-30 0 -57 6l-18 -61h-95l30 98q-80 62 -80 194v250q0 111 58.5 174t161.5 63q35 0 62 -7l18 62h95zM364 225v250q0 118 -94 118q-93 0 -93 -118v-250q0 -118 93 -118q94 0 94 118z" />
    <glyph glyph-name="Ugrave" unicode="&#xd9;" horiz-adv-x="534" 
d="M333 767h-85l-111 132h103zM267 -11q-100 0 -156.5 60.5t-56.5 168.5v482h125v-482q0 -110 88 -110t88 110v482h125v-482q0 -108 -56.5 -168.5t-156.5 -60.5z" />
    <glyph glyph-name="Uacute" unicode="&#xda;" horiz-adv-x="534" 
d="M203 767l94 132h103l-111 -132h-86zM267 -11q-100 0 -156.5 60.5t-56.5 168.5v482h125v-482q0 -110 88 -110t88 110v482h125v-482q0 -108 -56.5 -168.5t-156.5 -60.5z" />
    <glyph glyph-name="Ucircumflex" unicode="&#xdb;" horiz-adv-x="534" 
d="M267 836l-47 -69h-81l81 132h93l81 -132h-81zM355 700h125v-482q0 -108 -56.5 -168.5t-156.5 -60.5t-156.5 60.5t-56.5 168.5v482h125v-482q0 -110 88 -110t88 110v482z" />
    <glyph glyph-name="Udieresis" unicode="&#xdc;" horiz-adv-x="534" 
d="M190 778q-26 0 -41 15t-15 41t15 41t41 15q25 0 40 -15.5t15 -40.5t-15 -40.5t-40 -15.5zM344 778q-26 0 -41 15t-15 41t15 41t41 15t41 -15t15 -41t-15 -41t-41 -15zM267 -11q-100 0 -156.5 60.5t-56.5 168.5v482h125v-482q0 -110 88 -110t88 110v482h125v-482
q0 -108 -56.5 -168.5t-156.5 -60.5z" />
    <glyph glyph-name="Yacute" unicode="&#xdd;" horiz-adv-x="460" 
d="M166 767l94 132h103l-111 -132h-86zM169 0v218l-168 482h128l67 -212q15 -44 33 -111h3q15 59 33 113l66 210h128l-167 -482v-218h-123z" />
    <glyph glyph-name="Thorn" unicode="&#xde;" horiz-adv-x="501" 
d="M260 595q106 0 165 -61.5t59 -171.5q0 -111 -59 -172t-165 -61h-71v-129h-123v700h123v-105h71zM259 246q99 0 99 116t-99 116h-70v-232h70z" />
    <glyph glyph-name="germandbls" unicode="&#xdf;" horiz-adv-x="489" 
d="M376 364q41 -25 65 -67t24 -90q0 -94 -56.5 -150.5t-147.5 -56.5h-37v117h18q97 0 97 90q0 96 -94 96h-21v113h16q81 0 81 89q0 93 -72 93q-73 0 -73 -95v-503h-122v503q0 96 53 153.5t143 57.5q89 0 142 -58t53 -152q0 -90 -69 -140z" />
    <glyph glyph-name="agrave" unicode="&#xe0;" horiz-adv-x="458" 
d="M305 609h-85l-92 132h103zM228 542q177 0 177 -199v-343h-95l-7 50q-36 -64 -117 -64q-72 0 -115.5 46t-43.5 119q0 80 53 122t144 42h62v28q0 85 -60 85q-59 0 -66 -58h-118q4 80 53 126t133 46zM286 165v54h-60q-79 0 -79 -68q0 -28 17 -45t50 -17t52.5 20t19.5 56z
" />
    <glyph glyph-name="aacute" unicode="&#xe1;" horiz-adv-x="458" 
d="M344 741l-92 -132h-85l74 132h103zM228 542q177 0 177 -199v-343h-95l-7 50q-36 -64 -117 -64q-72 0 -115.5 46t-43.5 119q0 80 53 122t144 42h62v28q0 85 -60 85q-59 0 -66 -58h-118q4 80 53 126t133 46zM286 165v54h-60q-79 0 -79 -68q0 -28 17 -45t50 -17t52.5 20
t19.5 56z" />
    <glyph glyph-name="acircumflex" unicode="&#xe2;" horiz-adv-x="458" 
d="M230 677l-47 -68h-82l81 131h94l81 -131h-81zM228 542q177 0 177 -199v-343h-95l-7 50q-36 -64 -117 -64q-72 0 -115.5 46t-43.5 119q0 80 53 122t144 42h62v28q0 85 -60 85q-59 0 -66 -58h-118q4 80 53 126t133 46zM286 165v54h-60q-79 0 -79 -68q0 -28 17 -45t50 -17
t52.5 20t19.5 56z" />
    <glyph glyph-name="atilde" unicode="&#xe3;" horiz-adv-x="458" 
d="M196 643q-22 0 -25 -26h-72q3 48 26.5 73.5t59.5 25.5q23 0 46 -14.5t32 -14.5q10 0 17 7.5t9 18.5h71q-3 -46 -26 -72.5t-60 -26.5q-23 0 -45.5 14.5t-32.5 14.5zM228 542q177 0 177 -199v-343h-95l-7 50q-36 -64 -117 -64q-72 0 -115.5 46t-43.5 119q0 80 53 122
t144 42h62v28q0 85 -60 85q-59 0 -66 -58h-118q4 80 53 126t133 46zM286 165v54h-60q-79 0 -79 -68q0 -28 17 -45t50 -17t52.5 20t19.5 56z" />
    <glyph glyph-name="adieresis" unicode="&#xe4;" horiz-adv-x="458" 
d="M154 618q-26 0 -41 15t-15 41q0 25 15 40t41 15t41 -15t15 -40q0 -26 -15 -41t-41 -15zM306 618q-26 0 -41.5 15.5t-15.5 40.5t15.5 40t41.5 15q25 0 40.5 -15t15.5 -40t-15.5 -40.5t-40.5 -15.5zM228 542q177 0 177 -199v-343h-95l-7 50q-36 -64 -117 -64
q-72 0 -115.5 46t-43.5 119q0 80 53 122t144 42h62v28q0 85 -60 85q-59 0 -66 -58h-118q4 80 53 126t133 46zM286 165v54h-60q-79 0 -79 -68q0 -28 17 -45t50 -17t52.5 20t19.5 56z" />
    <glyph glyph-name="aring" unicode="&#xe5;" horiz-adv-x="458" 
d="M229 606q-39 0 -62.5 23.5t-23.5 61.5q0 37 23.5 60t62.5 23t63 -23t24 -60q0 -38 -24 -61.5t-63 -23.5zM229 723q-14 0 -23 -9t-9 -24t9 -24t23 -9q15 0 24 9t9 24t-9 24t-24 9zM228 542q177 0 177 -199v-343h-95l-7 50q-36 -64 -117 -64q-72 0 -115.5 46t-43.5 119
q0 80 53 122t144 42h62v28q0 85 -60 85q-59 0 -66 -58h-118q4 80 53 126t133 46zM286 165v54h-60q-79 0 -79 -68q0 -28 17 -45t50 -17t52.5 20t19.5 56z" />
    <glyph glyph-name="ae" unicode="&#xe6;" horiz-adv-x="697" 
d="M542 168h120q-7 -86 -58 -133t-136 -47q-77 0 -129 61q-43 -62 -154 -62q-72 0 -115 45.5t-43 119.5q0 81 53.5 122t146.5 41h60v30q0 83 -60 83t-67 -58h-118q4 80 53.5 126t133.5 46q78 0 119 -55q47 55 121 55q87 0 137 -53t50 -148v-116h-254v-33q0 -91 68 -91
q34 0 50.5 16t21.5 51zM402 342v-34h137v34q0 90 -69 90q-68 0 -68 -90zM287 162v56h-59q-81 0 -81 -66q0 -29 17.5 -46t50.5 -17q34 0 53 19.5t19 53.5z" />
    <glyph glyph-name="ccedilla" unicode="&#xe7;" horiz-adv-x="440" 
d="M417 185q-2 -83 -43 -133.5t-113 -61.5l-10 -38q2 1 10 1q32 0 52.5 -19t20.5 -50q0 -40 -29 -63.5t-77 -23.5q-41 0 -71 23t-34 60h66q11 -24 40 -24q17 0 26.5 8.5t9.5 21.5q0 27 -35 27q-18 0 -32 -6l-20 19l18 64q-73 9 -113.5 60t-40.5 135v161q0 92 49 144t135 52
q90 0 138.5 -51.5t51.5 -144.5h-119q-3 83 -69 83q-67 0 -67 -83v-161q0 -84 67 -84q66 0 70 84h119z" />
    <glyph glyph-name="egrave" unicode="&#xe8;" horiz-adv-x="456" 
d="M304 608h-85l-92 132h103zM302 167h119q-8 -85 -58.5 -132t-135.5 -47q-86 0 -135.5 54t-49.5 150v149q0 95 49.5 148t137.5 53q89 0 139.5 -53t50.5 -148v-118h-259v-31q0 -91 69 -91q34 0 50 15t23 51zM230 432q-70 0 -70 -90v-35h142v35q0 90 -72 90z" />
    <glyph glyph-name="eacute" unicode="&#xe9;" horiz-adv-x="456" 
d="M342 740l-92 -132h-85l74 132h103zM302 167h119q-8 -85 -58.5 -132t-135.5 -47q-86 0 -135.5 54t-49.5 150v149q0 95 49.5 148t137.5 53q89 0 139.5 -53t50.5 -148v-118h-259v-31q0 -91 69 -91q34 0 50 15t23 51zM230 432q-70 0 -70 -90v-35h142v35q0 90 -72 90z" />
    <glyph glyph-name="ecircumflex" unicode="&#xea;" horiz-adv-x="456" 
d="M229 676l-47 -68h-82l81 131h94l81 -131h-81zM302 167h119q-8 -85 -58.5 -132t-135.5 -47q-86 0 -135.5 54t-49.5 150v149q0 95 49.5 148t137.5 53q89 0 139.5 -53t50.5 -148v-118h-259v-31q0 -91 69 -91q34 0 50 15t23 51zM230 432q-70 0 -70 -90v-35h142v35
q0 90 -72 90z" />
    <glyph glyph-name="edieresis" unicode="&#xeb;" horiz-adv-x="456" 
d="M153 617q-25 0 -40.5 15.5t-15.5 40.5t15 40t41 15t41 -15t15 -40t-15.5 -40.5t-40.5 -15.5zM305 617q-26 0 -41.5 15.5t-15.5 40.5t15.5 40t41.5 15q25 0 40.5 -15t15.5 -40t-15.5 -40.5t-40.5 -15.5zM302 167h119q-8 -85 -58.5 -132t-135.5 -47q-86 0 -135.5 54
t-49.5 150v149q0 95 49.5 148t137.5 53q89 0 139.5 -53t50.5 -148v-118h-259v-31q0 -91 69 -91q34 0 50 15t23 51zM230 432q-70 0 -70 -90v-35h142v35q0 90 -72 90z" />
    <glyph glyph-name="igrave" unicode="&#xec;" horiz-adv-x="226" 
d="M189 609h-85l-92 132h103zM54 0v529h118v-529h-118z" />
    <glyph glyph-name="iacute" unicode="&#xed;" horiz-adv-x="226" 
d="M51 609l74 132h103l-92 -132h-85zM54 0v529h118v-529h-118z" />
    <glyph glyph-name="icircumflex" unicode="&#xee;" horiz-adv-x="238" 
d="M119 677l-45 -68h-79l79 131h90l79 -131h-80zM60 0v529h118v-529h-118z" />
    <glyph glyph-name="idieresis" unicode="&#xef;" horiz-adv-x="250" 
d="M55 620q-24 0 -39 14.5t-15 39.5t15 39.5t39 14.5q25 0 39.5 -14.5t14.5 -39.5t-14.5 -39.5t-39.5 -14.5zM196 620q-25 0 -40 14.5t-15 39.5t15 39.5t40 14.5q24 0 38.5 -14.5t14.5 -39.5t-14.5 -39.5t-38.5 -14.5zM65 0v529h119v-529h-119z" />
    <glyph glyph-name="eth" unicode="&#xf0;" horiz-adv-x="466" 
d="M352 625q70 -94 71 -247v-184q0 -98 -50.5 -152t-140.5 -54t-140 54t-50 152v107q0 98 47.5 151.5t131.5 53.5q40 0 72 -19q-14 48 -44 86l-72 -36l-18 40l57 28q-30 24 -73 40l42 93q82 -25 138 -79l62 31l18 -40zM303 194v107q0 90 -71 90q-70 0 -70 -90v-107
q0 -91 70 -91q71 0 71 91z" />
    <glyph glyph-name="ntilde" unicode="&#xf1;" horiz-adv-x="473" 
d="M204 642q-22 0 -25 -26h-72q3 48 26.5 73.5t59.5 25.5q23 0 46 -14.5t32 -14.5q10 0 17 7.5t9 18.5h71q-3 -46 -26 -72.5t-60 -26.5q-23 0 -45.5 14.5t-32.5 14.5zM272 542q73 0 112.5 -54t39.5 -160v-328h-118v325q0 104 -62 104q-34 0 -53 -25.5t-19 -72.5v-331h-118
v529h80l10 -57q42 70 128 70z" />
    <glyph glyph-name="ograve" unicode="&#xf2;" horiz-adv-x="467" 
d="M309 609h-85l-92 132h103zM233 -13q-90 0 -140.5 54t-50.5 152v143q0 98 50.5 152t140.5 54q91 0 141.5 -54t50.5 -152v-143q0 -98 -50.5 -152t-141.5 -54zM233 102q72 0 72 91v143q0 91 -72 91q-71 0 -71 -91v-143q0 -91 71 -91z" />
    <glyph glyph-name="oacute" unicode="&#xf3;" horiz-adv-x="467" 
d="M170 609l74 132h103l-92 -132h-85zM233 -13q-90 0 -140.5 54t-50.5 152v143q0 98 50.5 152t140.5 54q91 0 141.5 -54t50.5 -152v-143q0 -98 -50.5 -152t-141.5 -54zM233 102q72 0 72 91v143q0 91 -72 91q-71 0 -71 -91v-143q0 -91 71 -91z" />
    <glyph glyph-name="ocircumflex" unicode="&#xf4;" horiz-adv-x="467" 
d="M234 677l-47 -68h-82l81 131h94l81 -131h-81zM233 542q91 0 141.5 -54t50.5 -152v-143q0 -98 -50.5 -152t-141.5 -54q-90 0 -140.5 54t-50.5 152v143q0 98 50.5 152t140.5 54zM305 193v143q0 91 -72 91q-71 0 -71 -91v-143q0 -91 71 -91q72 0 72 91z" />
    <glyph glyph-name="otilde" unicode="&#xf5;" horiz-adv-x="467" 
d="M278 614q-23 0 -45.5 14.5t-32.5 14.5q-22 0 -25 -26h-72q3 48 26.5 73.5t59.5 25.5q23 0 46 -14.5t32 -14.5q10 0 17 7.5t9 18.5h71q-3 -46 -26 -72.5t-60 -26.5zM233 -13q-90 0 -140.5 54t-50.5 152v143q0 98 50.5 152t140.5 54q91 0 141.5 -54t50.5 -152v-143
q0 -98 -50.5 -152t-141.5 -54zM233 102q72 0 72 91v143q0 91 -72 91q-71 0 -71 -91v-143q0 -91 71 -91z" />
    <glyph glyph-name="odieresis" unicode="&#xf6;" horiz-adv-x="467" 
d="M158 618q-26 0 -41 15t-15 41q0 25 15 40t41 15t41 -15t15 -40q0 -26 -15 -41t-41 -15zM310 618q-26 0 -41.5 15.5t-15.5 40.5t15.5 40t41.5 15q25 0 40.5 -15t15.5 -40t-15.5 -40.5t-40.5 -15.5zM233 -13q-90 0 -140.5 54t-50.5 152v143q0 98 50.5 152t140.5 54
q91 0 141.5 -54t50.5 -152v-143q0 -98 -50.5 -152t-141.5 -54zM233 102q72 0 72 91v143q0 91 -72 91q-71 0 -71 -91v-143q0 -91 71 -91z" />
    <glyph glyph-name="divide" unicode="&#xf7;" horiz-adv-x="471" 
d="M237 396q-29 0 -47 18t-18 47t18 47t47 18t47 -18t18 -47t-18 -47t-47 -18zM41 253v101h389v-101h-389zM237 75q-29 0 -47 18t-18 47t18 47t47 18t47 -18t18 -47t-18 -47t-47 -18z" />
    <glyph glyph-name="oslash" unicode="&#xf8;" horiz-adv-x="454" 
d="M359 497q60 -55 60 -161v-142q0 -98 -51 -152t-141 -54q-32 0 -62 8l-26 -67h-80l39 101q-63 54 -63 164v142q0 98 50.5 152t141.5 54q36 0 66 -9l26 70h80zM298 194v142q0 91 -71 91q-72 0 -72 -91v-142q0 -91 72 -91q71 0 71 91z" />
    <glyph glyph-name="ugrave" unicode="&#xf9;" horiz-adv-x="473" 
d="M308 608h-85l-92 132h103zM301 529h118v-529h-80l-10 57q-42 -70 -128 -70q-73 0 -112.5 54t-39.5 160v328h118v-325q0 -104 62 -104q34 0 53 25.5t19 72.5v331z" />
    <glyph glyph-name="uacute" unicode="&#xfa;" horiz-adv-x="473" 
d="M347 740l-92 -132h-85l74 132h103zM301 529h118v-529h-80l-10 57q-42 -70 -128 -70q-73 0 -112.5 54t-39.5 160v328h118v-325q0 -104 62 -104q34 0 53 25.5t19 72.5v331z" />
    <glyph glyph-name="ucircumflex" unicode="&#xfb;" horiz-adv-x="473" 
d="M233 676l-47 -68h-82l81 131h94l81 -131h-81zM301 529h118v-529h-80l-10 57q-42 -70 -128 -70q-73 0 -112.5 54t-39.5 160v328h118v-325q0 -104 62 -104q34 0 53 25.5t19 72.5v331z" />
    <glyph glyph-name="udieresis" unicode="&#xfc;" horiz-adv-x="473" 
d="M157 617q-25 0 -40.5 15.5t-15.5 40.5t15 40t41 15t41 -15t15 -40t-15.5 -40.5t-40.5 -15.5zM309 617q-26 0 -41.5 15.5t-15.5 40.5t15.5 40t41.5 15q25 0 40.5 -15t15.5 -40t-15.5 -40.5t-40.5 -15.5zM301 529h118v-529h-80l-10 57q-42 -70 -128 -70q-73 0 -112.5 54
t-39.5 160v328h118v-325q0 -104 62 -104q34 0 53 25.5t19 72.5v331z" />
    <glyph glyph-name="yacute" unicode="&#xfd;" horiz-adv-x="432" 
d="M334 743l-92 -132h-85l74 132h103zM311 529h119l-166 -556q-24 -77 -59.5 -119.5t-95.5 -42.5h-61v114h37q51 0 71 69l16 55l-170 480h125l58 -179l37 -125l36 124z" />
    <glyph glyph-name="thorn" unicode="&#xfe;" horiz-adv-x="469" 
d="M259 552q77 0 123 -55.5t46 -150.5v-149q0 -94 -46 -149.5t-123 -55.5q-50 0 -90 35v-207h-115v904h115v-207q40 35 90 35zM307 197v149q0 94 -66 94q-34 0 -53 -24.5t-19 -69.5v-149q0 -44 19 -68.5t53 -24.5q66 0 66 93z" />
    <glyph glyph-name="ydieresis" unicode="&#xff;" horiz-adv-x="432" 
d="M145 620q-25 0 -40.5 15t-15.5 41q0 25 15 40t41 15t41 -15t15 -40q0 -26 -15.5 -41t-40.5 -15zM297 620q-26 0 -41.5 15.5t-15.5 40.5t15.5 40t41.5 15q25 0 40.5 -15t15.5 -40t-15.5 -40.5t-40.5 -15.5zM311 529h119l-166 -556q-24 -77 -59.5 -119.5t-95.5 -42.5h-61
v114h37q51 0 71 69l16 55l-170 480h125l58 -179l37 -125l36 124z" />
    <glyph glyph-name="Amacron" unicode="&#x100;" horiz-adv-x="485" 
d="M351 870v-79h-211v79h211zM353 0l-28 127h-164l-28 -127h-128l172 700h132l172 -700h-128zM186 244h114l-28 130q-8 40 -28 172h-3q-14 -109 -27 -172z" />
    <glyph glyph-name="amacron" unicode="&#x101;" horiz-adv-x="458" 
d="M334 712v-78h-211v78h211zM228 542q177 0 177 -199v-343h-95l-7 50q-36 -64 -117 -64q-72 0 -115.5 46t-43.5 119q0 80 53 122t144 42h62v28q0 85 -60 85q-59 0 -66 -58h-118q4 80 53 126t133 46zM286 165v54h-60q-79 0 -79 -68q0 -28 17 -45t50 -17t52.5 20t19.5 56z
" />
    <glyph glyph-name="Abreve" unicode="&#x102;" horiz-adv-x="485" 
d="M246 769q-54 0 -89 32.5t-37 89.5h79q1 -22 13.5 -34.5t32.5 -12.5q19 0 32 12.5t14 34.5h78q-2 -58 -36 -90t-87 -32zM353 0l-28 127h-164l-28 -127h-128l172 700h132l172 -700h-128zM186 244h114l-28 130q-8 40 -28 172h-3q-14 -109 -27 -172z" />
    <glyph glyph-name="abreve" unicode="&#x103;" horiz-adv-x="458" 
d="M231 611q-54 0 -89 32.5t-37 89.5h79q1 -22 13.5 -34.5t32.5 -12.5q19 0 32 12.5t14 34.5h78q-2 -58 -36 -90t-87 -32zM228 542q177 0 177 -199v-343h-95l-7 50q-36 -64 -117 -64q-72 0 -115.5 46t-43.5 119q0 80 53 122t144 42h62v28q0 85 -60 85q-59 0 -66 -58h-118
q4 80 53 126t133 46zM286 165v54h-60q-79 0 -79 -68q0 -28 17 -45t50 -17t52.5 20t19.5 56z" />
    <glyph glyph-name="Aogonek" unicode="&#x104;" horiz-adv-x="486" 
d="M405 -76q0 -27 32 -27q20 0 29 3v-82q-26 -12 -73 -12q-46 0 -71 23.5t-25 61.5q0 60 56 109l-28 127h-164l-28 -127h-128l172 700h132l172 -700h-27q-23 -16 -36 -38t-13 -38zM186 244h114l-28 130q-8 40 -28 172h-3q-14 -109 -27 -172z" />
    <glyph glyph-name="aogonek" unicode="&#x105;" horiz-adv-x="461" 
d="M341 -194q-49 0 -72 24t-23 64q0 57 66 106l-7 50q-36 -64 -119 -64q-72 0 -115.5 46t-43.5 119q0 82 53.5 124t145.5 42h62v26q0 85 -61 85q-60 0 -67 -58h-118q4 80 53.5 126t133.5 46q178 0 178 -199v-343q-61 -39 -61 -80q0 -25 30 -25q15 0 32 5v-83
q-27 -11 -67 -11zM215 89q34 0 53.5 19.5t19.5 53.5v55h-61q-38 0 -59 -17t-21 -49q0 -28 17.5 -45t50.5 -17z" />
    <glyph glyph-name="Cacute" unicode="&#x106;" horiz-adv-x="498" 
d="M187 767l94 132h103l-111 -132h-86zM256 -12q-99 0 -154.5 57.5t-55.5 164.5v280q0 108 55.5 166t154.5 58q100 0 155.5 -57.5t60.5 -164.5h-123q-3 54 -26 78.5t-68 24.5q-82 0 -82 -105v-280q0 -103 83 -103q46 0 69 24.5t27 76.5h123q-4 -106 -60.5 -163t-158.5 -57z
" />
    <glyph glyph-name="cacute" unicode="&#x107;" horiz-adv-x="440" 
d="M168 609l74 132h103l-92 -132h-85zM226 -12q-86 0 -135 52t-49 145v161q0 92 49 144t135 52q90 0 138.5 -51.5t51.5 -144.5h-119q-3 83 -69 83q-67 0 -67 -83v-161q0 -84 67 -84q66 0 70 84h119q-2 -93 -53 -145t-138 -52z" />
    <glyph glyph-name="Cdotaccent" unicode="&#x10a;" horiz-adv-x="498" 
d="M251 770q-30 0 -49 19.5t-19 48.5q0 30 19 49.5t49 19.5q29 0 49 -19.5t20 -49.5q0 -28 -20 -48t-49 -20zM256 -12q-99 0 -154.5 57.5t-55.5 164.5v280q0 108 55.5 166t154.5 58q100 0 155.5 -57.5t60.5 -164.5h-123q-3 54 -26 78.5t-68 24.5q-82 0 -82 -105v-280
q0 -103 83 -103q46 0 69 24.5t27 76.5h123q-4 -106 -60.5 -163t-158.5 -57z" />
    <glyph glyph-name="cdotaccent" unicode="&#x10b;" horiz-adv-x="440" 
d="M230 611q-30 0 -49 19.5t-19 49.5t19 49.5t49 19.5q29 0 49 -19.5t20 -49.5q0 -28 -20 -48.5t-49 -20.5zM226 -12q-86 0 -135 52t-49 145v161q0 92 49 144t135 52q90 0 138.5 -51.5t51.5 -144.5h-119q-3 83 -69 83q-67 0 -67 -83v-161q0 -84 67 -84q66 0 70 84h119
q-2 -93 -53 -145t-138 -52z" />
    <glyph glyph-name="Ccaron" unicode="&#x10c;" horiz-adv-x="498" 
d="M298 767h-93l-81 132h81l47 -69l46 69h81zM352 208h123q-4 -106 -60.5 -163t-158.5 -57q-99 0 -154.5 57.5t-55.5 164.5v280q0 108 55.5 166t154.5 58q100 0 155.5 -57.5t60.5 -164.5h-123q-3 54 -26 78.5t-68 24.5q-82 0 -82 -105v-280q0 -103 83 -103q46 0 69 24.5
t27 76.5z" />
    <glyph glyph-name="ccaron" unicode="&#x10d;" horiz-adv-x="440" 
d="M277 609h-94l-81 132h82l47 -69l46 69h81zM298 185h119q-2 -93 -53 -145t-138 -52q-86 0 -135 52t-49 145v161q0 92 49 144t135 52q90 0 138.5 -51.5t51.5 -144.5h-119q-3 83 -69 83q-67 0 -67 -83v-161q0 -84 67 -84q66 0 70 84z" />
    <glyph glyph-name="Dcaron" unicode="&#x10e;" horiz-adv-x="515" 
d="M295 767h-93l-81 132h81l47 -69l46 69h81zM249 700q104 0 162 -59.5t58 -166.5v-245q0 -108 -57.5 -168.5t-160.5 -60.5h-185v700h183zM345 230v244q0 109 -94 109h-62v-466h62q94 0 94 113z" />
    <glyph glyph-name="dcaron" unicode="&#x10f;" horiz-adv-x="561" 
d="M483 776h102l-47 -193h-71zM301 507v218h116v-726h-83l-6 49q-20 -26 -52 -43t-65 -17q-76 0 -122.5 56t-46.5 151v141q0 94 46 150t123 56q50 0 90 -35zM301 195v141q0 45 -18.5 69t-52.5 24q-68 0 -68 -93v-141q0 -95 68 -95q34 0 52.5 24t18.5 71z" />
    <glyph glyph-name="Dcroat" unicode="&#x110;" horiz-adv-x="525" 
d="M251 700q106 0 167 -55.5t61 -154.5v-276q0 -101 -61 -157.5t-165 -56.5h-180v319h-66v77h66v304h178zM353 215v274q0 50 -24 72t-70 22h-63v-187h77v-77h-77v-202h63q47 0 70.5 22.5t23.5 75.5z" />
    <glyph glyph-name="dcroat" unicode="&#x111;" horiz-adv-x="478" 
d="M484 654v-61h-67v-594h-83l-6 49q-20 -26 -52 -43t-65 -17q-76 0 -122.5 56t-46.5 151v141q0 94 46 150t123 56q50 0 90 -35v86h-99v61h99v71h116v-71h67zM301 195v141q0 45 -18.5 69t-52.5 24q-68 0 -68 -93v-141q0 -95 68 -95q34 0 52.5 24t18.5 71z" />
    <glyph glyph-name="Emacron" unicode="&#x112;" horiz-adv-x="465" 
d="M355 870v-79h-211v79h211zM189 116h239v-116h-362v700h352v-116h-229v-173h210v-112h-210v-183z" />
    <glyph glyph-name="emacron" unicode="&#x113;" horiz-adv-x="456" 
d="M333 711v-78h-211v78h211zM302 167h119q-8 -85 -58.5 -132t-135.5 -47q-86 0 -135.5 54t-49.5 150v149q0 95 49.5 148t137.5 53q89 0 139.5 -53t50.5 -148v-118h-259v-31q0 -91 69 -91q34 0 50 15t23 51zM230 432q-70 0 -70 -90v-35h142v35q0 90 -72 90z" />
    <glyph glyph-name="Edotaccent" unicode="&#x116;" horiz-adv-x="465" 
d="M246 770q-30 0 -49 19.5t-19 48.5q0 30 19 49.5t49 19.5q29 0 49 -19.5t20 -49.5q0 -28 -20 -48t-49 -20zM189 116h239v-116h-362v700h352v-116h-229v-173h210v-112h-210v-183z" />
    <glyph glyph-name="edotaccent" unicode="&#x117;" horiz-adv-x="456" 
d="M228 610q-30 0 -49 19.5t-19 49.5t19 49.5t49 19.5q29 0 49 -19.5t20 -49.5q0 -28 -20 -48.5t-49 -20.5zM302 167h119q-8 -85 -58.5 -132t-135.5 -47q-86 0 -135.5 54t-49.5 150v149q0 95 49.5 148t137.5 53q89 0 139.5 -53t50.5 -148v-118h-259v-31q0 -91 69 -91
q34 0 50 15t23 51zM230 432q-70 0 -70 -90v-35h142v35q0 90 -72 90z" />
    <glyph glyph-name="Eogonek" unicode="&#x118;" horiz-adv-x="467" 
d="M430 -100l1 -82q-26 -12 -73 -12q-46 0 -71.5 23.5t-25.5 61.5q0 59 68 109h-263v700h352v-116h-229v-173h210v-112h-210v-183h239v-116q-26 -16 -42 -37.5t-16 -37.5q0 -28 32 -28q20 0 28 3z" />
    <glyph glyph-name="eogonek" unicode="&#x119;" horiz-adv-x="459" 
d="M303 -194q-46 0 -71.5 23t-25.5 63q0 52 57 99v1q-18 -4 -36 -4q-87 0 -136 54t-49 150v149q0 94 49.5 147.5t136.5 53.5q88 0 138.5 -53t50.5 -148v-118h-257v-31q0 -91 69 -91q35 0 52 16t24 51h119q-7 -81 -59 -133q-60 -62 -60 -101q0 -37 38 -37q25 0 33 3v-82
q-32 -12 -73 -12zM160 307h140v35q0 90 -71 90q-69 0 -69 -90v-35z" />
    <glyph glyph-name="Ecaron" unicode="&#x11a;" horiz-adv-x="465" 
d="M294 767h-93l-81 132h81l47 -69l46 69h81zM189 116h239v-116h-362v700h352v-116h-229v-173h210v-112h-210v-183z" />
    <glyph glyph-name="ecaron" unicode="&#x11b;" horiz-adv-x="456" 
d="M275 608h-94l-81 132h82l47 -69l46 69h81zM302 167h119q-8 -85 -58.5 -132t-135.5 -47q-86 0 -135.5 54t-49.5 150v149q0 95 49.5 148t137.5 53q89 0 139.5 -53t50.5 -148v-118h-259v-31q0 -91 69 -91q34 0 50 15t23 51zM230 432q-70 0 -70 -90v-35h142v35q0 90 -72 90z
" />
    <glyph glyph-name="Gbreve" unicode="&#x11e;" horiz-adv-x="512" 
d="M259 769q-54 0 -89 32.5t-37 89.5h79q1 -22 13.5 -34.5t32.5 -12.5q19 0 32 12.5t14 34.5h78q-2 -58 -36 -90t-87 -32zM260 -12q-101 0 -157.5 58t-56.5 165v278q0 108 56.5 165.5t157.5 57.5q97 0 151 -56.5t58 -163.5h-123q-2 53 -23 77t-63 24q-87 0 -87 -104v-278
q0 -104 89 -104q91 0 91 102v68h-97v109h217v-177q-2 -106 -58 -163.5t-155 -57.5z" />
    <glyph glyph-name="gbreve" unicode="&#x11f;" horiz-adv-x="474" 
d="M233 611q-54 0 -89 32.5t-37 89.5h79q1 -22 13.5 -34.5t32.5 -12.5q19 0 32 12.5t14 34.5h78q-2 -58 -36 -90t-87 -32zM337 529h83v-551q0 -78 -48.5 -125t-133.5 -47q-83 0 -131 46.5t-50 124.5h116q6 -61 65 -61q29 0 45.5 16.5t16.5 45.5v73q-40 -27 -89 -27
q-74 0 -121.5 54.5t-47.5 141.5v122q0 89 47.5 144.5t121.5 55.5q72 0 118 -49zM230 136q70 0 70 84v124q0 41 -18.5 62.5t-51.5 21.5q-69 0 -69 -86v-122q0 -84 69 -84z" />
    <glyph glyph-name="Gdotaccent" unicode="&#x120;" horiz-adv-x="512" 
d="M256 770q-30 0 -49 19.5t-19 48.5q0 30 19 49.5t49 19.5q29 0 49 -19.5t20 -49.5q0 -28 -20 -48t-49 -20zM260 -12q-101 0 -157.5 58t-56.5 165v278q0 108 56.5 165.5t157.5 57.5q97 0 151 -56.5t58 -163.5h-123q-2 53 -23 77t-63 24q-87 0 -87 -104v-278q0 -104 89 -104
q91 0 91 102v68h-97v109h217v-177q-2 -106 -58 -163.5t-155 -57.5z" />
    <glyph glyph-name="gdotaccent" unicode="&#x121;" horiz-adv-x="474" 
d="M232 611q-30 0 -49 19.5t-19 49.5t19 49.5t49 19.5q29 0 49 -19.5t20 -49.5q0 -28 -20 -48.5t-49 -20.5zM337 529h83v-551q0 -78 -48.5 -125t-133.5 -47q-83 0 -131 46.5t-50 124.5h116q6 -61 65 -61q29 0 45.5 16.5t16.5 45.5v73q-40 -27 -89 -27q-74 0 -121.5 54.5
t-47.5 141.5v122q0 89 47.5 144.5t121.5 55.5q72 0 118 -49zM230 136q70 0 70 84v124q0 41 -18.5 62.5t-51.5 21.5q-69 0 -69 -86v-122q0 -84 69 -84z" />
    <glyph glyph-name="uni0122" unicode="&#x122;" horiz-adv-x="512" 
d="M260 -12q-101 0 -157.5 58t-56.5 165v278q0 108 56.5 165.5t157.5 57.5q97 0 151 -56.5t58 -163.5h-123q-2 53 -23 77t-63 24q-87 0 -87 -104v-278q0 -104 89 -104q91 0 91 102v68h-97v109h217v-177q-2 -106 -58 -163.5t-155 -57.5zM194 -273l16 202h102l-47 -202h-71z
" />
    <glyph glyph-name="uni0123" unicode="&#x123;" horiz-adv-x="474" 
d="M281 602h-112l-18 207h75zM337 529h83v-551q0 -78 -48.5 -125t-133.5 -47q-83 0 -131 46.5t-50 124.5h116q6 -61 65 -61q29 0 45.5 16.5t16.5 45.5v73q-40 -27 -89 -27q-74 0 -121.5 54.5t-47.5 141.5v122q0 89 47.5 144.5t121.5 55.5q72 0 118 -49zM230 136q70 0 70 84
v124q0 41 -18.5 62.5t-51.5 21.5q-69 0 -69 -86v-122q0 -84 69 -84z" />
    <glyph glyph-name="Hbar" unicode="&#x126;" horiz-adv-x="579" 
d="M564 583v-61h-66v-522h-124v295h-169v-295h-123v522h-67v61h67v117h123v-117h169v117h124v-117h66zM374 412v110h-169v-110h169z" />
    <glyph glyph-name="hbar" unicode="&#x127;" horiz-adv-x="471" 
d="M275 542q71 0 109.5 -55.5t38.5 -163.5v-323h-119v322q0 57 -15 82t-47 25q-34 0 -53 -25.5t-19 -72.5v-331h-117v602h-64v61h64v62h117v-62h93v-61h-93v-118q40 58 105 58z" />
    <glyph glyph-name="Imacron" unicode="&#x12a;" horiz-adv-x="254" 
d="M26 791v79h211v-79h-211zM66 0v700h123v-700h-123z" />
    <glyph glyph-name="imacron" unicode="&#x12b;" horiz-adv-x="223" 
d="M16 632v81h191v-81h-191zM52 0v529h119v-529h-119z" />
    <glyph glyph-name="Iogonek" unicode="&#x12e;" horiz-adv-x="255" 
d="M175 -103q17 0 30 3v-81q-34 -13 -76 -13q-102 0 -102 90q0 61 56 104h-17v700h123v-700h-18q-17 -16 -27.5 -37t-10.5 -36q0 -30 42 -30z" />
    <glyph glyph-name="iogonek" unicode="&#x12f;" horiz-adv-x="224" 
d="M108 612q-29 0 -47.5 19t-18.5 47q0 29 18.5 48t47.5 19q28 0 47 -19t19 -48q0 -27 -19.5 -46.5t-46.5 -19.5zM154 -103q20 0 29 3v-82q-26 -12 -80 -12q-46 0 -71 23.5t-25 61.5q0 59 41 108v529h119v-528h-22q-31 -34 -31 -72q0 -31 40 -31z" />
    <glyph glyph-name="Idotaccent" unicode="&#x130;" horiz-adv-x="254" 
d="M128 770q-30 0 -49 19.5t-19 48.5q0 30 19 49.5t49 19.5q29 0 49 -19.5t20 -49.5q0 -28 -20 -48t-49 -20zM66 0v700h123v-700h-123z" />
    <glyph glyph-name="dotlessi" unicode="&#x131;" horiz-adv-x="226" 
d="M54 0v529h118v-529h-118z" />
    <glyph glyph-name="uni0136" unicode="&#x136;" horiz-adv-x="517" 
d="M299 395l218 -395h-140l-147 285l-43 -67v-218h-121v700h121v-287l41 82l117 205h142zM201 -273l16 202h102l-47 -202h-71z" />
    <glyph glyph-name="uni0137" unicode="&#x137;" horiz-adv-x="449" 
d="M280 318l174 -318h-133l-119 226l-31 -33v-193h-117v725h117v-381l122 185h137zM166 -273l16 202h103l-48 -202h-71z" />
    <glyph glyph-name="Lacute" unicode="&#x139;" horiz-adv-x="414" 
d="M271 899l-111 -132h-86l94 132h103zM189 117h219v-117h-342v700h123v-583z" />
    <glyph glyph-name="lacute" unicode="&#x13a;" horiz-adv-x="216" 
d="M45 767l93 132h104l-111 -132h-86zM49 0v725h118v-725h-118z" />
    <glyph glyph-name="uni013B" unicode="&#x13b;" horiz-adv-x="414" 
d="M189 117h219v-117h-342v700h123v-583zM172 -273l16 202h102l-47 -202h-71z" />
    <glyph glyph-name="uni013C" unicode="&#x13c;" horiz-adv-x="222" 
d="M51 0v725h117v-725h-117zM52 -273l17 202h102l-48 -202h-71z" />
    <glyph glyph-name="Lcaron" unicode="&#x13d;" horiz-adv-x="413" 
d="M189 700v-584h204v-116h-327v700h123zM393 700l-44 -191h-70l9 191h105z" />
    <glyph glyph-name="lcaron" unicode="&#x13e;" horiz-adv-x="311" 
d="M218 581l15 195h102l-47 -195h-70zM49 0v725h118v-725h-118z" />
    <glyph glyph-name="Lslash" unicode="&#x141;" horiz-adv-x="439" 
d="M248 116h185v-116h-252v83l-106 -15v138l-36 -13v255l36 13v155l173 25v-118l57 20v-256l-57 -20v-151z" />
    <glyph glyph-name="lslash" unicode="&#x142;" horiz-adv-x="271" 
d="M260 493v-92l-66 -22v-379h-117v340l-66 -22v92l66 22v292h117v-253z" />
    <glyph glyph-name="Nacute" unicode="&#x143;" horiz-adv-x="563" 
d="M217 767l94 132h103l-111 -132h-86zM66 0v700h122l146 -329l56 -143l3 3q-17 134 -17 256v213h121v-700h-122l-135 304l-65 171l-3 -3q15 -132 15 -271v-201h-121z" />
    <glyph glyph-name="nacute" unicode="&#x144;" horiz-adv-x="473" 
d="M351 740l-92 -132h-85l74 132h103zM272 542q73 0 112.5 -54t39.5 -160v-328h-118v325q0 104 -62 104q-34 0 -53 -25.5t-19 -72.5v-331h-118v529h80l10 -57q42 70 128 70z" />
    <glyph glyph-name="uni0145" unicode="&#x145;" horiz-adv-x="563" 
d="M66 0v700h122l146 -329l56 -143l3 3q-17 134 -17 256v213h121v-700h-122l-135 304l-65 171l-3 -3q15 -132 15 -271v-201h-121zM219 -273l16 202h102l-47 -202h-71z" />
    <glyph glyph-name="uni0146" unicode="&#x146;" horiz-adv-x="473" 
d="M272 542q73 0 112.5 -54t39.5 -160v-328h-118v325q0 104 -62 104q-34 0 -53 -25.5t-19 -72.5v-331h-118v529h80l10 -57q42 70 128 70zM155 -273l17 202h102l-47 -202h-72z" />
    <glyph glyph-name="Ncaron" unicode="&#x147;" horiz-adv-x="563" 
d="M329 767h-93l-81 132h81l47 -69l46 69h81zM376 700h121v-700h-122l-135 304l-65 171l-3 -3q15 -132 15 -271v-201h-121v700h122l146 -329l56 -143l3 3q-17 134 -17 256v213z" />
    <glyph glyph-name="ncaron" unicode="&#x148;" horiz-adv-x="473" 
d="M283 608h-94l-81 132h82l47 -69l46 69h81zM272 542q73 0 112.5 -54t39.5 -160v-328h-118v325q0 104 -62 104q-34 0 -53 -25.5t-19 -72.5v-331h-118v529h80l10 -57q42 70 128 70z" />
    <glyph glyph-name="Eng" unicode="&#x14a;" horiz-adv-x="563" 
d="M376 700h121v-700q-2 -92 -52.5 -142.5t-141.5 -51.5v113q73 2 77 72l-141 315l-64 169l-3 -3q15 -132 15 -271v-201h-121v700h122l147 -331l56 -145l3 3q-18 131 -18 259v214z" />
    <glyph glyph-name="eng" unicode="&#x14b;" horiz-adv-x="473" 
d="M229 -197v113q77 2 77 81v328q0 104 -62 104q-34 0 -53 -25.5t-19 -72.5v-331h-118v529h80l10 -57q42 70 128 70q73 0 112.5 -54t39.5 -160v-324q0 -95 -51 -147.5t-144 -53.5z" />
    <glyph glyph-name="Omacron" unicode="&#x14c;" horiz-adv-x="533" 
d="M163 791v79h211v-79h-211zM267 -12q-104 0 -162.5 63t-58.5 174v250q0 111 58.5 174t162.5 63q103 0 161.5 -63t58.5 -174v-250q0 -111 -58.5 -174t-161.5 -63zM267 107q93 0 93 118v250q0 118 -93 118q-94 0 -94 -118v-250q0 -118 94 -118z" />
    <glyph glyph-name="omacron" unicode="&#x14d;" horiz-adv-x="467" 
d="M127 634v78h211v-78h-211zM233 -13q-90 0 -140.5 54t-50.5 152v143q0 98 50.5 152t140.5 54q91 0 141.5 -54t50.5 -152v-143q0 -98 -50.5 -152t-141.5 -54zM233 102q72 0 72 91v143q0 91 -72 91q-71 0 -71 -91v-143q0 -91 71 -91z" />
    <glyph glyph-name="Ohungarumlaut" unicode="&#x150;" horiz-adv-x="533" 
d="M139 768l75 132h93l-90 -132h-78zM276 768l80 132h94l-96 -132h-78zM267 -12q-104 0 -162.5 63t-58.5 174v250q0 111 58.5 174t162.5 63q103 0 161.5 -63t58.5 -174v-250q0 -111 -58.5 -174t-161.5 -63zM267 107q93 0 93 118v250q0 118 -93 118q-94 0 -94 -118v-250
q0 -118 94 -118z" />
    <glyph glyph-name="ohungarumlaut" unicode="&#x151;" horiz-adv-x="467" 
d="M102 609l75 132h94l-91 -132h-78zM239 609l80 132h94l-96 -132h-78zM233 -13q-90 0 -140.5 54t-50.5 152v143q0 98 50.5 152t140.5 54q91 0 141.5 -54t50.5 -152v-143q0 -98 -50.5 -152t-141.5 -54zM233 102q72 0 72 91v143q0 91 -72 91q-71 0 -71 -91v-143q0 -91 71 -91
z" />
    <glyph glyph-name="OE" unicode="&#x152;" horiz-adv-x="760" 
d="M484 116h240v-116h-363v33q-47 -45 -110 -45q-95 0 -150 63t-55 174v250q0 111 55 174t150 63q63 0 110 -45v33h352v-116h-229v-173h210v-112h-210v-183zM360 225v250q0 118 -99 118q-88 0 -88 -118v-250q0 -118 88 -118q99 0 99 118z" />
    <glyph glyph-name="oe" unicode="&#x153;" horiz-adv-x="717" 
d="M563 169h119q-7 -86 -58 -133.5t-136 -47.5q-80 0 -126 58q-48 -58 -130 -58q-90 0 -140 54t-50 152v141q0 99 50 152t140 53q82 0 130 -56q45 56 126 56q89 0 138.5 -52.5t49.5 -147.5v-116h-255v-32q0 -91 68 -91q35 0 52 16t22 52zM421 341v-34h139v34q0 90 -71 90
q-68 0 -68 -90zM304 194v141q0 91 -72 91q-71 0 -71 -91v-141q0 -91 71 -91q72 0 72 91z" />
    <glyph glyph-name="Racute" unicode="&#x154;" horiz-adv-x="516" 
d="M379 899l-111 -132h-86l94 132h103zM370 0l-125 244h-56v-244h-123v700h192q103 0 159.5 -59.5t56.5 -166.5q0 -155 -110 -208l141 -266h-135zM189 583v-222h68q91 0 91 112q0 110 -91 110h-68z" />
    <glyph glyph-name="racute" unicode="&#x155;" horiz-adv-x="345" 
d="M301 741l-92 -132h-85l74 132h103zM279 541q36 0 57 -10v-114q-31 13 -65 13q-47 0 -73 -29.5t-26 -86.5v-314h-118v529h80l11 -63q43 75 134 75z" />
    <glyph glyph-name="uni0156" unicode="&#x156;" horiz-adv-x="516" 
d="M364 266l141 -266h-135l-125 244h-56v-244h-123v700h192q103 0 159.5 -59.5t56.5 -166.5q0 -155 -110 -208zM189 583v-222h68q91 0 91 112q0 110 -91 110h-68zM202 -273l16 202h102l-47 -202h-71z" />
    <glyph glyph-name="uni0157" unicode="&#x157;" horiz-adv-x="345" 
d="M279 541q36 0 57 -10v-114q-31 13 -65 13q-47 0 -73 -29.5t-26 -86.5v-314h-118v529h80l11 -63q43 75 134 75zM64 -273l16 202h103l-48 -202h-71z" />
    <glyph glyph-name="Rcaron" unicode="&#x158;" horiz-adv-x="516" 
d="M294 767h-93l-81 132h81l47 -69l46 69h81zM370 0l-125 244h-56v-244h-123v700h192q103 0 159.5 -59.5t56.5 -166.5q0 -155 -110 -208l141 -266h-135zM189 583v-222h68q91 0 91 112q0 110 -91 110h-68z" />
    <glyph glyph-name="rcaron" unicode="&#x159;" horiz-adv-x="345" 
d="M233 609h-94l-81 132h82l47 -69l46 69h81zM279 541q36 0 57 -10v-114q-31 13 -65 13q-47 0 -73 -29.5t-26 -86.5v-314h-118v529h80l11 -63q43 75 134 75z" />
    <glyph glyph-name="Sacute" unicode="&#x15a;" horiz-adv-x="472" 
d="M170 767l94 132h103l-111 -132h-86zM234 -14q-98 0 -154.5 56t-57.5 156h126q1 -92 87 -92q41 0 62 21.5t21 56.5q0 29 -21 55t-52 44.5t-68 43t-68 49.5t-52 66t-21 90q0 80 53.5 131t144.5 51q94 0 147.5 -54t54.5 -148h-126q-1 83 -76 83q-34 0 -53.5 -18t-19.5 -48
q0 -25 15.5 -46t41 -38t56 -34t60.5 -38t55.5 -46t41 -62t15.5 -82q0 -85 -57 -141t-155 -56z" />
    <glyph glyph-name="sacute" unicode="&#x15b;" horiz-adv-x="425" 
d="M151 611l74 132h103l-92 -132h-85zM219 -14q-92 0 -144 52t-54 128h118q1 -31 19.5 -51.5t57.5 -20.5q32 0 50 14.5t18 38.5q0 22 -19 38.5t-47 26.5t-61 25t-61 31.5t-47 48.5t-19 74q0 70 48 110.5t129 40.5q86 0 131 -47t50 -126h-114q-3 68 -67 68q-28 0 -44 -13
t-16 -34q0 -23 26.5 -39t63.5 -29t74.5 -31t64 -54.5t26.5 -89.5q0 -73 -49 -117t-134 -44z" />
    <glyph glyph-name="Scedilla" unicode="&#x15e;" horiz-adv-x="472" 
d="M446 183q0 -78 -48 -131.5t-132 -63.5l-10 -36q3 1 11 1q32 0 52.5 -19t20.5 -50q0 -40 -29 -63.5t-77 -23.5q-41 0 -71 23t-34 60h65q13 -24 41 -24q17 0 26.5 8.5t9.5 21.5q0 27 -35 27q-18 0 -32 -6l-20 19l18 62q-84 9 -131.5 64t-48.5 146h126q1 -92 87 -92
q41 0 62 21.5t21 56.5q0 29 -21 55t-52 44.5t-68 43t-68 49.5t-52 66t-21 90q0 80 53.5 131t144.5 51q94 0 147.5 -54t54.5 -148h-126q-1 83 -76 83q-34 0 -53.5 -18t-19.5 -48q0 -25 15.5 -46t41 -38t56 -34t60.5 -38t55.5 -46t41 -62t15.5 -82z" />
    <glyph glyph-name="scedilla" unicode="&#x15f;" horiz-adv-x="425" 
d="M402 147q0 -67 -41.5 -110t-115.5 -50l-10 -35q2 1 10 1q32 0 52.5 -19t20.5 -50q0 -40 -29 -63.5t-77 -23.5q-41 0 -71 23t-34 60h66q11 -24 40 -24q17 0 26.5 8.5t9.5 21.5q0 27 -35 27q-18 0 -32 -6l-20 19l18 63q-75 11 -116 60t-43 117h118q1 -31 19.5 -51.5
t57.5 -20.5q32 0 50 14.5t18 38.5q0 22 -19 38.5t-47 26.5t-61 25t-61 31.5t-47 48.5t-19 74q0 70 48 110.5t129 40.5q86 0 131 -47t50 -126h-114q-3 68 -67 68q-28 0 -44 -13t-16 -34q0 -23 26.5 -39t63.5 -29t74.5 -31t64 -54.5t26.5 -89.5z" />
    <glyph glyph-name="Scaron" unicode="&#x160;" horiz-adv-x="472" 
d="M282 767h-93l-81 132h81l47 -69l46 69h81zM161 529q0 -25 15.5 -46t41 -38t56 -34t60.5 -38t55.5 -46t41 -62t15.5 -82q0 -85 -57 -141t-155 -56t-154.5 56t-57.5 156h126q1 -92 87 -92q41 0 62 21.5t21 56.5q0 29 -21 55t-52 44.5t-68 43t-68 49.5t-52 66t-21 90
q0 80 53.5 131t144.5 51q94 0 147.5 -54t54.5 -148h-126q-1 83 -76 83q-34 0 -53.5 -18t-19.5 -48z" />
    <glyph glyph-name="scaron" unicode="&#x161;" horiz-adv-x="425" 
d="M261 611h-94l-81 132h82l47 -69l46 69h81zM147 390q0 -23 26.5 -39t63.5 -29t74.5 -31t64 -54.5t26.5 -89.5q0 -73 -49 -117t-134 -44q-92 0 -144 52t-54 128h118q1 -31 19.5 -51.5t57.5 -20.5q32 0 50 14.5t18 38.5q0 22 -19 38.5t-47 26.5t-61 25t-61 31.5t-47 48.5
t-19 74q0 70 48 110.5t129 40.5q86 0 131 -47t50 -126h-114q-3 68 -67 68q-28 0 -44 -13t-16 -34z" />
    <glyph glyph-name="uni0162" unicode="&#x162;" horiz-adv-x="440" 
d="M283 0h-28l-14 -48q3 1 11 1q32 0 52.5 -19t20.5 -50q0 -40 -29 -63.5t-77 -23.5q-41 0 -71 23t-34 60h65q13 -24 41 -24q17 0 26.5 8.5t9.5 21.5q0 27 -35 27q-19 0 -32 -6l-20 19l21 74h-33v583h-141v117h408v-117h-141v-583z" />
    <glyph glyph-name="uni0163" unicode="&#x163;" horiz-adv-x="326" 
d="M258 -7q-26 0 -45 4l-14 -45q2 1 10 1q32 0 52.5 -20.5t20.5 -53.5q0 -41 -29 -66t-76 -25q-42 0 -72 24t-34 63h66q13 -27 40 -27q17 0 26.5 9.5t9.5 24.5q0 30 -34 30q-21 0 -34 -8l-20 19l31 97q-75 48 -75 158v244h-71v107h71v126h117v-126h92v-107h-92v-245
q0 -73 67 -73h33v-111h-40z" />
    <glyph glyph-name="Tcaron" unicode="&#x164;" horiz-adv-x="440" 
d="M267 767h-93l-81 132h81l47 -69l46 69h81zM424 700v-117h-141v-583h-126v583h-141v117h408z" />
    <glyph glyph-name="tcaron" unicode="&#x165;" horiz-adv-x="400" 
d="M273 775h99l-46 -183h-72zM198 177q0 -73 67 -73h33v-111h-40q-82 0 -129.5 49.5t-47.5 135.5v244h-71v107h71v126h117v-126h92v-107h-92v-245z" />
    <glyph glyph-name="Tbar" unicode="&#x166;" horiz-adv-x="440" 
d="M424 583h-141v-196h78v-69h-78v-318h-126v318h-79v69h79v196h-141v117h408v-117z" />
    <glyph glyph-name="tbar" unicode="&#x167;" horiz-adv-x="326" 
d="M265 104h33v-111h-40q-82 0 -129.5 49.5t-47.5 135.5v64h-54v76h54v104h-71v107h71v126h117v-126h92v-107h-92v-104h66v-76h-66v-65q0 -73 67 -73z" />
    <glyph glyph-name="Umacron" unicode="&#x16a;" horiz-adv-x="534" 
d="M164 791v79h211v-79h-211zM267 -11q-100 0 -156.5 60.5t-56.5 168.5v482h125v-482q0 -110 88 -110t88 110v482h125v-482q0 -108 -56.5 -168.5t-156.5 -60.5z" />
    <glyph glyph-name="umacron" unicode="&#x16b;" horiz-adv-x="473" 
d="M338 711v-78h-211v78h211zM301 529h118v-529h-80l-10 57q-42 -70 -128 -70q-73 0 -112.5 54t-39.5 160v328h118v-325q0 -104 62 -104q34 0 53 25.5t19 72.5v331z" />
    <glyph glyph-name="Uring" unicode="&#x16e;" horiz-adv-x="534" 
d="M270 763q-39 0 -62.5 23.5t-23.5 61.5q0 37 23.5 60t62.5 23t63 -23t24 -60q0 -38 -24 -61.5t-63 -23.5zM270 815q33 0 33 32q0 15 -9 24t-24 9q-14 0 -23 -9t-9 -24t9 -23.5t23 -8.5zM267 -11q-100 0 -156.5 60.5t-56.5 168.5v482h125v-482q0 -110 88 -110t88 110v482
h125v-482q0 -108 -56.5 -168.5t-156.5 -60.5z" />
    <glyph glyph-name="uring" unicode="&#x16f;" horiz-adv-x="473" 
d="M233 605q-39 0 -62.5 23.5t-23.5 61.5q0 37 23.5 60t62.5 23t63 -23t24 -60q0 -38 -24 -61.5t-63 -23.5zM233 722q-14 0 -23 -9t-9 -24t9 -24t23 -9q15 0 24 9t9 24t-9 24t-24 9zM301 529h118v-529h-80l-10 57q-42 -70 -128 -70q-73 0 -112.5 54t-39.5 160v328h118v-325
q0 -104 62 -104q34 0 53 25.5t19 72.5v331z" />
    <glyph glyph-name="Uhungarumlaut" unicode="&#x170;" horiz-adv-x="534" 
d="M140 768l75 132h93l-90 -132h-78zM277 768l80 132h94l-96 -132h-78zM267 -11q-100 0 -156.5 60.5t-56.5 168.5v482h125v-482q0 -110 88 -110t88 110v482h125v-482q0 -108 -56.5 -168.5t-156.5 -60.5z" />
    <glyph glyph-name="uhungarumlaut" unicode="&#x171;" horiz-adv-x="473" 
d="M271 740l-91 -132h-78l75 132h94zM317 608h-78l80 132h94zM301 529h118v-529h-80l-10 57q-42 -70 -128 -70q-73 0 -112.5 54t-39.5 160v328h118v-325q0 -104 62 -104q34 0 53 25.5t19 72.5v331z" />
    <glyph glyph-name="Uogonek" unicode="&#x172;" horiz-adv-x="537" 
d="M321 -194q-46 0 -71.5 23t-25.5 61q0 54 56 102l-1 2q-6 -5 -21 -5q-94 0 -149 61.5t-55 167.5v482h127v-482q0 -54 22.5 -82t64.5 -28t65 28t23 82v482h127v-482q0 -119 -78 -187q-73 -64 -73 -105q0 -29 33 -29q20 0 29 3v-82q-29 -12 -73 -12z" />
    <glyph glyph-name="uogonek" unicode="&#x173;" horiz-adv-x="473" 
d="M419 0q-28 -17 -44.5 -38.5t-16.5 -39.5q0 -25 33 -25q15 0 28 3v-82q-26 -12 -73 -12q-41 0 -64.5 23.5t-23.5 60.5q0 62 81 110l-10 57q-42 -70 -128 -70q-73 0 -112.5 54t-39.5 160v328h118v-326q0 -55 15 -79t47 -24q34 0 53 25.5t19 72.5v331h118v-529z" />
    <glyph glyph-name="Wcircumflex" unicode="&#x174;" horiz-adv-x="773" 
d="M394 836l-47 -69h-81l81 132h93l81 -132h-81zM641 700h127l-157 -700h-131l-58 269q-25 110 -33 227h-4q-11 -125 -34 -227l-58 -269h-131l-157 700h127l63 -355q23 -128 30 -191h4q3 22 31 193l62 343h129l62 -343q28 -171 31 -193h4q7 63 30 191z" />
    <glyph glyph-name="wcircumflex" unicode="&#x175;" horiz-adv-x="652" 
d="M323 676l-47 -68h-82l81 131h94l81 -131h-81zM528 529h122l-123 -529h-127l-35 152q-29 127 -36 224h-5q-8 -97 -36 -224l-35 -152h-128l-123 529h122l37 -209q23 -141 28 -190h5q7 57 30 185l40 204h125l39 -204q23 -128 30 -185h5q5 49 28 190z" />
    <glyph glyph-name="Ycircumflex" unicode="&#x176;" horiz-adv-x="460" 
d="M230 836l-47 -69h-81l81 132h93l81 -132h-81zM331 700h128l-167 -482v-218h-123v218l-168 482h128l67 -212q15 -44 33 -111h3q15 59 33 113z" />
    <glyph glyph-name="ycircumflex" unicode="&#x177;" horiz-adv-x="432" 
d="M221 679l-47 -68h-82l81 131h94l81 -131h-81zM311 529h119l-166 -556q-24 -77 -59.5 -119.5t-95.5 -42.5h-61v114h37q51 0 71 69l16 55l-170 480h125l58 -179l37 -125l36 124z" />
    <glyph glyph-name="Ydieresis" unicode="&#x178;" horiz-adv-x="460" 
d="M153 778q-25 0 -40.5 15t-15.5 41t15.5 41t40.5 15t40 -15.5t15 -40.5t-15 -40.5t-40 -15.5zM307 778q-25 0 -40.5 15t-15.5 41t15.5 41t40.5 15t40.5 -15t15.5 -41t-15.5 -41t-40.5 -15zM169 0v218l-168 482h128l67 -212q15 -44 33 -111h3q15 59 33 113l66 210h128
l-167 -482v-218h-123z" />
    <glyph glyph-name="Zacute" unicode="&#x179;" horiz-adv-x="427" 
d="M152 767l94 132h103l-111 -132h-86zM15 0v84l235 499h-219v117h369v-85l-234 -498h239v-117h-390z" />
    <glyph glyph-name="zacute" unicode="&#x17a;" horiz-adv-x="371" 
d="M118 609l74 132h103l-92 -132h-85zM6 0v75l192 345h-173v109h322v-75l-189 -346h199v-108h-351z" />
    <glyph glyph-name="Zdotaccent" unicode="&#x17b;" horiz-adv-x="427" 
d="M215 782q-30 0 -49 19.5t-19 49.5t19 49.5t49 19.5q29 0 49 -19.5t20 -49.5q0 -28 -20 -48.5t-49 -20.5zM15 0v84l235 499h-219v117h369v-85l-234 -498h239v-117h-390z" />
    <glyph glyph-name="zdotaccent" unicode="&#x17c;" horiz-adv-x="371" 
d="M180 611q-30 0 -49 19.5t-19 49.5t19 49.5t49 19.5q29 0 49 -19.5t20 -49.5q0 -28 -20 -48.5t-49 -20.5zM6 0v75l192 345h-173v109h322v-75l-189 -346h199v-108h-351z" />
    <glyph glyph-name="Zcaron" unicode="&#x17d;" horiz-adv-x="427" 
d="M263 767h-93l-81 132h81l47 -69l46 69h81zM166 117h239v-117h-390v84l235 499h-219v117h369v-85z" />
    <glyph glyph-name="zcaron" unicode="&#x17e;" horiz-adv-x="371" 
d="M227 609h-94l-81 132h82l47 -69l46 69h81zM158 108h199v-108h-351v75l192 345h-173v109h322v-75z" />
    <glyph glyph-name="uni0218" unicode="&#x218;" horiz-adv-x="472" 
d="M234 -14q-98 0 -154.5 56t-57.5 156h126q1 -92 87 -92q41 0 62 21.5t21 56.5q0 29 -21 55t-52 44.5t-68 43t-68 49.5t-52 66t-21 90q0 80 53.5 131t144.5 51q94 0 147.5 -54t54.5 -148h-126q-1 83 -76 83q-34 0 -53.5 -18t-19.5 -48q0 -25 15.5 -46t41 -38t56 -34
t60.5 -38t55.5 -46t41 -62t15.5 -82q0 -85 -57 -141t-155 -56zM177 -273l16 202h103l-48 -202h-71z" />
    <glyph glyph-name="uni0219" unicode="&#x219;" horiz-adv-x="425" 
d="M219 -14q-92 0 -144 52t-54 128h118q1 -31 19.5 -51.5t57.5 -20.5q32 0 50 14.5t18 38.5q0 22 -19 38.5t-47 26.5t-61 25t-61 31.5t-47 48.5t-19 74q0 70 48 110.5t129 40.5q86 0 131 -47t50 -126h-114q-3 68 -67 68q-28 0 -44 -13t-16 -34q0 -23 26.5 -39t63.5 -29
t74.5 -31t64 -54.5t26.5 -89.5q0 -73 -49 -117t-134 -44zM156 -273l16 202h103l-48 -202h-71z" />
    <glyph glyph-name="uni021A" unicode="&#x21a;" horiz-adv-x="440" 
d="M424 700v-117h-141v-583h-126v583h-141v117h408zM158 -273l16 202h102l-47 -202h-71z" />
    <glyph glyph-name="uni021B" unicode="&#x21b;" horiz-adv-x="326" 
d="M265 104h33v-111h-40q-82 0 -129.5 49.5t-47.5 135.5v244h-71v107h71v126h117v-126h92v-107h-92v-245q0 -73 67 -73zM119 -273l16 202h103l-48 -202h-71z" />
    <glyph glyph-name="gravecomb" unicode="&#x300;" 
d="M0 609h-85l-92 132h103z" />
    <glyph glyph-name="acutecomb" unicode="&#x301;" 
d="M-177 609l74 132h103l-92 -132h-85z" />
    <glyph glyph-name="uni0302" unicode="&#x302;" 
d="M1 609h-81l-46 68l-47 -68h-82l81 131h94z" />
    <glyph glyph-name="tildecomb" unicode="&#x303;" 
d="M-86 622q-23 0 -45.5 14.5t-32.5 14.5q-22 0 -25 -26h-72q3 48 26.5 73.5t59.5 25.5q23 0 46 -14.5t32 -14.5q10 0 17 7.5t9 18.5h71q-3 -46 -26 -72.5t-60 -26.5z" />
    <glyph glyph-name="uni0304" unicode="&#x304;" 
d="M-211 634v78h211v-78h-211z" />
    <glyph glyph-name="uni0306" unicode="&#x306;" 
d="M-124 611q-54 0 -89 32.5t-37 89.5h79q1 -22 13.5 -34.5t32.5 -12.5q19 0 32 12.5t14 34.5h78q-2 -58 -36 -90t-87 -32z" />
    <glyph glyph-name="uni0307" unicode="&#x307;" 
d="M-101 611q-30 0 -49 19.5t-19 49.5t19 49.5t49 19.5q29 0 49 -19.5t20 -49.5q0 -28 -20 -48.5t-49 -20.5z" />
    <glyph glyph-name="uni0308" unicode="&#x308;" 
d="M-208 617q-26 0 -41 15.5t-15 40.5t15 40t41 15t41 -15t15 -40t-15 -40.5t-41 -15.5zM-56 617q-26 0 -41.5 15.5t-15.5 40.5t15.5 40t41.5 15q25 0 40.5 -15t15.5 -40t-15.5 -40.5t-40.5 -15.5z" />
    <glyph glyph-name="uni030A" unicode="&#x30a;" 
d="M-91 606q-39 0 -62.5 23.5t-23.5 61.5q0 37 23.5 60t62.5 23t63 -23t24 -60q0 -38 -24 -61.5t-63 -23.5zM-91 657q15 0 24 9t9 24t-9 24t-24 9q-14 0 -23 -9t-9 -24t9 -24t23 -9z" />
    <glyph glyph-name="uni030B" unicode="&#x30b;" 
d="M-311 609l75 132h94l-91 -132h-78zM-174 609l80 132h94l-96 -132h-78z" />
    <glyph glyph-name="uni030C" unicode="&#x30c;" 
d="M-74 741h81l-81 -132h-94l-81 132h82l47 -69z" />
    <glyph glyph-name="uni0312" unicode="&#x312;" 
d="M-112 602l-18 207h75l55 -207h-112z" />
    <glyph glyph-name="uni0326" unicode="&#x326;" 
d="M-119 -273l16 202h103l-48 -202h-71z" />
    <glyph glyph-name="uni0327" unicode="&#x327;" 
d="M-110 -203q-41 0 -71 23t-34 60h66q11 -24 40 -24q17 0 26.5 8.5t9.5 21.5q0 27 -35 27q-18 0 -32 -6l-20 19l21 74h65l-13 -48q2 1 10 1q32 0 52.5 -19t20.5 -50q0 -40 -29 -63.5t-77 -23.5z" />
    <glyph glyph-name="uni0328" unicode="&#x328;" 
d="M-81 -194q-46 0 -71.5 23.5t-25.5 61.5q0 59 60 109h101q-24 -17 -38.5 -38.5t-14.5 -37.5q0 -27 33 -27q20 0 29 3v-82q-26 -12 -73 -12z" />
    <glyph glyph-name="uni0335" unicode="&#x335;" 
d="M-210 372v61h200v-61h-200z" />
    <glyph glyph-name="uni0336" unicode="&#x336;" 
d="M-330 372v61h320v-61h-320z" />
    <glyph glyph-name="uni0337" unicode="&#x337;" 
d="M-284 -43l156 596h128l-157 -596h-127z" />
    <glyph glyph-name="uni0338" unicode="&#x338;" 
d="M-360 -39l211 778h125l-211 -778h-125z" />
    <glyph glyph-name="uni0401" unicode="&#x401;" horiz-adv-x="465" 
d="M175 778q-25 0 -40.5 15t-15.5 41t15.5 41t40.5 15t40 -15.5t15 -40.5t-15 -40.5t-40 -15.5zM329 778q-25 0 -40.5 15t-15.5 41t15.5 41t40.5 15t40.5 -15t15.5 -41t-15.5 -41t-40.5 -15zM189 116h239v-116h-362v700h352v-116h-229v-173h210v-112h-210v-183z" />
    <glyph glyph-name="uni0402" unicode="&#x402;" horiz-adv-x="573" 
d="M336 -5v113q77 0 77 90v94q0 107 -61 107q-33 0 -52.5 -23t-19.5 -64v-312h-126v583h-138v117h403v-117h-139v-127q39 55 104 55q71 0 109.5 -55t38.5 -163v-96q-1 -97 -52 -149.5t-144 -52.5z" />
    <glyph glyph-name="uni0403" unicode="&#x403;" horiz-adv-x="426" 
d="M364 899l-111 -132h-86l94 132h103zM410 700v-117h-221v-583h-123v700h344z" />
    <glyph glyph-name="uni0404" unicode="&#x404;" horiz-adv-x="498" 
d="M352 208h123q-4 -106 -60.5 -163t-158.5 -57q-99 0 -154.5 57.5t-55.5 164.5v280q0 108 55.5 166t154.5 58q100 0 155.5 -57.5t60.5 -164.5h-123q-3 54 -26 78.5t-68 24.5q-82 0 -82 -105v-84h160v-102h-160v-94q0 -103 83 -103q46 0 69 24.5t27 76.5z" />
    <glyph glyph-name="uni0405" unicode="&#x405;" horiz-adv-x="472" 
d="M234 -14q-98 0 -154.5 56t-57.5 156h126q1 -92 87 -92q41 0 62 21.5t21 56.5q0 29 -21 55t-52 44.5t-68 43t-68 49.5t-52 66t-21 90q0 80 53.5 131t144.5 51q94 0 147.5 -54t54.5 -148h-126q-1 83 -76 83q-34 0 -53.5 -18t-19.5 -48q0 -25 15.5 -46t41 -38t56 -34
t60.5 -38t55.5 -46t41 -62t15.5 -82q0 -85 -57 -141t-155 -56z" />
    <glyph glyph-name="uni0406" unicode="&#x406;" horiz-adv-x="254" 
d="M66 0v700h123v-700h-123z" />
    <glyph glyph-name="uni0407" unicode="&#x407;" horiz-adv-x="254" 
d="M52 778q-26 0 -41 15t-15 41t15 41t41 15q25 0 40 -15.5t15 -40.5t-15 -40.5t-40 -15.5zM206 778q-26 0 -41 15t-15 41t15 41t41 15t41 -15t15 -41t-15 -41t-41 -15zM66 0v700h123v-700h-123z" />
    <glyph glyph-name="uni0408" unicode="&#x408;" horiz-adv-x="304" 
d="M0 -136v113q60 0 89 29.5t29 102.5v591h123v-591q0 -117 -61.5 -181t-179.5 -64z" />
    <glyph glyph-name="uni0409" unicode="&#x409;" horiz-adv-x="770" 
d="M0 -11v113q36 0 55 23t27 81q13 80 30 494h369v-272h56q107 0 160.5 -58t53.5 -162q0 -208 -214 -208h-183v584h-126q-15 -308 -31 -412q-19 -107 -64 -145t-133 -38zM481 113h47q96 0 96 99t-96 99h-47v-198z" />
    <glyph glyph-name="uni040A" unicode="&#x40a;" horiz-adv-x="786" 
d="M66 0v700h123v-280h167v280h123v-279h71q107 0 162 -57t55 -154q0 -210 -217 -210h-194v303h-167v-303h-123zM479 113h62q98 0 98 97q0 94 -98 94h-62v-191z" />
    <glyph glyph-name="uni040B" unicode="&#x40b;" horiz-adv-x="580" 
d="M154 0v583h-138v117h403v-117h-139v-127q39 55 104 55q71 0 109.5 -55t38.5 -163v-293h-119v292q0 107 -61 107q-31 0 -50 -22t-22 -62v-315h-126z" />
    <glyph glyph-name="uni040C" unicode="&#x40c;" horiz-adv-x="517" 
d="M358 899l-111 -132h-86l94 132h103zM377 0l-147 285l-43 -67v-218h-121v700h121v-287l41 82l117 205h142l-188 -305l218 -395h-140z" />
    <glyph glyph-name="uni040D" unicode="&#x40d;" horiz-adv-x="563" 
d="M348 767h-85l-111 132h103zM66 0v700h120v-229q0 -113 -15 -240l3 -2q42 109 51 129l149 342h123v-700h-120v218q0 134 13 254l-3 3q-51 -136 -58 -152l-141 -323h-122z" />
    <glyph glyph-name="uni040E" unicode="&#x40e;" horiz-adv-x="454" 
d="M230 769q-54 0 -89 32.5t-37 89.5h79q1 -22 13.5 -34.5t32.5 -12.5q19 0 32 12.5t14 34.5h78q-2 -58 -36 -90t-87 -32zM324 700h129l-166 -540q-32 -101 -77 -136t-135 -35h-26v110h30q41 0 61.5 20t37.5 78l-175 503h130l100 -313z" />
    <glyph glyph-name="uni040F" unicode="&#x40f;" horiz-adv-x="546" 
d="M213 -118v118h-147v700h123v-583h169v583h123v-700h-147v-118h-121z" />
    <glyph glyph-name="uni0410" unicode="&#x410;" horiz-adv-x="485" 
d="M353 0l-28 127h-164l-28 -127h-128l172 700h132l172 -700h-128zM186 244h114l-28 130q-8 40 -28 172h-3q-14 -109 -27 -172z" />
    <glyph glyph-name="uni0411" unicode="&#x411;" horiz-adv-x="510" 
d="M66 0v700h377v-115h-254v-156h78q104 0 159.5 -58t55.5 -156q0 -215 -215 -215h-201zM189 117h69q97 0 97 98q0 49 -25.5 74t-71.5 25h-69v-197z" />
    <glyph glyph-name="uni0412" unicode="&#x412;" horiz-adv-x="513" 
d="M392 359q42 -21 65.5 -62t23.5 -92q0 -93 -56.5 -149t-147.5 -56h-211v700h205q83 0 134 -53.5t51 -141.5q0 -96 -64 -146zM252 584h-63v-172h67q75 0 75 88q0 84 -79 84zM258 116q97 0 97 89q0 45 -25.5 68.5t-72.5 23.5h-68v-181h69z" />
    <glyph glyph-name="uni0413" unicode="&#x413;" horiz-adv-x="426" 
d="M410 700v-117h-221v-583h-123v700h344z" />
    <glyph glyph-name="uni0414" unicode="&#x414;" horiz-adv-x="579" 
d="M501 115h63v-233h-121v118h-317v-118h-121v233h43q73 79 81 272l12 313h360v-585zM379 115v469h-123l-9 -232q-5 -147 -55 -237h187z" />
    <glyph glyph-name="uni0415" unicode="&#x415;" horiz-adv-x="465" 
d="M189 116h239v-116h-362v700h352v-116h-229v-173h210v-112h-210v-183z" />
    <glyph glyph-name="uni0416" unicode="&#x416;" horiz-adv-x="742" 
d="M606 0l-141 279l-34 -53v-226h-120v227l-34 53l-140 -280h-137l212 384l-194 316h140l112 -202l41 -84v286h120v-287l43 87l111 200h139l-194 -317l212 -383h-136z" />
    <glyph glyph-name="uni0417" unicode="&#x417;" horiz-adv-x="489" 
d="M350 364q117 -33 117 -166q0 -97 -64 -154.5t-162 -57.5q-102 0 -163 64t-65 157h124q2 -42 28 -72t75 -30q44 0 72.5 26.5t28.5 73.5q0 49 -29 75t-81 26h-50v107h41q100 0 100 97q0 40 -21 63.5t-60 23.5q-89 0 -94 -105h-122q6 101 61.5 162t154.5 61q93 0 149 -55.5
t56 -148.5q0 -107 -96 -147z" />
    <glyph glyph-name="uni0418" unicode="&#x418;" horiz-adv-x="563" 
d="M66 0v700h120v-229q0 -113 -15 -240l3 -2q42 109 51 129l149 342h123v-700h-120v218q0 134 13 254l-3 3q-51 -136 -58 -152l-141 -323h-122z" />
    <glyph glyph-name="uni0419" unicode="&#x419;" horiz-adv-x="563" 
d="M286 769q-54 0 -89 32.5t-37 89.5h79q1 -22 13.5 -34.5t32.5 -12.5q19 0 32 12.5t14 34.5h78q-2 -58 -36 -90t-87 -32zM66 0v700h120v-229q0 -113 -15 -240l3 -2q42 109 51 129l149 342h123v-700h-120v218q0 134 13 254l-3 3q-51 -136 -58 -152l-141 -323h-122z" />
    <glyph glyph-name="uni041A" unicode="&#x41a;" horiz-adv-x="517" 
d="M377 0l-147 285l-43 -67v-218h-121v700h121v-287l41 82l117 205h142l-188 -305l218 -395h-140z" />
    <glyph glyph-name="uni041B" unicode="&#x41b;" horiz-adv-x="549" 
d="M0 -11v111q33 0 51 21.5t28 80.5q15 89 33 498h371v-700h-123v584h-130q-16 -304 -33 -412q-16 -106 -63 -144.5t-134 -38.5z" />
    <glyph glyph-name="uni041C" unicode="&#x41c;" horiz-adv-x="708" 
d="M518 700h125v-700h-121v219q6 157 10 241l-5 2l-65 -184l-47 -124h-122l-47 124l-65 184l-5 -2q4 -84 10 -241v-219h-120v700h124l114 -274q33 -81 48 -130h4q12 39 49 130z" />
    <glyph glyph-name="uni041D" unicode="&#x41d;" horiz-adv-x="548" 
d="M358 700h124v-700h-124v295h-169v-295h-123v700h123v-288h169v288z" />
    <glyph glyph-name="uni041E" unicode="&#x41e;" horiz-adv-x="533" 
d="M267 -12q-104 0 -162.5 63t-58.5 174v250q0 111 58.5 174t162.5 63q103 0 161.5 -63t58.5 -174v-250q0 -111 -58.5 -174t-161.5 -63zM267 107q93 0 93 118v250q0 118 -93 118q-94 0 -94 -118v-250q0 -118 94 -118z" />
    <glyph glyph-name="uni041F" unicode="&#x41f;" horiz-adv-x="546" 
d="M481 700v-700h-123v583h-169v-583h-123v700h415z" />
    <glyph glyph-name="uni0420" unicode="&#x420;" horiz-adv-x="514" 
d="M260 700q106 0 165 -61.5t59 -171.5t-59 -171t-165 -61h-71v-235h-123v700h194zM259 351q99 0 99 116t-99 116h-70v-232h70z" />
    <glyph glyph-name="uni0421" unicode="&#x421;" horiz-adv-x="498" 
d="M256 -12q-99 0 -154.5 57.5t-55.5 164.5v280q0 108 55.5 166t154.5 58q100 0 155.5 -57.5t60.5 -164.5h-123q-3 54 -26 78.5t-68 24.5q-82 0 -82 -105v-280q0 -103 83 -103q46 0 69 24.5t27 76.5h123q-4 -106 -60.5 -163t-158.5 -57z" />
    <glyph glyph-name="uni0422" unicode="&#x422;" horiz-adv-x="440" 
d="M424 700v-117h-141v-583h-126v583h-141v117h408z" />
    <glyph glyph-name="uni0423" unicode="&#x423;" horiz-adv-x="454" 
d="M324 700h129l-166 -540q-32 -101 -77 -136t-135 -35h-26v110h30q41 0 61.5 20t37.5 78l-175 503h130l100 -313z" />
    <glyph glyph-name="uni0424" unicode="&#x424;" horiz-adv-x="680" 
d="M279 -66v79h-14q-106 0 -174 69t-68 190v150q0 123 68 194t174 71h14v74h122v-74h14q106 0 174 -71t68 -194v-150q0 -121 -68 -190t-174 -69h-14v-79h-122zM259 131h20v438h-20q-52 0 -82.5 -36t-30.5 -111v-150q0 -72 30.5 -106.5t82.5 -34.5zM401 131h19
q53 0 83.5 34.5t30.5 106.5v150q0 75 -30.5 111t-83.5 36h-19v-438z" />
    <glyph glyph-name="uni0425" unicode="&#x425;" horiz-adv-x="497" 
d="M483 0h-135l-99 243l-100 -243h-135l166 362l-156 338h134l91 -222l90 222h135l-157 -338z" />
    <glyph glyph-name="uni0426" unicode="&#x426;" horiz-adv-x="557" 
d="M422 -118v118h-356v700h123v-583h166v583h124v-583h64v-235h-121z" />
    <glyph glyph-name="uni0427" unicode="&#x427;" horiz-adv-x="519" 
d="M331 700h123v-704h-123v251q-43 -13 -92 -13q-96 0 -150.5 61t-54.5 170v235h123v-241q0 -110 100 -110q38 0 74 12v339z" />
    <glyph glyph-name="uni0428" unicode="&#x428;" horiz-adv-x="813" 
d="M66 0v700h121v-583h159v583h121v-583h159v583h121v-700h-681z" />
    <glyph glyph-name="uni0429" unicode="&#x429;" horiz-adv-x="822" 
d="M687 -118v118h-621v700h121v-583h157v583h122v-583h157v583h121v-583h64v-235h-121z" />
    <glyph glyph-name="uni042A" unicode="&#x42a;" horiz-adv-x="572" 
d="M147 0v588h-134v112h258v-271h65q107 0 162 -58.5t55 -157.5q0 -108 -53 -160.5t-164 -52.5h-189zM271 113h56q100 0 100 100q0 99 -100 99h-56v-199z" />
    <glyph glyph-name="uni042B" unicode="&#x42b;" horiz-adv-x="724" 
d="M66 0v700h126v-272h55q106 0 160.5 -58t54.5 -158q0 -107 -53 -159.5t-162 -52.5h-181zM536 0v700h123v-700h-123zM192 113h46q96 0 96 99t-96 99h-46v-198z" />
    <glyph glyph-name="uni042C" unicode="&#x42c;" horiz-adv-x="494" 
d="M66 0v700h123v-272h69q107 0 162 -58.5t55 -157.5q0 -107 -53.5 -159.5t-163.5 -52.5h-192zM189 113h60q98 0 98 99t-98 99h-60v-198z" />
    <glyph glyph-name="uni042D" unicode="&#x42d;" horiz-adv-x="499" 
d="M243 714q98 0 153.5 -58t55.5 -166v-280q0 -107 -55.5 -164.5t-154.5 -57.5q-102 0 -158.5 57t-59.5 163h122q5 -53 27.5 -77t68.5 -24q83 0 83 103v94h-159v102h159v84q0 105 -82 105q-45 0 -67.5 -24.5t-26.5 -78.5h-122q4 107 59.5 164.5t156.5 57.5z" />
    <glyph glyph-name="uni042E" unicode="&#x42e;" horiz-adv-x="774" 
d="M511 711q102 0 159.5 -63.5t57.5 -175.5v-244q0 -112 -57.5 -175.5t-159.5 -63.5q-103 0 -160.5 63t-57.5 176v67h-105v-295h-122v700h122v-288h105v60q0 113 57.5 176t160.5 63zM602 228v244q0 120 -91 120t-91 -120v-244q0 -120 91 -120t91 120z" />
    <glyph glyph-name="uni042F" unicode="&#x42f;" horiz-adv-x="515" 
d="M10 0l141 263q-110 52 -110 206q0 109 57 170t159 61h192v-700h-123v239h-55l-125 -239h-136zM258 356h68v227h-68q-91 0 -91 -114q0 -55 23.5 -84t67.5 -29z" />
    <glyph glyph-name="uni0430" unicode="&#x430;" horiz-adv-x="458" 
d="M228 542q177 0 177 -199v-343h-95l-7 50q-36 -64 -117 -64q-72 0 -115.5 46t-43.5 119q0 80 53 122t144 42h62v28q0 85 -60 85q-59 0 -66 -58h-118q4 80 53 126t133 46zM286 165v54h-60q-79 0 -79 -68q0 -28 17 -45t50 -17t52.5 20t19.5 56z" />
    <glyph glyph-name="uni0431" unicode="&#x431;" horiz-adv-x="476" 
d="M244 -12q-89 0 -139.5 53.5t-50.5 151.5v270q0 88 43.5 138.5t126.5 81.5q46 17 63 28t36 38l83 -69q-23 -39 -51.5 -60t-70.5 -35q-26 -8 -40.5 -14t-34 -18.5t-29 -32t-9.5 -46.5v-21q38 32 95 32q76 0 122.5 -54t46.5 -151v-87q0 -98 -50.5 -151.5t-140.5 -53.5z
M244 102q71 0 71 91v85q0 92 -70 92q-72 0 -72 -90v-87q0 -91 71 -91z" />
    <glyph glyph-name="uni0432" unicode="&#x432;" horiz-adv-x="434" 
d="M336 280q81 -32 81 -126q0 -73 -47.5 -113.5t-142.5 -40.5h-173v529h169q81 0 124 -39t43 -111q0 -62 -54 -99zM167 434v-117h48q60 0 60 59q0 27 -16 42.5t-45 15.5h-47zM233 97q68 0 68 62t-68 62h-66v-124h66z" />
    <glyph glyph-name="uni0433" unicode="&#x433;" horiz-adv-x="349" 
d="M335 530v-113h-162v-417h-119v530h281z" />
    <glyph glyph-name="uni0434" unicode="&#x434;" horiz-adv-x="494" 
d="M0 -118v225h41q36 45 44 156q10 175 12 266h326v-422h61v-225h-113v118h-258v-118h-113zM176 107h130v313h-98q-2 -109 -8 -186q-5 -75 -24 -127z" />
    <glyph glyph-name="uni0435" unicode="&#x435;" horiz-adv-x="456" 
d="M302 167h119q-8 -85 -58.5 -132t-135.5 -47q-86 0 -135.5 54t-49.5 150v149q0 95 49.5 148t137.5 53q89 0 139.5 -53t50.5 -148v-118h-259v-31q0 -91 69 -91q34 0 50 15t23 51zM230 432q-70 0 -70 -90v-35h142v35q0 90 -72 90z" />
    <glyph glyph-name="uni0436" unicode="&#x436;" horiz-adv-x="655" 
d="M529 0l-117 213l-28 -30v-183h-113v183l-28 30l-117 -213h-131l174 304l-152 225h135l66 -115l53 -96v211h113v-210l53 95l66 115h135l-152 -225l173 -304h-130z" />
    <glyph glyph-name="uni0437" unicode="&#x437;" horiz-adv-x="427" 
d="M330 279q30 -15 51 -47.5t21 -72.5q0 -80 -51.5 -126t-140.5 -46q-87 0 -138.5 45.5t-56.5 125.5h113q6 -63 82 -63q37 0 57 18t20 52q0 62 -74 62h-62v86h61q29 0 45.5 16.5t16.5 45.5q0 28 -16.5 43.5t-47.5 15.5q-68 0 -72 -69h-113q5 83 52.5 129t129.5 46
q83 0 131.5 -42.5t48.5 -114.5q0 -66 -57 -104z" />
    <glyph glyph-name="uni0438" unicode="&#x438;" horiz-adv-x="474" 
d="M54 0v529h113v-178q0 -20 -0.5 -73.5t-0.5 -89.5l2 -1q19 60 67 189l66 153h119v-529h-113v156q0 113 5 187l-3 1q-5 -22 -29 -94t-40 -106l-66 -144h-120z" />
    <glyph glyph-name="uni0439" unicode="&#x439;" horiz-adv-x="474" 
d="M239 611q-54 0 -89 32.5t-37 89.5h79q1 -22 13.5 -34.5t32.5 -12.5q19 0 32 12.5t14 34.5h78q-2 -58 -36 -90t-87 -32zM54 0v529h113v-178q0 -20 -0.5 -73.5t-0.5 -89.5l2 -1q19 60 67 189l66 153h119v-529h-113v156q0 113 5 187l-3 1q-5 -22 -29 -94t-40 -106l-66 -144
h-120z" />
    <glyph glyph-name="uni043A" unicode="&#x43a;" horiz-adv-x="451" 
d="M322 0l-122 212l-29 -31v-181h-117v529h117v-212l52 93l70 119h138l-153 -224l178 -305h-134z" />
    <glyph glyph-name="uni043B" unicode="&#x43b;" horiz-adv-x="464" 
d="M-3 -9v114q34 0 47.5 26.5t19.5 87.5q14 123 19 310h327v-529h-117v420h-97q-6 -148 -16 -223q-11 -105 -56 -155.5t-127 -50.5z" />
    <glyph glyph-name="uni043C" unicode="&#x43c;" horiz-adv-x="565" 
d="M394 529h118v-529h-109v164q0 22 6 169l-6 2l-41 -139l-26 -69h-106l-26 69q-10 29 -42 139l-6 -2q7 -114 7 -169v-164h-109v529h117l67 -163q30 -80 43 -125h3q15 52 44 125z" />
    <glyph glyph-name="uni043D" unicode="&#x43d;" horiz-adv-x="461" 
d="M289 529h118v-529h-118v214h-117v-214h-118v529h118v-206h117v206z" />
    <glyph glyph-name="uni043E" unicode="&#x43e;" horiz-adv-x="467" 
d="M233 -13q-90 0 -140.5 54t-50.5 152v143q0 98 50.5 152t140.5 54q91 0 141.5 -54t50.5 -152v-143q0 -98 -50.5 -152t-141.5 -54zM233 102q72 0 72 91v143q0 91 -72 91q-71 0 -71 -91v-143q0 -91 71 -91z" />
    <glyph glyph-name="uni043F" unicode="&#x43f;" horiz-adv-x="461" 
d="M54 0v529h353v-529h-118v420h-117v-420h-118z" />
    <glyph glyph-name="uni0440" unicode="&#x440;" horiz-adv-x="470" 
d="M259 541q77 0 123.5 -56t46.5 -151v-141q0 -95 -46.5 -150.5t-123.5 -55.5q-52 0 -90 35v-202h-115v710h82l7 -49q20 26 51.5 43t64.5 17zM309 193v141q0 95 -68 95q-34 0 -53 -24.5t-19 -70.5v-141q0 -45 19 -69.5t53 -24.5q68 0 68 94z" />
    <glyph glyph-name="uni0441" unicode="&#x441;" horiz-adv-x="440" 
d="M226 -12q-86 0 -135 52t-49 145v161q0 92 49 144t135 52q90 0 138.5 -51.5t51.5 -144.5h-119q-3 83 -69 83q-67 0 -67 -83v-161q0 -84 67 -84q66 0 70 84h119q-2 -93 -53 -145t-138 -52z" />
    <glyph glyph-name="uni0442" unicode="&#x442;" horiz-adv-x="364" 
d="M355 529v-112h-114v-417h-118v417h-115v112h347z" />
    <glyph glyph-name="uni0443" unicode="&#x443;" horiz-adv-x="432" 
d="M311 529h119l-166 -556q-24 -77 -59.5 -119.5t-95.5 -42.5h-61v114h37q51 0 71 69l16 55l-170 480h125l58 -179l37 -125l36 124z" />
    <glyph glyph-name="uni0444" unicode="&#x444;" horiz-adv-x="628" 
d="M389 537q91 0 144 -54t53 -152v-125q0 -100 -53 -156t-144 -56h-18v-174h-114v174h-18q-91 0 -144 56t-53 156v125q0 98 52.5 152t144.5 54h18v187h114v-187h18zM239 109h18v313h-18q-77 0 -77 -91v-125q0 -97 77 -97zM466 206v125q0 91 -77 91h-18v-313h18q77 0 77 97z
" />
    <glyph glyph-name="uni0445" unicode="&#x445;" horiz-adv-x="423" 
d="M427 0h-133l-83 169l-82 -169h-133l142 266l-129 263h129l73 -162l73 162h130l-127 -263z" />
    <glyph glyph-name="uni0446" unicode="&#x446;" horiz-adv-x="482" 
d="M354 -118v118h-300v529h118v-422h116v422h118v-422h61v-225h-113z" />
    <glyph glyph-name="uni0447" unicode="&#x447;" horiz-adv-x="436" 
d="M272 0v177q-33 -18 -80 -18q-77 0 -121 52.5t-44 163.5v154h111v-154q0 -60 16.5 -83t49.5 -23q43 0 68 16v244h111v-529h-111z" />
    <glyph glyph-name="uni0448" unicode="&#x448;" horiz-adv-x="679" 
d="M49 0v529h116v-420h114v420h116v-420h114v420h116v-529h-576z" />
    <glyph glyph-name="uni0449" unicode="&#x449;" horiz-adv-x="706" 
d="M579 -118v118h-525v529h116v-420h114v420h116v-420h114v420h117v-422h60v-225h-112z" />
    <glyph glyph-name="uni044A" unicode="&#x44a;" horiz-adv-x="493" 
d="M307 354q78 0 126.5 -48.5t48.5 -126.5q0 -80 -48.5 -129.5t-126.5 -49.5h-194v420h-105v109h223v-175h76zM292 106q33 0 52 19.5t19 53.5q0 33 -19 51.5t-52 18.5h-61v-143h61z" />
    <glyph glyph-name="uni044B" unicode="&#x44b;" horiz-adv-x="651" 
d="M247 351q78 0 126.5 -48t48.5 -126q0 -79 -48.5 -128t-126.5 -49h-193v528h118v-177h75zM478 528h119v-528h-119v528zM232 106q33 0 52 19t19 53q0 32 -19 49.5t-52 17.5h-60v-139h60z" />
    <glyph glyph-name="uni044C" unicode="&#x44c;" horiz-adv-x="433" 
d="M247 354q78 0 126.5 -48.5t48.5 -126.5q0 -80 -48.5 -129.5t-126.5 -49.5h-193v529h118v-175h75zM232 106q33 0 52 19.5t19 53.5q0 33 -19 51.5t-52 18.5h-60v-143h60z" />
    <glyph glyph-name="uni044D" unicode="&#x44d;" horiz-adv-x="440" 
d="M215 542q86 0 135 -52t49 -144v-161q0 -93 -49 -145t-135 -52q-88 0 -139 50t-53 139h119q5 -76 70 -76q67 0 67 84v43h-146v78h146v40q0 83 -67 83q-64 0 -67 -75h-119q3 90 51.5 139t137.5 49z" />
    <glyph glyph-name="uni044E" unicode="&#x44e;" horiz-adv-x="648" 
d="M420 542q87 0 136.5 -54t49.5 -151v-143q0 -98 -49.5 -152t-136.5 -54q-88 0 -137 54t-49 152v20h-67v-214h-113v529h113v-207h67v15q0 98 49 151.5t137 53.5zM488 194v143q0 90 -68 90q-69 0 -69 -90v-143q0 -91 69 -91q68 0 68 91z" />
    <glyph glyph-name="uni044F" unicode="&#x44f;" horiz-adv-x="427" 
d="M207 529h171v-529h-113v171h-44l-82 -171h-132l105 190q-88 47 -88 163q0 83 50 129.5t133 46.5zM265 269v154h-51q-75 0 -75 -74q0 -80 74 -80h52z" />
    <glyph glyph-name="uni0451" unicode="&#x451;" horiz-adv-x="456" 
d="M147 617q-25 0 -40.5 15.5t-15.5 40.5t15 40t41 15t41 -15t15 -40t-15.5 -40.5t-40.5 -15.5zM299 617q-26 0 -41.5 15.5t-15.5 40.5t15.5 40t41.5 15q25 0 40.5 -15t15.5 -40t-15.5 -40.5t-40.5 -15.5zM302 167h119q-8 -85 -58.5 -132t-135.5 -47q-86 0 -135.5 54
t-49.5 150v149q0 95 49.5 148t137.5 53q89 0 139.5 -53t50.5 -148v-118h-259v-31q0 -91 69 -91q34 0 50 15t23 51zM230 432q-70 0 -70 -90v-35h142v35q0 90 -72 90z" />
    <glyph glyph-name="uni0452" unicode="&#x452;" horiz-adv-x="471" 
d="M220 -197v113q84 1 84 81v325q0 57 -15 82t-47 25q-34 0 -53 -25.5t-19 -72.5v-331h-118v605h-63v61h63v59h118v-59h93v-61h-93v-120q41 57 105 57q71 0 109.5 -55.5t38.5 -163.5v-319q0 -95 -52.5 -147.5t-150.5 -53.5z" />
    <glyph glyph-name="uni0453" unicode="&#x453;" horiz-adv-x="349" 
d="M305 741l-92 -132h-85l74 132h103zM335 530v-113h-162v-417h-119v530h281z" />
    <glyph glyph-name="uni0454" unicode="&#x454;" horiz-adv-x="440" 
d="M298 177h119q-2 -89 -52.5 -139t-138.5 -50q-86 0 -135 52t-49 145v161q0 92 49 144t135 52q89 0 137 -49t51 -139h-119q-3 75 -67 75q-67 0 -67 -83v-40h146v-78h-146v-43q0 -84 67 -84q65 0 70 76z" />
    <glyph glyph-name="uni0455" unicode="&#x455;" horiz-adv-x="425" 
d="M219 -14q-92 0 -144 52t-54 128h118q1 -31 19.5 -51.5t57.5 -20.5q32 0 50 14.5t18 38.5q0 22 -19 38.5t-47 26.5t-61 25t-61 31.5t-47 48.5t-19 74q0 70 48 110.5t129 40.5q86 0 131 -47t50 -126h-114q-3 68 -67 68q-28 0 -44 -13t-16 -34q0 -23 26.5 -39t63.5 -29
t74.5 -31t64 -54.5t26.5 -89.5q0 -73 -49 -117t-134 -44z" />
    <glyph glyph-name="uni0456" unicode="&#x456;" horiz-adv-x="226" 
d="M113 611q-30 0 -49 19.5t-19 49.5t19 49.5t49 19.5q29 0 49 -19.5t20 -49.5q0 -28 -20 -48.5t-49 -20.5zM54 0v529h118v-529h-118z" />
    <glyph glyph-name="uni0457" unicode="&#x457;" horiz-adv-x="250" 
d="M55 620q-24 0 -39 14.5t-15 39.5t15 39.5t39 14.5q25 0 39.5 -14.5t14.5 -39.5t-14.5 -39.5t-39.5 -14.5zM196 620q-25 0 -40 14.5t-15 39.5t15 39.5t40 14.5q24 0 38.5 -14.5t14.5 -39.5t-14.5 -39.5t-38.5 -14.5zM65 0v529h119v-529h-119z" />
    <glyph glyph-name="uni0458" unicode="&#x458;" horiz-adv-x="254" 
d="M131 610q-30 0 -49 19.5t-19 49.5t19 49.5t49 19.5q29 0 49 -19.5t20 -49.5q0 -28 -20 -48.5t-49 -20.5zM-12 -194v113q85 1 85 86v524h118v-517q0 -98 -52 -151.5t-151 -54.5z" />
    <glyph glyph-name="uni0459" unicode="&#x459;" horiz-adv-x="671" 
d="M-3 -9v114q34 0 47.5 26.5t19.5 87.5q14 123 19 310h326v-178h76q78 0 126.5 -48t48.5 -126q0 -79 -48.5 -128t-126.5 -49h-192v420h-97q-5 -134 -16 -223q-11 -105 -56 -155.5t-127 -50.5zM409 106h61q33 0 52 19t19 53q0 32 -19 49.5t-52 17.5h-61v-139z" />
    <glyph glyph-name="uni045A" unicode="&#x45a;" horiz-adv-x="668" 
d="M54 0v529h118v-192h117v192h117v-192h76q77 0 126 -46t49 -120q0 -76 -49 -123.5t-126 -47.5h-193v228h-117v-228h-118zM406 106h61q33 0 52 17.5t19 48.5q0 28 -19 43.5t-52 15.5h-61v-125z" />
    <glyph glyph-name="uni045B" unicode="&#x45b;" horiz-adv-x="471" 
d="M275 542q71 0 109.5 -55.5t38.5 -163.5v-323h-119v322q0 57 -15 82t-47 25q-34 0 -53 -25.5t-19 -72.5v-331h-117v602h-64v61h64v62h117v-62h93v-61h-93v-118q40 58 105 58z" />
    <glyph glyph-name="uni045C" unicode="&#x45c;" horiz-adv-x="451" 
d="M343 741l-92 -132h-85l74 132h103zM322 0l-122 212l-29 -31v-181h-117v529h117v-212l52 93l70 119h138l-153 -224l178 -305h-134z" />
    <glyph glyph-name="uni045D" unicode="&#x45d;" horiz-adv-x="474" 
d="M311 609h-85l-92 132h103zM54 0v529h113v-178q0 -20 -0.5 -73.5t-0.5 -89.5l2 -1q19 60 67 189l66 153h119v-529h-113v156q0 113 5 187l-3 1q-5 -22 -29 -94t-40 -106l-66 -144h-120z" />
    <glyph glyph-name="uni045E" unicode="&#x45e;" horiz-adv-x="432" 
d="M224 613q-54 0 -89 32.5t-37 89.5h79q1 -22 13.5 -34.5t32.5 -12.5q19 0 32 12.5t14 34.5h78q-2 -58 -36 -90t-87 -32zM311 529h119l-166 -556q-24 -77 -59.5 -119.5t-95.5 -42.5h-61v114h37q51 0 71 69l16 55l-170 480h125l58 -179l37 -125l36 124z" />
    <glyph glyph-name="uni045F" unicode="&#x45f;" horiz-adv-x="461" 
d="M407 529v-529h-121v-118h-109v118h-123v529h118v-420h117v420h118z" />
    <glyph glyph-name="uni0490" unicode="&#x490;" horiz-adv-x="426" 
d="M309 823h101v-240h-221v-583h-123v700h243v123z" />
    <glyph glyph-name="uni0491" unicode="&#x491;" horiz-adv-x="350" 
d="M241 628h95v-212h-163v-416h-119v529h187v99z" />
    <glyph glyph-name="Wgrave" unicode="&#x1e80;" horiz-adv-x="773" 
d="M461 767h-85l-111 132h103zM162 0l-157 700h127l63 -355q23 -128 30 -191h4q3 22 31 193l62 343h129l62 -343q28 -171 31 -193h4q7 63 30 191l63 355h127l-157 -700h-131l-58 269q-25 110 -33 227h-4q-11 -125 -34 -227l-58 -269h-131z" />
    <glyph glyph-name="wgrave" unicode="&#x1e81;" horiz-adv-x="652" 
d="M399 608h-85l-92 132h103zM528 529h122l-123 -529h-127l-35 152q-29 127 -36 224h-5q-8 -97 -36 -224l-35 -152h-128l-123 529h122l37 -209q23 -141 28 -190h5q7 57 30 185l40 204h125l39 -204q23 -128 30 -185h5q5 49 28 190z" />
    <glyph glyph-name="Wacute" unicode="&#x1e82;" horiz-adv-x="773" 
d="M330 767l94 132h103l-111 -132h-86zM162 0l-157 700h127l63 -355q23 -128 30 -191h4q3 22 31 193l62 343h129l62 -343q28 -171 31 -193h4q7 63 30 191l63 355h127l-157 -700h-131l-58 269q-25 110 -33 227h-4q-11 -125 -34 -227l-58 -269h-131z" />
    <glyph glyph-name="wacute" unicode="&#x1e83;" horiz-adv-x="652" 
d="M437 740l-92 -132h-85l74 132h103zM528 529h122l-123 -529h-127l-35 152q-29 127 -36 224h-5q-8 -97 -36 -224l-35 -152h-128l-123 529h122l37 -209q23 -141 28 -190h5q7 57 30 185l40 204h125l39 -204q23 -128 30 -185h5q5 49 28 190z" />
    <glyph glyph-name="Wdieresis" unicode="&#x1e84;" horiz-adv-x="773" 
d="M317 778q-25 0 -40.5 15t-15.5 41t15.5 41t40.5 15t40 -15.5t15 -40.5t-15 -40.5t-40 -15.5zM471 778q-25 0 -40.5 15t-15.5 41t15.5 41t40.5 15t40.5 -15t15.5 -41t-15.5 -41t-40.5 -15zM162 0l-157 700h127l63 -355q23 -128 30 -191h4q3 22 31 193l62 343h129l62 -343
q28 -171 31 -193h4q7 63 30 191l63 355h127l-157 -700h-131l-58 269q-25 110 -33 227h-4q-11 -125 -34 -227l-58 -269h-131z" />
    <glyph glyph-name="wdieresis" unicode="&#x1e85;" horiz-adv-x="652" 
d="M247 617q-25 0 -40.5 15.5t-15.5 40.5t15 40t41 15t41 -15t15 -40t-15.5 -40.5t-40.5 -15.5zM399 617q-26 0 -41.5 15.5t-15.5 40.5t15.5 40t41.5 15q25 0 40.5 -15t15.5 -40t-15.5 -40.5t-40.5 -15.5zM528 529h122l-123 -529h-127l-35 152q-29 127 -36 224h-5
q-8 -97 -36 -224l-35 -152h-128l-123 529h122l37 -209q23 -141 28 -190h5q7 57 30 185l40 204h125l39 -204q23 -128 30 -185h5q5 49 28 190z" />
    <glyph glyph-name="Ygrave" unicode="&#x1ef2;" horiz-adv-x="460" 
d="M297 767h-85l-111 132h103zM169 0v218l-168 482h128l67 -212q15 -44 33 -111h3q15 59 33 113l66 210h128l-167 -482v-218h-123z" />
    <glyph glyph-name="ygrave" unicode="&#x1ef3;" horiz-adv-x="432" 
d="M296 611h-85l-92 132h103zM311 529h119l-166 -556q-24 -77 -59.5 -119.5t-95.5 -42.5h-61v114h37q51 0 71 69l16 55l-170 480h125l58 -179l37 -125l36 124z" />
    <glyph glyph-name="endash" unicode="&#x2013;" horiz-adv-x="415" 
d="M34 206v102h347v-102h-347z" />
    <glyph glyph-name="emdash" unicode="&#x2014;" horiz-adv-x="550" 
d="M34 206v102h483v-102h-483z" />
    <glyph glyph-name="quoteleft" unicode="&#x2018;" horiz-adv-x="168" 
d="M13 450l63 250h70l-20 -250h-113z" />
    <glyph glyph-name="quoteright" unicode="&#x2019;" horiz-adv-x="168" 
d="M21 452l21 250h112l-62 -250h-71z" />
    <glyph glyph-name="quotesinglbase" unicode="&#x201a;" horiz-adv-x="181" 
d="M24 -140l20 250h113l-63 -250h-70z" />
    <glyph glyph-name="quotedblleft" unicode="&#x201c;" horiz-adv-x="313" 
d="M13 450l63 250h70l-20 -250h-113zM159 450l63 250h70l-20 -250h-113z" />
    <glyph glyph-name="quotedblright" unicode="&#x201d;" horiz-adv-x="313" 
d="M21 450l21 250h112l-62 -250h-71zM167 450l20 250h113l-63 -250h-70z" />
    <glyph glyph-name="quotedblbase" unicode="&#x201e;" horiz-adv-x="327" 
d="M24 -140l20 250h113l-63 -250h-70zM170 -140l20 250h113l-63 -250h-70z" />
    <glyph glyph-name="dagger" unicode="&#x2020;" horiz-adv-x="370" 
d="M351 520v-105h-111v-513h-110v513h-111v105h111v185h110v-185h111z" />
    <glyph glyph-name="daggerdbl" unicode="&#x2021;" horiz-adv-x="375" 
d="M353 415h-111v-189h111v-105h-111v-219h-111v219h-111v105h111v189h-111v105h111v185h111v-185h111v-105z" />
    <glyph glyph-name="bullet" unicode="&#x2022;" horiz-adv-x="225" 
d="M112 159q-41 0 -66.5 25.5t-25.5 66.5t25.5 66t66.5 25q40 0 65 -25t25 -66t-25 -66.5t-65 -25.5z" />
    <glyph glyph-name="ellipsis" unicode="&#x2026;" horiz-adv-x="566" 
d="M100 -10q-31 0 -49.5 18.5t-18.5 49.5t18.5 50t49.5 19t50 -19t19 -50t-19 -49.5t-50 -18.5zM283 -10q-31 0 -49.5 18.5t-18.5 49.5t18.5 50t49.5 19t49.5 -19t18.5 -50t-18.5 -49.5t-49.5 -18.5zM466 -10q-31 0 -49.5 18.5t-18.5 49.5t18.5 50t49.5 19t49.5 -19
t18.5 -50t-18.5 -49.5t-49.5 -18.5z" />
    <glyph glyph-name="perthousand" unicode="&#x2030;" horiz-adv-x="834" 
d="M126 388q-48 0 -76.5 28.5t-28.5 80.5v104q0 52 28.5 81t76.5 29t76.5 -29t28.5 -81v-104q0 -52 -28.5 -80.5t-76.5 -28.5zM13 0l483 700h82l-483 -700h-82zM126 453q32 0 32 43v106q0 44 -32 44t-32 -44v-106q0 -43 32 -43zM453 -9q-48 0 -76.5 28.5t-28.5 81.5v103
q0 53 28.5 82t76.5 29t76 -29t28 -82v-103q0 -53 -28 -81.5t-76 -28.5zM711 -9q-49 0 -77.5 28.5t-28.5 81.5v103q0 53 28.5 82t77.5 29q48 0 76 -29t28 -82v-103q0 -53 -28 -81.5t-76 -28.5zM453 56q32 0 32 43v107q0 43 -32 43q-33 0 -33 -43v-107q0 -43 33 -43zM711 56
q31 0 31 43v107q0 43 -31 43q-33 0 -33 -43v-107q0 -43 33 -43z" />
    <glyph glyph-name="guilsinglleft" unicode="&#x2039;" horiz-adv-x="297" 
d="M147 86l-113 151v40l113 151h116l-127 -171l127 -171h-116z" />
    <glyph glyph-name="guilsinglright" unicode="&#x203a;" horiz-adv-x="297" 
d="M149 86h-115l127 171l-127 171h115l114 -151v-40z" />
    <glyph glyph-name="fraction" unicode="&#x2044;" horiz-adv-x="568" 
d="M9 0l458 700h92l-458 -700h-92z" />
    <glyph glyph-name="Euro" unicode="&#x20ac;" horiz-adv-x="562" 
d="M416 208h123q-4 -106 -60.5 -163t-158.5 -57q-99 0 -154.5 57.5t-55.5 164.5v50h-80v68h80v50h-80v69h80v43q0 108 55.5 166t153.5 58q100 0 156 -57.5t61 -164.5h-123q-4 54 -26.5 78.5t-67.5 24.5q-82 0 -82 -105v-43h127v-69h-127v-50h127v-68h-127v-50
q0 -103 83 -103q46 0 69 24.5t27 76.5z" />
    <glyph glyph-name="trademark" unicode="&#x2122;" horiz-adv-x="474" 
d="M20 646v54h166v-54h-54v-218h-57v218h-55zM385 700h63v-272h-56v46q0 65 5 130l-4 1q-19 -60 -21 -68l-14 -43h-53l-14 43q-10 37 -22 68l-3 -1q5 -65 5 -130v-46h-56v272h62l21 -49q26 -67 33 -104q8 34 34 104z" />
    <glyph glyph-name="partialdiff" unicode="&#x2202;" horiz-adv-x="464" 
d="M185 738q105 -31 171 -118.5t67 -241.5v-184q0 -98 -50.5 -152t-140.5 -54t-140 54t-50 152v107q0 98 47.5 151.5t131.5 53.5q40 0 72 -19q-35 118 -150 158zM303 194v107q0 90 -71 90q-70 0 -70 -90v-107q0 -91 70 -91q71 0 71 91z" />
    <glyph glyph-name="emptyset" unicode="&#x2205;" horiz-adv-x="791" 
d="M748 733l-93 -124q93 -99 93 -259q0 -163 -97 -262t-256 -99q-97 0 -175 39l-46 -61h-130l92 123q-94 99 -94 260q0 163 97 262t256 99q99 0 177 -40l46 62h130zM144 350q0 -105 56 -175l310 414q-54 24 -115 24q-113 0 -182 -72t-69 -191zM645 350q0 105 -54 174
l-309 -413q50 -24 113 -24q112 0 181 72.5t69 190.5z" />
    <glyph glyph-name="product" unicode="&#x220f;" horiz-adv-x="517" 
d="M66 -100v800h386v-800h-121v683h-144v-683h-121z" />
    <glyph glyph-name="summation" unicode="&#x2211;" horiz-adv-x="381" 
d="M32 -4v98l148 256l-148 256v98h317v-110h-184l115 -208v-72l-115 -208h184v-110h-317z" />
    <glyph glyph-name="minus" unicode="&#x2212;" horiz-adv-x="471" 
d="M41 256v108h389v-108h-389z" />
    <glyph glyph-name="radical" unicode="&#x221a;" horiz-adv-x="505" 
d="M180 0l-85 395h-85v105h180l70 -395l118 685h115l-152 -790h-161z" />
    <glyph glyph-name="infinity" unicode="&#x221e;" horiz-adv-x="624" 
d="M437 414q62 0 104 -45t42 -117t-41 -116t-103 -44q-79 0 -127 70q-48 -70 -127 -70q-62 0 -102.5 44t-40.5 116t41.5 117t103.5 45q74 0 125 -63q51 63 125 63zM195 195q35 0 58 59q-23 57 -58 57q-21 0 -34.5 -15t-13.5 -43t13.5 -43t34.5 -15zM430 195q21 0 34.5 15
t13.5 43t-13.5 43t-34.5 15q-35 0 -59 -57q12 -30 25.5 -44.5t33.5 -14.5z" />
    <glyph glyph-name="integral" unicode="&#x222b;" horiz-adv-x="337" 
d="M28 -191v113q81 1 81 73v515q0 96 51.5 148.5t148.5 52.5v-113q-81 0 -81 -73v-515q0 -95 -51.5 -147.5t-148.5 -53.5z" />
    <glyph glyph-name="approxequal" unicode="&#x2248;" horiz-adv-x="475" 
d="M335 317q-37 0 -97.5 19t-86.5 19q-35 0 -58 -28l-57 81q43 51 104 51q37 0 98 -19.5t87 -19.5q33 0 58 29l57 -80q-42 -52 -105 -52zM335 141q-37 0 -97.5 19t-86.5 19q-34 0 -58 -29l-57 81q42 51 104 51q37 0 98 -19t87 -19q33 0 58 29l57 -80q-42 -52 -105 -52z" />
    <glyph glyph-name="notequal" unicode="&#x2260;" horiz-adv-x="475" 
d="M432 347h-129l-31 -71h160v-109h-207l-29 -66h-101l29 66h-80v109h127l31 71h-158v109h206l29 67h101l-29 -67h81v-109z" />
    <glyph glyph-name="lessequal" unicode="&#x2264;" horiz-adv-x="441" 
d="M400 576v-110l-238 -84l238 -84v-110l-359 137v114zM41 58v103h359v-103h-359z" />
    <glyph glyph-name="greaterequal" unicode="&#x2265;" horiz-adv-x="441" 
d="M41 576l359 -137v-114l-359 -137v110l238 84l-238 84v110zM41 58v103h359v-103h-359z" />
    <glyph glyph-name="lozenge" unicode="&#x25ca;" horiz-adv-x="474" 
d="M174 0l-132 334v34l132 332h127l131 -332v-34l-131 -334h-127zM237 121l84 230l-84 228l-84 -228z" />
    <glyph glyph-name="i.loclTRK" horiz-adv-x="226" 
d="M113 611q-30 0 -49 19.5t-19 49.5t19 49.5t49 19.5q29 0 49 -19.5t20 -49.5q0 -28 -20 -48.5t-49 -20.5zM54 0v529h118v-529h-118z" />
    <glyph glyph-name="uni0414.loclBGR" horiz-adv-x="540" 
d="M1 -118v233h58l146 585h130l145 -585h59v-233h-122v118h-295v-118h-121zM182 115h175l-53 236q-18 88 -32 198h-4q-14 -109 -32 -198z" />
    <glyph glyph-name="uni041B.loclBGR" horiz-adv-x="479" 
d="M174 700h131l169 -700h-128l-73 356q-9 48 -32 191h-4q-16 -116 -31 -191l-73 -356h-128z" />
    <glyph glyph-name="uni0432.loclBGR" horiz-adv-x="456" 
d="M322 396q104 -48 104 -187q0 -103 -54.5 -162t-147.5 -59q-86 0 -132.5 54.5t-46.5 157.5v336q0 94 48.5 147.5t130.5 53.5q83 0 129 -49.5t46 -135.5q0 -107 -77 -156zM223 623q-29 0 -45.5 -22.5t-16.5 -64.5v-114l35 4q87 9 87 113q0 84 -60 84zM225 101q83 0 83 108
q0 115 -95 109l-52 -4v-127q0 -86 64 -86z" />
    <glyph glyph-name="uni0433.loclBGR" horiz-adv-x="424" 
d="M206 -14q-85 0 -134 44t-49 117q0 51 26 86.5t62.5 53t73.5 31t63 31t26 42.5q0 44 -57 44q-62 0 -67 -65h-114q5 78 50 125t131 47q80 0 127.5 -40.5t47.5 -111.5q0 -51 -26 -86t-62.5 -52.5t-73 -31t-62.5 -31t-26 -42.5q0 -50 67 -50q73 0 76 69h118
q-2 -77 -53.5 -128.5t-143.5 -51.5z" />
    <glyph glyph-name="uni0434.loclBGR" horiz-adv-x="474" 
d="M337 529h83v-551q0 -78 -48.5 -125t-133.5 -47q-83 0 -131 46.5t-50 124.5h116q6 -61 65 -61q29 0 45.5 16.5t16.5 45.5v73q-40 -27 -89 -27q-74 0 -121.5 54.5t-47.5 141.5v122q0 89 47.5 144.5t121.5 55.5q72 0 118 -49zM230 136q70 0 70 84v124q0 41 -18.5 62.5
t-51.5 21.5q-69 0 -69 -86v-122q0 -84 69 -84z" />
    <glyph glyph-name="uni0436.loclBGR" horiz-adv-x="650" 
d="M524 0l-115 218l-28 -29v-189h-112v189l-28 29l-115 -218h-131l171 309l-149 220h133l86 -143l33 -62v400h112v-400l33 61l86 144h134l-150 -221l171 -308h-131z" />
    <glyph glyph-name="uni0437.loclBGR" horiz-adv-x="455" 
d="M319 191q102 -41 102 -174q0 -99 -54.5 -154.5t-151.5 -55.5q-91 0 -142.5 52t-54.5 148h113q4 -88 87 -88q84 0 84 104q0 52 -24.5 80.5t-69.5 28.5h-59v105h48q43 0 66 27t23 79q0 43 -19 66.5t-53 23.5q-66 0 -75 -84h-113q4 92 55 142.5t137 50.5t134.5 -50.5
t48.5 -141.5q0 -57 -17.5 -95t-64.5 -64z" />
    <glyph glyph-name="uni0438.loclBGR" horiz-adv-x="473" 
d="M301 529h118v-529h-80l-10 57q-42 -70 -128 -70q-73 0 -112.5 54t-39.5 160v328h118v-325q0 -104 62 -104q34 0 53 25.5t19 72.5v331z" />
    <glyph glyph-name="uni0439.loclBGR" horiz-adv-x="473" 
d="M231 611q-54 0 -89 32.5t-37 89.5h79q1 -22 13.5 -34.5t32.5 -12.5q19 0 32 12.5t14 34.5h78q-2 -58 -36 -90t-87 -32zM301 529h118v-529h-80l-10 57q-42 -70 -128 -70q-73 0 -112.5 54t-39.5 160v328h118v-325q0 -104 62 -104q34 0 53 25.5t19 72.5v331z" />
    <glyph glyph-name="uni045D.loclBGR" horiz-adv-x="478" 
d="M274 609h-85l-92 132h103zM307 529h117v-529h-80l-10 57q-42 -70 -127 -70q-73 0 -113 54t-40 160v328h119v-325q0 -55 15 -79.5t47 -24.5q34 0 53 25.5t19 72.5v331z" />
    <glyph glyph-name="uni043A.loclBGR" horiz-adv-x="449" 
d="M321 0l-119 226l-31 -33v-193h-117v725h117v-381l122 185h137l-150 -211l174 -318h-133z" />
    <glyph glyph-name="uni043B.loclBGR" horiz-adv-x="422" 
d="M145 529h132l143 -529h-125l-44 199q-8 39 -37 191h-6q-15 -92 -37 -191l-44 -199h-125z" />
    <glyph glyph-name="uni043F.loclBGR" horiz-adv-x="473" 
d="M272 542q73 0 112.5 -54t39.5 -160v-328h-118v325q0 104 -62 104q-34 0 -53 -25.5t-19 -72.5v-331h-118v529h80l10 -57q42 70 128 70z" />
    <glyph glyph-name="uni0442.loclBGR" horiz-adv-x="712" 
d="M515 542q70 0 109 -54.5t39 -160.5v-327h-117v326q0 103 -59 103q-32 0 -51 -25.5t-19 -72.5v-331h-117v326q0 55 -15 79t-45 24q-32 0 -50.5 -25.5t-18.5 -72.5v-331h-117v529h79l10 -56q41 69 125 69q82 0 120 -71q42 71 127 71z" />
    <glyph glyph-name="uni0446.loclBGR" horiz-adv-x="494" 
d="M367 -118v118q-14 5 -26 22t-15 36q-39 -71 -125 -71q-73 0 -112.5 54t-39.5 160v328h118v-326q0 -55 15 -79t46 -24q34 0 53.5 25.5t19.5 72.5v331h117v-364q0 -34 13 -50.5t48 -16.5v-216h-112z" />
    <glyph glyph-name="uni0448.loclBGR" horiz-adv-x="712" 
d="M541 529h117v-529h-79l-10 56q-41 -69 -125 -69q-82 0 -120 71q-42 -71 -127 -71q-70 0 -109 54.5t-39 160.5v327h117v-326q0 -103 59 -103q32 0 51 25.5t19 72.5v331h117v-326q0 -55 15 -79t45 -24q32 0 50.5 25.5t18.5 72.5v331z" />
    <glyph glyph-name="uni0449.loclBGR" horiz-adv-x="736" 
d="M609 -118v118q-14 5 -26 22t-15 37q-37 -72 -122 -72q-84 0 -121 73q-41 -73 -128 -73q-70 0 -109 54.5t-39 160.5v327h117v-326q0 -55 14.5 -79t43.5 -24q34 0 53 25.5t19 72.5v331h117v-326q0 -55 15 -79t45 -24q33 0 51.5 25.5t18.5 72.5v331h117v-364q0 -34 13 -50.5
t49 -16.5v-216h-113z" />
    <glyph glyph-name="uni044C.loclBGR" horiz-adv-x="432" 
d="M252 371q76 0 122.5 -51t46.5 -136q0 -90 -52 -144t-136 -54q-86 0 -135 48.5t-49 133.5v361h117v-190q37 32 86 32zM233 97q68 0 68 87q0 78 -67 78q-33 0 -50.5 -20.5t-17.5 -58.5q0 -86 67 -86z" />
    <glyph glyph-name="uni044A.loclBGR" horiz-adv-x="492" 
d="M311 371q77 0 123.5 -51t46.5 -136q0 -90 -52 -144t-136 -54q-86 0 -135.5 48.5t-49.5 133.5v252h-105v109h222v-191q36 33 86 33zM293 97q68 0 68 87q0 78 -68 78q-32 0 -50 -21t-18 -58q0 -86 68 -86z" />
    <glyph glyph-name="uni044E.loclBGR" horiz-adv-x="643" 
d="M415 540q88 0 137 -53.5t49 -151.5v-141q0 -98 -49 -152t-137 -54t-137 54t-49 152v20h-67v-214h-113v724h113v-402h67v13q0 98 49 151.5t137 53.5zM483 194v141q0 91 -68 91q-69 0 -69 -91v-141q0 -91 69 -91q68 0 68 91z" />
    <glyph glyph-name="uni0432.ss01" horiz-adv-x="456" 
d="M322 396q104 -48 104 -187q0 -103 -54.5 -162t-147.5 -59q-86 0 -132.5 54.5t-46.5 157.5v336q0 94 48.5 147.5t130.5 53.5q83 0 129 -49.5t46 -135.5q0 -107 -77 -156zM223 623q-29 0 -45.5 -22.5t-16.5 -64.5v-114l35 4q87 9 87 113q0 84 -60 84zM225 101q83 0 83 108
q0 115 -95 109l-52 -4v-127q0 -86 64 -86z" />
    <glyph glyph-name="uni0433.ss01" horiz-adv-x="424" 
d="M206 -14q-85 0 -134 44t-49 117q0 51 26 86.5t62.5 53t73.5 31t63 31t26 42.5q0 44 -57 44q-62 0 -67 -65h-114q5 78 50 125t131 47q80 0 127.5 -40.5t47.5 -111.5q0 -51 -26 -86t-62.5 -52.5t-73 -31t-62.5 -31t-26 -42.5q0 -50 67 -50q73 0 76 69h118
q-2 -77 -53.5 -128.5t-143.5 -51.5z" />
    <glyph glyph-name="uni0434.ss01" horiz-adv-x="474" 
d="M337 529h83v-551q0 -78 -48.5 -125t-133.5 -47q-83 0 -131 46.5t-50 124.5h116q6 -61 65 -61q29 0 45.5 16.5t16.5 45.5v73q-40 -27 -89 -27q-74 0 -121.5 54.5t-47.5 141.5v122q0 89 47.5 144.5t121.5 55.5q72 0 118 -49zM230 136q70 0 70 84v124q0 41 -18.5 62.5
t-51.5 21.5q-69 0 -69 -86v-122q0 -84 69 -84z" />
    <glyph glyph-name="uni0436.ss01" horiz-adv-x="650" 
d="M524 0l-115 218l-28 -29v-189h-112v189l-28 29l-115 -218h-131l171 309l-149 220h133l86 -143l33 -62v400h112v-400l33 61l86 144h134l-150 -221l171 -308h-131z" />
    <glyph glyph-name="uni0437.ss01" horiz-adv-x="455" 
d="M319 191q102 -41 102 -174q0 -99 -54.5 -154.5t-151.5 -55.5q-91 0 -142.5 52t-54.5 148h113q4 -88 87 -88q84 0 84 104q0 52 -24.5 80.5t-69.5 28.5h-59v105h48q43 0 66 27t23 79q0 43 -19 66.5t-53 23.5q-66 0 -75 -84h-113q4 92 55 142.5t137 50.5t134.5 -50.5
t48.5 -141.5q0 -57 -17.5 -95t-64.5 -64z" />
    <glyph glyph-name="uni0438.ss01" horiz-adv-x="473" 
d="M301 529h118v-529h-80l-10 57q-42 -70 -128 -70q-73 0 -112.5 54t-39.5 160v328h118v-325q0 -104 62 -104q34 0 53 25.5t19 72.5v331z" />
    <glyph glyph-name="uni0439.ss01" horiz-adv-x="473" 
d="M231 611q-54 0 -89 32.5t-37 89.5h79q1 -22 13.5 -34.5t32.5 -12.5q19 0 32 12.5t14 34.5h78q-2 -58 -36 -90t-87 -32zM301 529h118v-529h-80l-10 57q-42 -70 -128 -70q-73 0 -112.5 54t-39.5 160v328h118v-325q0 -104 62 -104q34 0 53 25.5t19 72.5v331z" />
    <glyph glyph-name="uni045D.ss01" horiz-adv-x="478" 
d="M274 609h-85l-92 132h103zM307 529h117v-529h-80l-10 57q-42 -70 -127 -70q-73 0 -113 54t-40 160v328h119v-325q0 -55 15 -79.5t47 -24.5q34 0 53 25.5t19 72.5v331z" />
    <glyph glyph-name="uni043A.ss01" horiz-adv-x="449" 
d="M321 0l-119 226l-31 -33v-193h-117v725h117v-381l122 185h137l-150 -211l174 -318h-133z" />
    <glyph glyph-name="uni043B.ss01" horiz-adv-x="422" 
d="M145 529h132l143 -529h-125l-44 199q-8 39 -37 191h-6q-15 -92 -37 -191l-44 -199h-125z" />
    <glyph glyph-name="uni043F.ss01" horiz-adv-x="473" 
d="M272 542q73 0 112.5 -54t39.5 -160v-328h-118v325q0 104 -62 104q-34 0 -53 -25.5t-19 -72.5v-331h-118v529h80l10 -57q42 70 128 70z" />
    <glyph glyph-name="uni0442.ss01" horiz-adv-x="712" 
d="M515 542q70 0 109 -54.5t39 -160.5v-327h-117v326q0 103 -59 103q-32 0 -51 -25.5t-19 -72.5v-331h-117v326q0 55 -15 79t-45 24q-32 0 -50.5 -25.5t-18.5 -72.5v-331h-117v529h79l10 -56q41 69 125 69q82 0 120 -71q42 71 127 71z" />
    <glyph glyph-name="uni0446.ss01" horiz-adv-x="494" 
d="M367 -118v118q-14 5 -26 22t-15 36q-39 -71 -125 -71q-73 0 -112.5 54t-39.5 160v328h118v-326q0 -55 15 -79t46 -24q34 0 53.5 25.5t19.5 72.5v331h117v-364q0 -34 13 -50.5t48 -16.5v-216h-112z" />
    <glyph glyph-name="uni0448.ss01" horiz-adv-x="712" 
d="M541 529h117v-529h-79l-10 56q-41 -69 -125 -69q-82 0 -120 71q-42 -71 -127 -71q-70 0 -109 54.5t-39 160.5v327h117v-326q0 -103 59 -103q32 0 51 25.5t19 72.5v331h117v-326q0 -55 15 -79t45 -24q32 0 50.5 25.5t18.5 72.5v331z" />
    <glyph glyph-name="uni0449.ss01" horiz-adv-x="736" 
d="M609 -118v118q-14 5 -26 22t-15 37q-37 -72 -122 -72q-84 0 -121 73q-41 -73 -128 -73q-70 0 -109 54.5t-39 160.5v327h117v-326q0 -55 14.5 -79t43.5 -24q34 0 53 25.5t19 72.5v331h117v-326q0 -55 15 -79t45 -24q33 0 51.5 25.5t18.5 72.5v331h117v-364q0 -34 13 -50.5
t49 -16.5v-216h-113z" />
    <glyph glyph-name="uni044C.ss01" horiz-adv-x="432" 
d="M252 371q76 0 122.5 -51t46.5 -136q0 -90 -52 -144t-136 -54q-86 0 -135 48.5t-49 133.5v361h117v-190q37 32 86 32zM233 97q68 0 68 87q0 78 -67 78q-33 0 -50.5 -20.5t-17.5 -58.5q0 -86 67 -86z" />
    <glyph glyph-name="uni044A.ss01" horiz-adv-x="492" 
d="M311 371q77 0 123.5 -51t46.5 -136q0 -90 -52 -144t-136 -54q-86 0 -135.5 48.5t-49.5 133.5v252h-105v109h222v-191q36 33 86 33zM293 97q68 0 68 87q0 78 -68 78q-32 0 -50 -21t-18 -58q0 -86 68 -86z" />
    <glyph glyph-name="uni044E.ss01" horiz-adv-x="643" 
d="M415 540q88 0 137 -53.5t49 -151.5v-141q0 -98 -49 -152t-137 -54t-137 54t-49 152v20h-67v-214h-113v724h113v-402h67v13q0 98 49 151.5t137 53.5zM483 194v141q0 91 -68 91q-69 0 -69 -91v-141q0 -91 69 -91q68 0 68 91z" />
    <glyph glyph-name="zero.lf" horiz-adv-x="480" 
d="M239 -10q-90 0 -141.5 54.5t-51.5 149.5v310q0 96 51.5 151t141.5 55q91 0 143 -55t52 -151v-310q0 -95 -52 -149.5t-143 -54.5zM239 99q80 0 80 94v310q0 96 -80 96q-79 0 -79 -96v-310q0 -94 79 -94z" />
    <glyph glyph-name="one.lf" horiz-adv-x="307" 
d="M162 700h79v-700h-117v541l-100 -63v130z" />
    <glyph glyph-name="two.lf" horiz-adv-x="430" 
d="M25 0v76q0 63 26.5 120.5t64 100.5t74.5 81t63.5 77.5t26.5 74.5q0 30 -17 50.5t-50 20.5q-32 0 -50.5 -22t-19.5 -62h-112q4 94 51.5 144.5t129.5 50.5q88 0 136.5 -52.5t48.5 -124.5q0 -51 -25.5 -101.5t-62.5 -91.5l-73.5 -79.5t-62 -78.5t-25.5 -75h253v-109h-376z
" />
    <glyph glyph-name="three.lf" horiz-adv-x="429" 
d="M254 426q64 -6 100.5 -56.5t36.5 -120.5v-45q0 -216 -189 -216q-88 0 -137 52.5t-52 150.5h116q3 -46 20.5 -67t51.5 -21q39 0 55.5 24.5t16.5 78.5v39q0 52 -20.5 72.5t-62.5 20.5h-65v79l107 176h-195v107h338v-78z" />
    <glyph glyph-name="four.lf" horiz-adv-x="447" 
d="M445 273v-107h-75v-166h-115v166h-248v63l136 471h117l-125 -427h122l16 221h97v-221h75z" />
    <glyph glyph-name="five.lf" horiz-adv-x="446" 
d="M252 480q70 0 113.5 -51.5t43.5 -144.5v-86q0 -100 -49 -155t-134 -55q-82 0 -131 52.5t-51 143.5h117q2 -43 18 -62t47 -19q32 0 48 22t16 76v75q0 50 -15 71t-45 21q-52 0 -65 -61h-111v393h332v-105h-219v-139q37 24 85 24z" />
    <glyph glyph-name="six.lf" horiz-adv-x="455" 
d="M254 458q75 0 123.5 -49.5t48.5 -126.5v-105q0 -85 -53 -137t-138 -52q-84 0 -136.5 52t-52.5 137v347q0 85 52 136.5t136 51.5q82 0 133.5 -50.5t54.5 -135.5h-116q-8 71 -73 71q-33 0 -52 -19t-19 -54v-100q36 34 92 34zM309 178v96q0 36 -20.5 56t-53.5 20
q-34 0 -53.5 -20t-19.5 -56v-96q0 -36 20 -55.5t53 -19.5q34 0 54 20t20 55z" />
    <glyph glyph-name="seven.lf" horiz-adv-x="379" 
d="M52 0l177 592h-233v108h366v-85l-188 -615h-122z" />
    <glyph glyph-name="eight.lf" horiz-adv-x="465" 
d="M355 367q72 -50 72 -148v-28q0 -94 -52.5 -148.5t-141.5 -54.5t-141.5 54t-52.5 149v28q0 46 19 85t52 62q-59 54 -59 138v18q0 86 49.5 138t132.5 52t132.5 -52t49.5 -138v-18q0 -82 -60 -137zM166 518v-18q0 -84 67 -84q66 0 66 84v18q0 80 -66 80q-67 0 -67 -80z
M309 191v27q0 88 -76 88q-77 0 -77 -88v-27q0 -87 77 -87q76 0 76 87z" />
    <glyph glyph-name="nine.lf" horiz-adv-x="455" 
d="M219 712q84 0 137 -52t53 -137v-347q0 -85 -52 -136.5t-136 -51.5q-82 0 -133.5 50.5t-54.5 135.5h116q8 -71 72 -71q34 0 53 19t19 54v100q-36 -34 -92 -34q-75 0 -123.5 49.5t-48.5 126.5v105q0 85 53 137t137 52zM220 350q33 0 53 20t20 56v96q0 36 -20 55.5t-54 19.5
q-33 0 -53 -20t-20 -55v-96q0 -36 20 -56t54 -20z" />
    <glyph glyph-name="zero.lf.zero" horiz-adv-x="480" 
d="M239 710q91 0 143 -55t52 -151v-310q0 -95 -52 -149.5t-143 -54.5q-90 0 -141.5 54.5t-51.5 149.5v310q0 96 51.5 151t141.5 55zM239 599q-79 0 -79 -96v-204l159 212q-3 88 -80 88zM239 99q80 0 80 94v206l-159 -213q3 -87 79 -87z" />
    <glyph glyph-name="zero.tf" horiz-adv-x="458" 
d="M230 -10q-90 0 -142 53.5t-52 147.5v316q0 94 52 148.5t142 54.5t142 -54.5t52 -148.5v-316q0 -94 -52 -147.5t-142 -53.5zM230 100q79 0 79 94v310q0 96 -79 96t-79 -96v-310q0 -94 79 -94z" />
    <glyph glyph-name="one.tf" horiz-adv-x="458" 
d="M297 109h106v-109h-332v109h109v432l-101 -63v130l139 92h79v-591z" />
    <glyph glyph-name="two.tf" horiz-adv-x="458" 
d="M45 0v76q0 63 26.5 120.5t63.5 100.5t74.5 81t64 77.5t26.5 74.5q0 30 -17.5 50.5t-49.5 20.5t-50.5 -22t-19.5 -62h-112q4 94 51.5 144.5t128.5 50.5q89 0 137.5 -52.5t48.5 -124.5q0 -51 -25.5 -101.5t-62.5 -91.5l-73.5 -79.5t-62 -78.5t-25.5 -75h253v-109h-376z" />
    <glyph glyph-name="three.tf" horiz-adv-x="458" 
d="M270 426q66 -7 103 -57t37 -120v-45q0 -216 -192 -216q-88 0 -137 52.5t-52 150.5h116q3 -46 20.5 -67t51.5 -21q41 0 58.5 24.5t17.5 78.5v39q0 52 -21.5 72.5t-65.5 20.5h-65v79l111 176h-199v107h342v-78z" />
    <glyph glyph-name="four.tf" horiz-adv-x="458" 
d="M449 273v-107h-69v-166h-114v166h-248v63l136 471h116l-125 -427h123l15 221h97v-221h69z" />
    <glyph glyph-name="five.tf" horiz-adv-x="458" 
d="M259 480q70 0 113.5 -51.5t43.5 -144.5v-86q0 -101 -49.5 -155.5t-134.5 -54.5q-82 0 -130.5 52.5t-50.5 143.5h117q2 -43 17.5 -62t46.5 -19q32 0 48 22t16 76v75q0 50 -14.5 71t-44.5 21q-52 0 -65 -61h-112v393h333v-105h-219v-139q37 24 85 24z" />
    <glyph glyph-name="six.tf" horiz-adv-x="458" 
d="M250 458q74 0 122.5 -49.5t48.5 -126.5v-105q0 -85 -53 -137t-137 -52t-137 52t-53 137v347q0 85 52.5 136.5t136.5 51.5q82 0 133 -50.5t54 -135.5h-115q-8 71 -73 71q-33 0 -52 -19t-19 -54v-99q37 33 92 33zM305 178v96q0 36 -20.5 56t-54.5 20q-33 0 -52.5 -20
t-19.5 -56v-96q0 -36 20 -55.5t53 -19.5q34 0 54 20t20 55z" />
    <glyph glyph-name="seven.tf" horiz-adv-x="458" 
d="M95 0l190 592h-246v108h374v-85l-195 -615h-123z" />
    <glyph glyph-name="eight.tf" horiz-adv-x="458" 
d="M347 367q37 -23 58 -62.5t21 -85.5v-28q0 -95 -53 -149t-143 -54t-143 54t-53 149v28q0 46 21 85t57 62q-66 55 -66 138v18q0 86 50 138t134 52t134 -52t50 -138v-18q0 -81 -67 -137zM161 518v-18q0 -84 69 -84t69 84v18q0 80 -69 80t-69 -80zM309 191v27q0 88 -79 88
t-79 -88v-27q0 -87 79 -87t79 87z" />
    <glyph glyph-name="nine.tf" horiz-adv-x="458" 
d="M227 717q84 0 136.5 -52t52.5 -137v-347q0 -85 -52 -136.5t-136 -51.5q-82 0 -133.5 50.5t-54.5 135.5h116q8 -71 73 -71q33 0 52 19t19 54v100q-36 -34 -92 -34q-75 0 -123.5 49.5t-48.5 126.5v105q0 85 53 137t138 52zM227 355q34 0 53.5 20t19.5 56v96q0 35 -20 55
t-53 20q-34 0 -54 -20t-20 -55v-96q0 -35 20.5 -55.5t53.5 -20.5z" />
    <glyph glyph-name="zero.tf.zero" horiz-adv-x="458" 
d="M230 710q90 0 142 -54.5t52 -148.5v-316q0 -94 -52 -147.5t-142 -53.5t-142 53.5t-52 147.5v316q0 94 52 148.5t142 54.5zM230 600q-79 0 -79 -96v-204l158 212q-3 88 -79 88zM230 100q79 0 79 94v206l-158 -212q3 -88 79 -88z" />
    <glyph glyph-name="zero.zero" horiz-adv-x="478" 
d="M239 710q91 0 143 -55t52 -151v-310q0 -95 -52 -149.5t-143 -54.5q-90 0 -141.5 54.5t-51.5 149.5v310q0 96 51.5 151t141.5 55zM239 599q-79 0 -79 -96v-204l159 212q-3 88 -80 88zM239 99q80 0 80 94v206l-159 -213q3 -87 79 -87z" />
    <glyph glyph-name="hyphen.case" horiz-adv-x="315" 
d="M34 306v102h247v-102h-247z" />
    <glyph glyph-name="endash.case" horiz-adv-x="415" 
d="M34 306v102h347v-102h-347z" />
    <glyph glyph-name="emdash.case" horiz-adv-x="550" 
d="M34 306v102h483v-102h-483z" />
    <glyph glyph-name="guillemotleft.case" horiz-adv-x="488" 
d="M147 146l-113 151v40l113 151h116l-127 -171l127 -171h-116zM339 146l-114 151v40l114 151h115l-127 -171l127 -171h-115z" />
    <glyph glyph-name="guillemotright.case" horiz-adv-x="488" 
d="M149 146h-115l127 171l-127 171h115l114 -151v-40zM341 146h-116l127 171l-127 171h116l113 -151v-40z" />
    <glyph glyph-name="guilsinglleft.case" horiz-adv-x="297" 
d="M147 146l-113 151v40l113 151h116l-127 -171l127 -171h-116z" />
    <glyph glyph-name="guilsinglright.case" horiz-adv-x="297" 
d="M149 146h-115l127 171l-127 171h115l114 -151v-40z" />
    <glyph glyph-name="uni0308.case" 
d="M-209 778q-25 0 -40.5 15t-15.5 41t15.5 41t40.5 15t40 -15.5t15 -40.5t-15 -40.5t-40 -15.5zM-55 778q-25 0 -40.5 15t-15.5 41t15.5 41t40.5 15t40.5 -15t15.5 -41t-15.5 -41t-40.5 -15z" />
    <glyph glyph-name="uni0307.case" 
d="M-68 770q-30 0 -49 19.5t-19 48.5q0 30 19 49.5t49 19.5q29 0 49 -19.5t20 -49.5q0 -28 -20 -48t-49 -20z" />
    <glyph glyph-name="gravecomb.case" 
d="M-14 767h-85l-111 132h103z" />
    <glyph glyph-name="acutecomb.case" 
d="M-197 767l94 132h103l-111 -132h-86z" />
    <glyph glyph-name="uni030B.case" 
d="M-306 768l75 132h93l-90 -132h-78zM-169 768l80 132h94l-96 -132h-78z" />
    <glyph glyph-name="uni0302.case" 
d="M2 767h-81l-46 69l-47 -69h-81l81 132h93z" />
    <glyph glyph-name="uni030C.case" 
d="M-80 899h81l-81 -132h-93l-81 132h81l47 -69z" />
    <glyph glyph-name="uni0306.case" 
d="M-118 769q-54 0 -89 32.5t-37 89.5h79q1 -22 13.5 -34.5t32.5 -12.5q19 0 32 12.5t14 34.5h78q-2 -58 -36 -90t-87 -32z" />
    <glyph glyph-name="uni030A.case" 
d="M-81 763q-39 0 -62.5 23.5t-23.5 61.5q0 37 23.5 60t62.5 23t63.5 -23t24.5 -60q0 -38 -24.5 -61.5t-63.5 -23.5zM-81 815q33 0 33 32q0 15 -9 24t-24 9q-14 0 -23 -9t-9 -24t9 -23.5t23 -8.5z" />
    <glyph glyph-name="tildecomb.case" 
d="M-72 784q-23 0 -45.5 14.5t-32.5 14.5q-22 0 -25 -26h-72q3 48 26.5 74t59.5 26q23 0 46 -14.5t32 -14.5q23 0 26 26h71q-3 -46 -26 -73t-60 -27z" />
    <glyph glyph-name="uni0304.case" 
d="M-205 791v79h211v-79h-211z" />
    <glyph glyph-name="uni0312.case" 
d="M-108 780l-17 206h74l56 -206h-113z" />
    <glyph glyph-name="uni0326.case" 
d="M-122 -273l16 202h102l-47 -202h-71z" />
    <glyph glyph-name="uni0327.case" 
d="M-102 -203q-41 0 -71 23t-34 60h65q13 -24 41 -24q17 0 26.5 8.5t9.5 21.5q0 27 -35 27q-18 0 -32 -6l-20 19l21 74h65l-14 -48q3 1 11 1q32 0 52.5 -19t20.5 -50q0 -40 -29 -63.5t-77 -23.5z" />
    <glyph glyph-name="uni0328.case" 
d="M-79 -194q-46 0 -71.5 23.5t-25.5 61.5q0 59 60 109h101q-24 -16 -38.5 -38t-14.5 -38q0 -27 33 -27q20 0 29 3v-82q-26 -12 -73 -12z" />
    <glyph glyph-name="uni0337.case" 
d="M-291 -43l157 596h128l-157 -596h-128z" />
    <glyph glyph-name="uni0338.case" 
d="M-532 -39l211 778h125l-211 -778h-125z" />
    <glyph glyph-name="brevecombcy" 
d="M-119 611q-54 0 -89 32.5t-37 89.5h79q1 -22 13.5 -34.5t32.5 -12.5q19 0 32 12.5t14 34.5h78q-2 -58 -36 -90t-87 -32z" />
    <glyph glyph-name="brevecombcy.case" 
d="M-118 769q-54 0 -89 32.5t-37 89.5h79q1 -22 13.5 -34.5t32.5 -12.5q19 0 32 12.5t14 34.5h78q-2 -58 -36 -90t-87 -32z" />
    </font>
</defs>
</svg>
