<?xml version="1.0" standalone="no"?>
<!DOCTYPE svg PUBLIC "-//W3C//DTD SVG 1.1//EN" "http://www.w3.org/Graphics/SVG/1.1/DTD/svg11.dtd" >
<svg>
<metadata>
Created by FontForge 20090622 at Tue Apr  9 10:53:27 2019
 By deploy user
Copyright (c) 2016 by Fontfabric LLC. All rights reserved.
</metadata>
<defs>
<font id="Akrobat-Black" horiz-adv-x="0" >
  <font-face 
    font-family="Akrobat Black"
    font-weight="900"
    font-stretch="normal"
    units-per-em="1000"
    panose-1="0 0 10 0 0 0 0 0 0 0"
    ascent="800"
    descent="-200"
    x-height="530"
    cap-height="700"
    bbox="-579 -281 819 999"
    underline-thickness="50"
    underline-position="-50"
    unicode-range="U+0020-U+25CA"
  />
<missing-glyph horiz-adv-x="500" 
d="M410 800v-1000h-317v1000h317zM333 733h-165v-33h65v-37h-66v-33h166v33h-66v37h66v33zM267 604h-100v-104h166v34h-66v70zM233 570v-36h-33v36h33zM333 473h-166v-33h66v-37h-66v-33h100v70h66v33zM333 413h-33v-66h-133v-34h166v100zM333 291h-100v-56h34v23h33v-47
h-100v80h-33v-113h166v113zM333 118h-166v-113h166v113zM300 85v-47h-100v47h100zM333 -18h-166v-33h70l-70 -47v-33h166v33h-102l70 47h32v33z" />
    <glyph glyph-name=".notdef" horiz-adv-x="500" 
d="M410 800v-1000h-317v1000h317zM333 733h-165v-33h65v-37h-66v-33h166v33h-66v37h66v33zM267 604h-100v-104h166v34h-66v70zM233 570v-36h-33v36h33zM333 473h-166v-33h66v-37h-66v-33h100v70h66v33zM333 413h-33v-66h-133v-34h166v100zM333 291h-100v-56h34v23h33v-47
h-100v80h-33v-113h166v113zM333 118h-166v-113h166v113zM300 85v-47h-100v47h100zM333 -18h-166v-33h70l-70 -47v-33h166v33h-102l70 47h32v33z" />
    <glyph glyph-name=".null" 
 />
    <glyph glyph-name="nonmarkingreturn" horiz-adv-x="333" 
 />
    <glyph glyph-name="space" unicode=" " horiz-adv-x="200" 
 />
    <glyph glyph-name="exclam" unicode="!" horiz-adv-x="280" 
d="M71 192v508h137v-508h-137zM140 -12q-34 0 -54.5 20.5t-20.5 54.5t20.5 54.5t54.5 20.5t54.5 -20.5t20.5 -54.5t-20.5 -54.5t-54.5 -20.5z" />
    <glyph glyph-name="quotedbl" unicode="&#x22;" horiz-adv-x="341" 
d="M23 437l20 263h127l-68 -263h-79zM183 437l20 263h127l-68 -263h-79z" />
    <glyph glyph-name="numbersign" unicode="#" horiz-adv-x="671" 
d="M80 0l39 169h-113l22 99h113l35 153h-113l23 99h113l41 180h124l-41 -180h105l41 180h125l-41 -180h112l-23 -99h-112l-35 -153h112l-22 -99h-112l-39 -169h-125l39 169h-105l-39 -169h-124zM265 268h105l35 153h-105z" />
    <glyph glyph-name="dollar" unicode="$" horiz-adv-x="479" 
d="M456 185q0 -74 -41.5 -125.5t-116.5 -67.5v-77h-120v76q-75 15 -117 70t-42 143h146q0 -80 73 -80q34 0 52 17.5t18 44.5t-20.5 51t-50.5 42t-66 42.5t-66 50t-50.5 66.5t-20.5 91q0 68 38 115.5t106 63.5v77h120v-77q70 -16 108.5 -67.5t38.5 -132.5h-146q0 69 -62 69
q-28 0 -43.5 -14t-15.5 -38q0 -25 20.5 -48t51.5 -39.5t67 -40t67 -49.5t51.5 -68.5t20.5 -94.5z" />
    <glyph glyph-name="percent" unicode="%" horiz-adv-x="601" 
d="M111 386q-50 0 -79 28.5t-29 81.5v105q0 53 29 82t79 29t78.5 -29t28.5 -82v-105q0 -53 -28.5 -81.5t-78.5 -28.5zM14 0l482 700h90l-482 -700h-90zM111 457q15 0 21 8t6 29v109q0 21 -6 29.5t-21 8.5q-28 0 -28 -38v-109q0 -37 28 -37zM472 -9q-50 0 -79 28.5t-29 81.5
v105q0 53 29 82t79 29t78.5 -29t28.5 -82v-105q0 -53 -28.5 -81.5t-78.5 -28.5zM472 62q15 0 21 8t6 29v109q0 21 -6 29.5t-21 8.5q-28 0 -28 -38v-109q0 -37 28 -37z" />
    <glyph glyph-name="ampersand" unicode="&#x26;" horiz-adv-x="605" 
d="M565 0h-137l-30 45q-69 -59 -150 -59q-75 0 -130.5 47.5t-55.5 133.5q0 103 105 208q-67 107 -67 172q0 66 41.5 116.5t120.5 50.5q81 0 121.5 -47.5t40.5 -115.5q0 -56 -27 -102t-75 -94l77 -110q12 27 17 49h123q-20 -88 -65 -159zM262 599q-18 0 -30.5 -13.5
t-12.5 -42.5q0 -33 34 -86q50 53 50 91q0 20 -10 35.5t-31 15.5zM254 111q36 0 75 34l-91 127q-45 -50 -45 -96q0 -31 17 -48t44 -17z" />
    <glyph glyph-name="quotesingle" unicode="'" horiz-adv-x="181" 
d="M23 437l20 263h127l-68 -263h-79z" />
    <glyph glyph-name="parenleft" unicode="(" horiz-adv-x="310" 
d="M272 -124q-102 0 -156 55.5t-54 157.5v518q0 102 54 157.5t156 55.5v-127q-74 0 -74 -77v-536q0 -77 74 -77v-127z" />
    <glyph glyph-name="parenright" unicode=")" horiz-adv-x="310" 
d="M38 -124v127q74 0 74 77v536q0 77 -74 77v127q102 0 156 -55.5t54 -157.5v-518q0 -102 -54 -157.5t-156 -55.5z" />
    <glyph glyph-name="asterisk" unicode="*" horiz-adv-x="320" 
d="M117 476l-70 51l43 59l-70 23l27 82l70 -23v74h86v-74l70 23l27 -82l-70 -22l43 -60l-70 -51l-43 59z" />
    <glyph glyph-name="plus" unicode="+" horiz-adv-x="480" 
d="M440 373v-125h-137v-142h-126v142h-137v125h137v142h126v-142h137z" />
    <glyph glyph-name="comma" unicode="," horiz-adv-x="191" 
d="M22 -143l20 263h127l-68 -263h-79z" />
    <glyph glyph-name="hyphen" unicode="-" horiz-adv-x="310" 
d="M30 199v116h250v-116h-250z" />
    <glyph glyph-name="period" unicode="." horiz-adv-x="206" 
d="M103 -12q-34 0 -54.5 20.5t-20.5 54.5t20.5 54.5t54.5 20.5t54.5 -20.5t20.5 -54.5t-20.5 -54.5t-54.5 -20.5z" />
    <glyph glyph-name="slash" unicode="/" horiz-adv-x="442" 
d="M4 -123l318 940h116l-318 -940h-116z" />
    <glyph glyph-name="zero" unicode="0" horiz-adv-x="487" 
d="M243 -10q-95 0 -148 55.5t-53 155.5v296q0 100 53 156.5t148 56.5t148.5 -56.5t53.5 -156.5v-296q0 -100 -53.5 -155.5t-148.5 -55.5zM243 115q70 0 70 85v296q0 87 -70 87q-69 0 -69 -87v-296q0 -85 69 -85z" />
    <glyph glyph-name="one" unicode="1" horiz-adv-x="316" 
d="M169 700h85v-700h-135v519l-96 -55v146z" />
    <glyph glyph-name="two" unicode="2" horiz-adv-x="439" 
d="M23 0v84q0 52 18.5 101.5t46.5 85.5t60 72t60 63.5t46.5 58.5t18.5 58q0 25 -14 43t-41 18q-57 0 -60 -73h-128q4 99 52 150t134 51q93 0 142.5 -54.5t49.5 -127.5q0 -50 -25 -100t-60.5 -90l-71 -76.5t-60.5 -72.5t-25 -65h245v-126h-388z" />
    <glyph glyph-name="three" unicode="3" horiz-adv-x="436" 
d="M275 431q57 -9 91 -60t34 -117v-43q0 -112 -45.5 -167.5t-148.5 -55.5q-92 0 -141 53t-54 152h134q3 -38 16.5 -55.5t43.5 -17.5q35 0 47 21.5t12 72.5v35q0 48 -17 65.5t-54 17.5h-66v88l95 157h-187v123h350v-89z" />
    <glyph glyph-name="four" unicode="4" horiz-adv-x="459" 
d="M457 282v-122h-72v-160h-131v160h-248v72l128 468h133l-116 -418h105l21 213h108v-213h72z" />
    <glyph glyph-name="five" unicode="5" horiz-adv-x="460" 
d="M264 484q70 0 114.5 -52.5t44.5 -145.5v-91q0 -98 -52 -152.5t-140 -54.5q-85 0 -135.5 54t-52.5 148h135q2 -39 14.5 -54.5t38.5 -15.5q27 0 40.5 17.5t13.5 61.5v77q0 44 -12 61.5t-35 17.5q-46 0 -57 -57h-128v402h346v-120h-216v-116q38 20 81 20z" />
    <glyph glyph-name="six" unicode="6" horiz-adv-x="462" 
d="M261 458q77 0 125.5 -50.5t48.5 -127.5v-99q0 -87 -54.5 -140t-142.5 -53t-142 53t-54 140v338q0 88 53.5 140.5t141.5 52.5q86 0 139 -52t55 -140h-133q-8 60 -62 60q-60 0 -60 -61v-91q34 30 85 30zM301 182v88q0 30 -16.5 47t-45.5 17q-30 0 -46.5 -17t-16.5 -47v-88
q0 -29 16.5 -45.5t45.5 -16.5t46 16.5t17 45.5z" />
    <glyph glyph-name="seven" unicode="7" horiz-adv-x="388" 
d="M47 0l175 576h-227v124h379v-101l-186 -599h-141z" />
    <glyph glyph-name="eight" unicode="8" horiz-adv-x="468" 
d="M366 369q67 -51 67 -143v-32q0 -96 -54.5 -151t-144.5 -55t-144.5 55t-54.5 151v32q0 91 66 142q-54 57 -54 131v21q0 86 51.5 139t135.5 53t135.5 -53t51.5 -139v-21q0 -72 -55 -130zM180 514v-19q0 -71 54 -71t54 71v19q0 67 -54 67t-54 -67zM298 195v30q0 73 -64 73
t-64 -73v-30q0 -74 64 -74t64 74z" />
    <glyph glyph-name="nine" unicode="9" horiz-adv-x="460" 
d="M228 712q88 0 142 -53t54 -140v-338q0 -88 -53.5 -140.5t-141.5 -52.5q-86 0 -139 52t-55 140h133q8 -60 62 -60q60 0 60 61v91q-34 -30 -85 -30q-77 0 -125.5 50.5t-48.5 127.5v99q0 87 54.5 140t142.5 53zM227 366q30 0 46.5 17t16.5 47v88q0 29 -16.5 45.5t-45.5 16.5
t-46 -16.5t-17 -45.5v-88q0 -30 16.5 -47t45.5 -17z" />
    <glyph glyph-name="colon" unicode=":" horiz-adv-x="190" 
d="M103 326q-34 0 -54.5 20.5t-20.5 54.5t20.5 54.5t54.5 20.5t54.5 -20.5t20.5 -54.5t-20.5 -54.5t-54.5 -20.5zM103 -12q-34 0 -54.5 20.5t-20.5 54.5t20.5 54.5t54.5 20.5t54.5 -20.5t20.5 -54.5t-20.5 -54.5t-54.5 -20.5z" />
    <glyph glyph-name="semicolon" unicode=";" horiz-adv-x="200" 
d="M103 328q-34 0 -54.5 20.5t-20.5 54.5t20.5 54.5t54.5 20.5t54.5 -20.5t20.5 -54.5t-20.5 -54.5t-54.5 -20.5zM22 -143l20 263h127l-68 -263h-79z" />
    <glyph glyph-name="less" unicode="&#x3c;" horiz-adv-x="450" 
d="M410 496v-126l-228 -74l228 -75v-126l-370 136v129z" />
    <glyph glyph-name="equal" unicode="=" horiz-adv-x="480" 
d="M40 350v123h400v-123h-400zM40 138v122h400v-122h-400z" />
    <glyph glyph-name="greater" unicode="&#x3e;" horiz-adv-x="450" 
d="M40 496l370 -136v-129l-370 -136v126l228 75l-228 74v126z" />
    <glyph glyph-name="question" unicode="?" horiz-adv-x="412" 
d="M123 192v26q0 54 13.5 95.5t33 67t39 46.5t33 45.5t13.5 52.5q0 64 -59 64q-60 0 -65 -82h-131q7 97 57 152t138 55q86 0 140 -51t54 -137q0 -40 -13.5 -74t-33 -58.5l-39 -48.5t-33 -55.5t-13.5 -68.5v-29h-134zM191 -12q-34 0 -54.5 20.5t-20.5 54.5t20.5 54.5
t54.5 20.5t54.5 -20.5t20.5 -54.5t-20.5 -54.5t-54.5 -20.5z" />
    <glyph glyph-name="at" unicode="@" horiz-adv-x="836" 
d="M447 -128q-197 0 -303 102t-106 291v111q0 168 102.5 259.5t284.5 91.5q177 0 275 -86.5t98 -242.5v-108q0 -56 -16.5 -98t-44 -65t-57.5 -34t-62 -11q-74 0 -108 68q-33 -68 -114 -68q-63 0 -99 40.5t-36 114.5v121q0 80 35.5 120.5t92.5 40.5q61 0 90 -54l7 38h80v-240
q0 -40 10.5 -59.5t41.5 -19.5q73 0 73 106v108q0 111 -67 168.5t-198 57.5q-138 0 -209.5 -63t-71.5 -185v-111q0 -143 74.5 -216.5t220.5 -73.5q112 0 208 41l53 -78q-99 -66 -254 -66zM411 186q21 0 34 16.5t13 46.5v105q0 29 -12 45.5t-33 16.5q-41 0 -41 -54v-121
q0 -55 39 -55z" />
    <glyph glyph-name="A" unicode="A" horiz-adv-x="494" 
d="M344 0l-23 116h-148l-23 -116h-147l168 700h152l168 -700h-147zM201 251h92l-16 80q-14 77 -28 192h-4q-17 -135 -28 -192z" />
    <glyph glyph-name="B" unicode="B" horiz-adv-x="519" 
d="M406 358q39 -22 61 -62t22 -87q0 -93 -57.5 -151t-148.5 -58h-221v700h218q81 0 133 -55t52 -144q0 -40 -16 -79t-43 -64zM255 566h-51v-146h56q61 0 61 75q0 71 -66 71zM258 134q85 0 85 76q0 77 -82 77h-57v-153h54z" />
    <glyph glyph-name="C" unicode="C" horiz-adv-x="504" 
d="M258 -12q-103 0 -159.5 58.5t-56.5 167.5v272q0 110 57 169t160 59q105 0 162 -58.5t61 -169.5h-142q-3 48 -22 69t-60 21q-68 0 -68 -90v-272q0 -88 68 -88q41 0 61 21t23 67h142q-2 -110 -60.5 -168t-165.5 -58z" />
    <glyph glyph-name="D" unicode="D" horiz-adv-x="520" 
d="M62 0v700h192q106 0 165 -61t59 -171v-231q0 -112 -58.5 -174.5t-163.5 -62.5h-194zM204 135h52q78 0 78 102v231q0 97 -78 97h-52v-430z" />
    <glyph glyph-name="E" unicode="E" horiz-adv-x="468" 
d="M204 135h229v-135h-371v700h361v-135h-219v-145h199v-130h-199v-155z" />
    <glyph glyph-name="F" unicode="F" horiz-adv-x="431" 
d="M408 565h-204v-145h184v-130h-184v-290h-142v700h346v-135z" />
    <glyph glyph-name="G" unicode="G" horiz-adv-x="517" 
d="M263 -12q-105 0 -163 58.5t-58 167.5v272q0 109 58 167.5t164 58.5q101 0 155.5 -58t58.5 -168h-142q-2 48 -18.5 68.5t-53.5 20.5q-74 0 -74 -89v-272q0 -89 75 -89q39 0 58 21t19 68v50h-84v126h224v-176q-3 -110 -59.5 -168t-159.5 -58z" />
    <glyph glyph-name="H" unicode="H" horiz-adv-x="554" 
d="M349 700h143v-700h-143v285h-144v-285h-143v700h143v-280h144v280z" />
    <glyph glyph-name="I" unicode="I" horiz-adv-x="266" 
d="M62 0v700h142v-700h-142z" />
    <glyph glyph-name="J" unicode="J" horiz-adv-x="321" 
d="M0 -153v130q61 0 90.5 28.5t29.5 101.5v593h142v-594q0 -121 -67 -190t-195 -69z" />
    <glyph glyph-name="K" unicode="K" horiz-adv-x="528" 
d="M368 0l-127 265l-39 -63v-202h-140v700h140v-268l36 78l98 190h162l-178 -306l208 -394h-160z" />
    <glyph glyph-name="L" unicode="L" horiz-adv-x="418" 
d="M204 135h208v-135h-350v700h142v-565z" />
    <glyph glyph-name="M" unicode="M" horiz-adv-x="726" 
d="M521 700h143v-700h-139v172q2 42 5.5 127t5.5 128l-5 2l-63 -184l-35 -95h-140l-35 95l-63 184l-5 -2q2 -42 5.5 -127t4.5 -128v-172h-138v700h143l110 -265q37 -92 46 -122h4q9 30 46 122z" />
    <glyph glyph-name="N" unicode="N" horiz-adv-x="570" 
d="M62 0v700h140l133 -304l50 -134l3 3q-20 147 -20 273v162h140v-700h-140l-118 271l-63 171l-3 -3q18 -144 18 -297v-142h-140z" />
    <glyph glyph-name="O" unicode="O" horiz-adv-x="538" 
d="M269 -12q-107 0 -167 63.5t-60 175.5v246q0 112 60 175.5t167 63.5t167 -63.5t60 -175.5v-246q0 -112 -60 -175.5t-167 -63.5zM269 126q80 0 80 101v246q0 101 -80 101t-80 -101v-246q0 -101 80 -101z" />
    <glyph glyph-name="P" unicode="P" horiz-adv-x="524" 
d="M265 700q109 0 170 -63t61 -175t-61 -174.5t-170 -62.5h-61v-225h-142v700h203zM263 360q87 0 87 102q0 103 -87 103h-59v-205h59z" />
    <glyph glyph-name="Q" unicode="Q" horiz-adv-x="548" 
d="M502 473v-246q0 -109 -57 -172l54 -65l-82 -71l-66 79q-33 -10 -77 -10q-107 0 -167.5 63.5t-60.5 175.5v246q0 112 60.5 175.5t167.5 63.5t167.5 -63.5t60.5 -175.5zM194 227q0 -101 80 -101t80 101v246q0 101 -80 101t-80 -101v-246z" />
    <glyph glyph-name="R" unicode="R" horiz-adv-x="526" 
d="M366 0l-112 235h-50v-235h-142v700h203q104 0 162.5 -61.5t58.5 -171.5q0 -144 -97 -202l132 -265h-155zM204 565v-195h59q77 0 77 97q0 98 -77 98h-59z" />
    <glyph glyph-name="S" unicode="S" horiz-adv-x="479" 
d="M236 -14q-101 0 -159 57t-58 161h146q0 -80 73 -80q34 0 52 17.5t18 44.5t-20.5 51t-50.5 42t-66 42.5t-66 50t-50.5 66.5t-20.5 91q0 82 54.5 133.5t149.5 51.5q97 0 152 -54.5t55 -151.5h-146q0 69 -62 69q-28 0 -43.5 -14t-15.5 -38q0 -25 20.5 -48t51.5 -39.5t67 -40
t67 -49.5t51.5 -68.5t20.5 -94.5q0 -88 -59 -143.5t-161 -55.5z" />
    <glyph glyph-name="T" unicode="T" horiz-adv-x="450" 
d="M435 700v-135h-137v-565h-146v565h-137v135h420z" />
    <glyph glyph-name="U" unicode="U" horiz-adv-x="540" 
d="M270 -12q-103 0 -161.5 62.5t-58.5 172.5v477h145v-477q0 -97 75 -97t75 97v477h145v-477q0 -110 -58.5 -172.5t-161.5 -62.5z" />
    <glyph glyph-name="V" unicode="V" horiz-adv-x="488" 
d="M169 0l-166 700h147l63 -331q14 -72 29 -195h4q15 123 29 195l63 331h147l-166 -700h-150z" />
    <glyph glyph-name="W" unicode="W" horiz-adv-x="792" 
d="M161 0l-158 700h147l55 -331q24 -151 29 -195h4q5 44 29 195l55 321h148l55 -321q24 -151 29 -195h4q5 44 29 195l55 331h147l-158 -700h-150l-50 234q-25 110 -33 229h-4q-8 -119 -33 -229l-50 -234h-150z" />
    <glyph glyph-name="X" unicode="X" horiz-adv-x="512" 
d="M500 0h-156l-88 223l-88 -223h-156l165 362l-155 338h155l79 -203l79 203h155l-155 -338z" />
    <glyph glyph-name="Y" unicode="Y" horiz-adv-x="472" 
d="M165 0v208l-165 492h147l57 -194q21 -70 30 -112h4q11 47 32 115l55 191h147l-165 -492v-208h-142z" />
    <glyph glyph-name="Z" unicode="Z" horiz-adv-x="433" 
d="M13 0v95l222 470h-205v135h379v-98l-220 -467h225v-135h-401z" />
    <glyph glyph-name="bracketleft" unicode="[" horiz-adv-x="322" 
d="M62 -120v940h222v-126h-87v-688h87v-126h-222z" />
    <glyph glyph-name="backslash" unicode="\" horiz-adv-x="514" 
d="M474 -123h-116l-318 940h116z" />
    <glyph glyph-name="bracketright" unicode="]" horiz-adv-x="322" 
d="M260 820v-940h-222v126h87v688h-87v126h222z" />
    <glyph glyph-name="asciicircum" unicode="^" horiz-adv-x="361" 
d="M356 472h-118l-57 121l-58 -121h-118l119 228h113z" />
    <glyph glyph-name="underscore" unicode="_" horiz-adv-x="370" 
d="M15 -142v132h340v-132h-340z" />
    <glyph glyph-name="a" unicode="a" horiz-adv-x="462" 
d="M230 543q94 0 138 -51.5t44 -154.5v-337h-108l-8 50q-34 -64 -115 -64q-72 0 -115 46.5t-43 119.5q0 82 55.5 124t147.5 42h49v19q0 38 -10.5 56.5t-36.5 18.5q-46 0 -53 -47h-137q4 84 54.5 131t137.5 47zM275 167v42h-46q-67 0 -67 -57q0 -22 12.5 -36t39.5 -14
q28 0 44.5 17.5t16.5 47.5z" />
    <glyph glyph-name="b" unicode="b" horiz-adv-x="473" 
d="M263 543q77 0 124.5 -57t47.5 -151v-138q0 -94 -47 -151.5t-125 -57.5q-63 0 -114 58l-6 -47h-93v726h133v-211q37 29 80 29zM296 197v138q0 78 -53 78q-60 0 -60 -78v-138q0 -79 60 -79q53 0 53 79z" />
    <glyph glyph-name="c" unicode="c" horiz-adv-x="442" 
d="M227 -12q-89 0 -139 52.5t-50 146.5v158q0 93 50 145.5t139 52.5q93 0 142.5 -51.5t52.5 -146.5h-137q-3 68 -55 68q-54 0 -54 -68v-158q0 -69 54 -69q51 0 56 69h137q-2 -94 -54 -146.5t-142 -52.5z" />
    <glyph glyph-name="d" unicode="d" horiz-adv-x="473" 
d="M290 725h133v-726h-93l-6 47q-51 -58 -114 -58q-78 0 -125 57.5t-47 151.5v138q0 94 47.5 151t124.5 57q43 0 80 -29v211zM290 197v138q0 78 -60 78q-53 0 -53 -78v-138q0 -79 53 -79q60 0 60 79z" />
    <glyph glyph-name="e" unicode="e" horiz-adv-x="458" 
d="M289 169h138q-8 -86 -60 -133.5t-139 -47.5q-89 0 -139.5 55.5t-50.5 153.5v141q0 97 50.5 151t141.5 54q92 0 143.5 -54t51.5 -151v-119h-250v-22q0 -79 55 -79q28 0 40 11t19 40zM231 417q-56 0 -56 -77v-28h115v28q0 77 -59 77z" />
    <glyph glyph-name="f" unicode="f" horiz-adv-x="318" 
d="M280 616q-36 0 -50 -16.5t-14 -56.5v-13h89v-125h-89v-405h-135v405h-74v125h74v13q0 89 48 142.5t151 53.5h34v-123h-34z" />
    <glyph glyph-name="g" unicode="g" horiz-adv-x="477" 
d="M334 530h93v-547q0 -81 -49.5 -129t-137.5 -48q-86 0 -134.5 47.5t-50.5 129.5h135q5 -50 50 -50q23 0 35.5 13.5t12.5 36.5v66q-36 -22 -80 -22q-73 0 -121.5 56t-48.5 142v118q0 87 48 143.5t122 56.5q71 0 117 -44zM230 156q58 0 58 69v118q0 68 -58 68q-54 0 -54 -68
v-118q0 -69 54 -69z" />
    <glyph glyph-name="h" unicode="h" horiz-adv-x="476" 
d="M281 543q71 0 110.5 -55.5t39.5 -162.5v-325h-137v325q0 88 -51 88q-57 0 -57 -78v-335h-136v725h136v-232q39 50 95 50z" />
    <glyph glyph-name="i" unicode="i" horiz-adv-x="237" 
d="M119 608q-33 0 -54 21.5t-21 53.5t21 53.5t54 21.5q32 0 53.5 -21.5t21.5 -53.5q0 -30 -22 -52.5t-53 -22.5zM50 0v530h137v-530h-137z" />
    <glyph glyph-name="j" unicode="j" horiz-adv-x="260" 
d="M135 607q-33 0 -54 21.5t-21 53.5t21 53.5t54 21.5q32 0 53.5 -21.5t21.5 -53.5q0 -30 -22 -52.5t-53 -22.5zM-9 -194v130q77 0 77 74v520h136v-511q0 -102 -55 -157.5t-158 -55.5z" />
    <glyph glyph-name="k" unicode="k" horiz-adv-x="457" 
d="M311 0l-101 213l-25 -25v-188h-135v725h135v-358l98 163h157l-140 -210l163 -320h-152z" />
    <glyph glyph-name="l" unicode="l" horiz-adv-x="222" 
d="M43 0v725h136v-725h-136z" />
    <glyph glyph-name="m" unicode="m" horiz-adv-x="708" 
d="M511 543q73 0 112.5 -55.5t39.5 -162.5v-325h-135v325q0 88 -49 88q-55 0 -55 -78v-335h-135v325q0 88 -49 88q-25 0 -40 -20t-15 -58v-335h-135v530h89l9 -54q41 67 124 67q79 0 118 -63q40 63 121 63z" />
    <glyph glyph-name="n" unicode="n" horiz-adv-x="476" 
d="M275 543q74 0 115 -55.5t41 -162.5v-325h-137v325q0 88 -51 88q-57 0 -57 -78v-335h-136v530h90l10 -54q41 67 125 67z" />
    <glyph glyph-name="o" unicode="o" horiz-adv-x="470" 
d="M235 -13q-93 0 -145 55t-52 156v135q0 101 52 155.5t145 54.5t145 -54.5t52 -155.5v-135q0 -101 -52 -156t-145 -55zM235 119q58 0 58 79v135q0 78 -58 78t-58 -78v-135q0 -79 58 -79z" />
    <glyph glyph-name="p" unicode="p" horiz-adv-x="473" 
d="M263 542q78 0 125 -57.5t47 -151.5v-138q0 -94 -47.5 -151t-124.5 -57q-43 0 -80 29v-196h-133v711h93l6 -47q51 58 114 58zM296 195v138q0 79 -53 79q-60 0 -60 -79v-138q0 -78 60 -78q53 0 53 78z" />
    <glyph glyph-name="q" unicode="q" horiz-adv-x="473" 
d="M330 531h93v-711h-133v196q-37 -29 -80 -29q-77 0 -124.5 57t-47.5 151v138q0 94 47 151.5t125 57.5q63 0 114 -58zM230 117q60 0 60 78v138q0 79 -60 79q-53 0 -53 -79v-138q0 -78 53 -78z" />
    <glyph glyph-name="r" unicode="r" horiz-adv-x="349" 
d="M284 543q37 0 58 -12v-130q-30 14 -64 14q-92 0 -92 -102v-313h-136v530h90l11 -61q43 74 133 74z" />
    <glyph glyph-name="s" unicode="s" horiz-adv-x="432" 
d="M224 -15q-97 0 -150.5 53.5t-55.5 130.5h136q5 -60 65 -60q27 0 42 11.5t15 30.5q0 22 -25.5 38.5t-62 30t-73.5 31.5t-62.5 53t-25.5 85q0 72 49 113t134 41q90 0 135.5 -47.5t51.5 -128.5h-131q-5 56 -56 56q-22 0 -35 -9.5t-13 -24.5q0 -20 26 -34t62.5 -26.5
t73 -30.5t62.5 -55.5t26 -90.5q0 -76 -50 -121.5t-138 -45.5z" />
    <glyph glyph-name="t" unicode="t" horiz-adv-x="335" 
d="M271 120h34v-128h-44q-85 0 -135 52t-50 141v222h-69v123h69v128h135v-128h87v-123h-87v-224q0 -63 60 -63z" />
    <glyph glyph-name="u" unicode="u" horiz-adv-x="476" 
d="M290 530h136v-530h-90l-10 54q-41 -67 -125 -67q-74 0 -115 55.5t-41 162.5v325h137v-325q0 -88 51 -88q57 0 57 78v335z" />
    <glyph glyph-name="v" unicode="v" horiz-adv-x="436" 
d="M141 0l-141 530h145l32 -165q28 -140 38 -207h6q9 55 38 207l32 165h145l-141 -530h-154z" />
    <glyph glyph-name="w" unicode="w" horiz-adv-x="666" 
d="M525 530h141l-121 -530h-147l-26 118q-28 129 -36 239h-6q-8 -110 -36 -239l-26 -118h-147l-121 530h141l28 -185q24 -167 26 -198h6q6 48 28 185l32 188h144l32 -188q22 -137 28 -185h6q2 31 26 198z" />
    <glyph glyph-name="x" unicode="x" horiz-adv-x="436" 
d="M443 0h-153l-72 154l-72 -154h-153l140 267l-125 263h149l61 -144l61 144h149l-122 -263z" />
    <glyph glyph-name="y" unicode="y" horiz-adv-x="446" 
d="M309 530h137l-163 -546q-24 -81 -62.5 -126.5t-100.5 -45.5h-70v131h40q27 0 43.5 16t26.5 50l11 39l-171 482h144l49 -158l35 -123l35 121z" />
    <glyph glyph-name="z" unicode="z" horiz-adv-x="376" 
d="M3 0v83l178 322h-157v125h331v-83l-175 -322h185v-125h-362z" />
    <glyph glyph-name="braceleft" unicode="{" horiz-adv-x="340" 
d="M231 498q0 -93 -61 -148q61 -55 61 -148v-128q0 -64 71 -64v-130q-98 0 -151.5 55.5t-53.5 157.5v128q0 64 -59 64v130q59 0 59 64v128q0 102 53.5 157.5t151.5 55.5v-130q-71 0 -71 -64v-128z" />
    <glyph glyph-name="bar" unicode="|" horiz-adv-x="226" 
d="M43 -100v906h140v-906h-140z" />
    <glyph glyph-name="braceright" unicode="}" horiz-adv-x="340" 
d="M243 479q0 -64 59 -64v-130q-59 0 -59 -64v-128q0 -102 -53.5 -157.5t-151.5 -55.5v130q71 0 71 64v128q0 93 61 148q-61 55 -61 148v128q0 64 -71 64v130q98 0 151.5 -55.5t53.5 -157.5v-128z" />
    <glyph glyph-name="asciitilde" unicode="~" horiz-adv-x="480" 
d="M340 230q-38 0 -100 23.5t-85 23.5q-34 0 -59 -38l-70 83q44 70 115 70q37 0 99 -23.5t85 -23.5q34 0 59 38l72 -83q-46 -70 -116 -70z" />
    <glyph glyph-name="uni00A0" unicode="&#xa0;" horiz-adv-x="200" 
 />
    <glyph glyph-name="exclamdown" unicode="&#xa1;" horiz-adv-x="280" 
d="M140 392q-34 0 -54.5 20.5t-20.5 54.5t20.5 54.5t54.5 20.5t54.5 -20.5t20.5 -54.5t-20.5 -54.5t-54.5 -20.5zM71 -180v518h137v-518h-137z" />
    <glyph glyph-name="cent" unicode="&#xa2;" horiz-adv-x="443" 
d="M424 187q-2 -79 -39.5 -129.5t-105.5 -64.5v-68h-105v69q-65 14 -100.5 64t-35.5 129v158q0 78 35.5 128t100.5 64v66h105v-65q136 -27 141 -193h-137q-3 68 -53 68q-54 0 -54 -68v-158q0 -69 54 -69q52 0 57 69h137z" />
    <glyph glyph-name="sterling" unicode="&#xa3;" horiz-adv-x="486" 
d="M206 129h250v-129h-431v118q30 0 43 18.5t13 56.5v87h-56v119h56v120q0 87 50.5 140t131.5 53t132 -54t57 -150h-138q-9 66 -52 66t-43 -53v-122h147v-119h-147v-87q0 -36 -13 -64z" />
    <glyph glyph-name="currency" unicode="&#xa4;" horiz-adv-x="462" 
d="M107 59l-78 54l52 74q-21 39 -21 92v82q0 51 20 91l-51 73l77 55l43 -61q35 18 82 18t83 -18l42 61l77 -55l-51 -73q20 -40 20 -91v-82q0 -53 -21 -92l52 -74l-78 -54l-43 61q-36 -17 -81 -17q-44 0 -81 17zM231 223q45 0 45 57v80q0 57 -45 57t-45 -57v-80q0 -57 45 -57
z" />
    <glyph glyph-name="yen" unicode="&#xa5;" horiz-adv-x="472" 
d="M472 700l-138 -411h132v-80h-159v-60h159v-80h-159v-69h-142v69h-159v80h159v60h-159v80h132l-138 411h147l57 -194q21 -70 30 -112h4q11 47 32 115l55 191h147z" />
    <glyph glyph-name="brokenbar" unicode="&#xa6;" horiz-adv-x="206" 
d="M33 482v324h140v-324h-140zM33 -100v324h140v-324h-140z" />
    <glyph glyph-name="section" unicode="&#xa7;" horiz-adv-x="433" 
d="M362 219q47 -45 47 -109q0 -77 -49.5 -122.5t-137.5 -45.5q-96 0 -147.5 53.5t-53.5 130.5h136q5 -60 60 -60q56 0 56 46q0 21 -26 37.5t-63.5 31t-75 33.5t-63.5 55.5t-26 87.5q0 77 62 120q-48 42 -48 110q0 71 48 111.5t129 40.5q88 0 132.5 -47.5t50.5 -128.5h-131
q-5 56 -52 56q-44 0 -44 -34q0 -18 18 -32t45 -23.5t59 -25t59 -34.5t45 -55t18 -84q0 -70 -48 -112zM252 292q22 11 22 37q0 39 -78 71q-19 -1 -30.5 -12.5t-11.5 -27.5q0 -23 23 -36.5t75 -31.5z" />
    <glyph glyph-name="copyright" unicode="&#xa9;" horiz-adv-x="673" 
d="M337 -6q-139 0 -217 86t-78 240v72q0 152 78 237t217 85t216.5 -85t77.5 -237v-72q0 -154 -77.5 -240t-216.5 -86zM337 77q101 0 152.5 61.5t51.5 181.5v72q0 118 -51.5 178.5t-152.5 60.5t-153 -60.5t-52 -178.5v-72q0 -243 205 -243zM335 152q-61 0 -95 37t-34 103v122
q0 66 34 103t95 37q63 0 96.5 -36.5t35.5 -103.5h-92q-3 49 -38 49q-38 0 -38 -49v-122q0 -49 38 -49q36 0 41 49h92q-2 -66 -37 -103t-98 -37z" />
    <glyph glyph-name="guillemotleft" unicode="&#xab;" horiz-adv-x="505" 
d="M141 85l-111 150v44l111 150h133l-125 -172l125 -172h-133zM342 85l-111 150v44l111 150h133l-125 -172l125 -172h-133z" />
    <glyph glyph-name="logicalnot" unicode="&#xac;" horiz-adv-x="480" 
d="M327 184v64h-287v125h410v-189h-123z" />
    <glyph glyph-name="registered" unicode="&#xae;" horiz-adv-x="453" 
d="M229 714q88 0 136 -50t48 -143v-61q0 -98 -48 -150t-136 -52t-136 52t-48 150v61q0 93 48 143t136 50zM365 459v61q0 150 -136 150t-136 -150v-61q0 -159 136 -159t136 159zM308 528q0 -49 -33 -69l46 -91h-55l-39 80h-17v-80h-50v241h71q37 0 57 -21.5t20 -59.5z
M210 561v-66h20q27 0 27 33t-27 33h-20z" />
    <glyph glyph-name="degree" unicode="&#xb0;" horiz-adv-x="310" 
d="M155 433q-62 0 -99.5 38.5t-37.5 101.5q0 62 37.5 100.5t99.5 38.5t99.5 -38.5t37.5 -100.5q0 -63 -37.5 -101.5t-99.5 -38.5zM155 520q22 0 35 14.5t13 38.5t-13 38.5t-35 14.5t-35 -14.5t-13 -38.5t13 -38.5t35 -14.5z" />
    <glyph glyph-name="plusminus" unicode="&#xb1;" horiz-adv-x="480" 
d="M303 445h137v-121h-137v-124h-126v124h-137v121h137v124h126v-124zM40 38v115h400v-115h-400z" />
    <glyph glyph-name="paragraph" unicode="&#xb6;" horiz-adv-x="629" 
d="M205 -90v465q-75 0 -121 44.5t-46 120.5t46 120.5t121 44.5h362v-795h-138v666h-86v-666h-138z" />
    <glyph glyph-name="periodcentered" unicode="&#xb7;" horiz-adv-x="206" 
d="M103 183q-34 0 -54.5 20.5t-20.5 54.5t20.5 54.5t54.5 20.5t54.5 -20.5t20.5 -54.5t-20.5 -54.5t-54.5 -20.5z" />
    <glyph glyph-name="guillemotright" unicode="&#xbb;" horiz-adv-x="505" 
d="M163 85h-133l125 172l-125 172h133l111 -150v-44zM364 85h-133l125 172l-125 172h133l111 -150v-44z" />
    <glyph glyph-name="questiondown" unicode="&#xbf;" horiz-adv-x="412" 
d="M211 389q-34 0 -54.5 20.5t-20.5 54.5t20.5 54.5t54.5 20.5t54.5 -20.5t20.5 -54.5t-20.5 -54.5t-54.5 -20.5zM207 -187q-86 0 -140 51t-54 137q0 40 13.5 74t33 58.5l39 48.5t33 55.5t13.5 68.5v29h134v-26q0 -54 -13.5 -95.5t-33 -67t-39 -46.5t-33 -45.5t-13.5 -52.5
q0 -64 59 -64q60 0 65 82h131q-7 -97 -57 -152t-138 -55z" />
    <glyph glyph-name="Agrave" unicode="&#xc0;" horiz-adv-x="494" 
d="M322 767h-94l-113 137h113zM344 0l-23 116h-148l-23 -116h-147l168 700h152l168 -700h-147zM201 251h92l-16 80q-14 77 -28 192h-4q-17 -135 -28 -192z" />
    <glyph glyph-name="Aacute" unicode="&#xc1;" horiz-adv-x="494" 
d="M385 904l-113 -137h-94l94 137h113zM344 0l-23 116h-148l-23 -116h-147l168 700h152l168 -700h-147zM201 251h92l-16 80q-14 77 -28 192h-4q-17 -135 -28 -192z" />
    <glyph glyph-name="Acircumflex" unicode="&#xc2;" horiz-adv-x="494" 
d="M247 834l-44 -67h-89l81 137h103l81 -137h-89zM344 0l-23 116h-148l-23 -116h-147l168 700h152l168 -700h-147zM201 251h92l-16 80q-14 77 -28 192h-4q-17 -135 -28 -192z" />
    <glyph glyph-name="Atilde" unicode="&#xc3;" horiz-adv-x="494" 
d="M224 809q-24 0 -28 -25h-77q3 51 28 78.5t63 27.5q24 0 46.5 -14t31.5 -14q23 0 28 25h77q-3 -49 -28 -77.5t-63 -28.5q-23 0 -45.5 14t-32.5 14zM344 0l-23 116h-148l-23 -116h-147l168 700h152l168 -700h-147zM201 251h92l-16 80q-14 77 -28 192h-4q-17 -135 -28 -192z
" />
    <glyph glyph-name="Adieresis" unicode="&#xc4;" horiz-adv-x="494" 
d="M166 775q-28 0 -44.5 16.5t-16.5 44.5t16.5 44.5t44.5 16.5t44.5 -16.5t16.5 -44.5t-16.5 -44.5t-44.5 -16.5zM328 775q-28 0 -44.5 16.5t-16.5 44.5t16.5 44.5t44.5 16.5t44.5 -16.5t16.5 -44.5t-16.5 -44.5t-44.5 -16.5zM344 0l-23 116h-148l-23 -116h-147l168 700h152
l168 -700h-147zM201 251h92l-16 80q-14 77 -28 192h-4q-17 -135 -28 -192z" />
    <glyph glyph-name="Aring" unicode="&#xc5;" horiz-adv-x="494" 
d="M251 763q-41 0 -66.5 25t-25.5 65q0 39 25.5 63.5t66.5 24.5t66.5 -24.5t25.5 -63.5q0 -40 -25.5 -65t-66.5 -25zM251 885q-15 0 -24 -9t-9 -24t9 -24t24 -9t24 9t9 24t-9 24t-24 9zM344 0l-23 116h-148l-23 -116h-147l168 700h152l168 -700h-147zM201 251h92l-16 80
q-14 77 -28 192h-4q-17 -135 -28 -192z" />
    <glyph glyph-name="AE" unicode="&#xc6;" horiz-adv-x="706" 
d="M467 135h204v-135h-346v116h-136l-39 -116h-150l255 700h406v-135h-194v-145h174v-130h-174v-155zM234 251h91v292h-4q-23 -106 -58 -207z" />
    <glyph glyph-name="Ccedilla" unicode="&#xc7;" horiz-adv-x="504" 
d="M484 214q-2 -99 -50 -156t-136 -68l-10 -37h9q33 0 53.5 -19.5t20.5 -50.5q0 -41 -30.5 -65.5t-79.5 -24.5q-43 0 -75 24t-36 62h71q14 -22 40 -22q34 0 34 29q0 25 -33 25q-18 0 -33 -6l-20 20l17 65q-88 8 -136 66t-48 158v272q0 110 57 169t160 59q105 0 162 -58.5
t61 -169.5h-142q-3 48 -22 69t-60 21q-68 0 -68 -90v-272q0 -88 68 -88q41 0 61 21t23 67h142z" />
    <glyph glyph-name="Egrave" unicode="&#xc8;" horiz-adv-x="468" 
d="M322 767h-94l-113 137h113zM204 135h229v-135h-371v700h361v-135h-219v-145h199v-130h-199v-155z" />
    <glyph glyph-name="Eacute" unicode="&#xc9;" horiz-adv-x="468" 
d="M385 904l-113 -137h-94l94 137h113zM204 135h229v-135h-371v700h361v-135h-219v-145h199v-130h-199v-155z" />
    <glyph glyph-name="Ecircumflex" unicode="&#xca;" horiz-adv-x="468" 
d="M247 834l-44 -67h-89l81 137h103l81 -137h-89zM204 135h229v-135h-371v700h361v-135h-219v-145h199v-130h-199v-155z" />
    <glyph glyph-name="Edieresis" unicode="&#xcb;" horiz-adv-x="468" 
d="M166 775q-28 0 -44.5 16.5t-16.5 44.5t16.5 44.5t44.5 16.5t44.5 -16.5t16.5 -44.5t-16.5 -44.5t-44.5 -16.5zM328 775q-28 0 -44.5 16.5t-16.5 44.5t16.5 44.5t44.5 16.5t44.5 -16.5t16.5 -44.5t-16.5 -44.5t-44.5 -16.5zM204 135h229v-135h-371v700h361v-135h-219v-145
h199v-130h-199v-155z" />
    <glyph glyph-name="Igrave" unicode="&#xcc;" horiz-adv-x="266" 
d="M209 767h-94l-113 137h113zM62 0v700h142v-700h-142z" />
    <glyph glyph-name="Iacute" unicode="&#xcd;" horiz-adv-x="266" 
d="M65 767l94 137h113l-113 -137h-94zM62 0v700h142v-700h-142z" />
    <glyph glyph-name="Icircumflex" unicode="&#xce;" horiz-adv-x="266" 
d="M134 834l-44 -67h-89l81 137h103l81 -137h-89zM62 0v700h142v-700h-142z" />
    <glyph glyph-name="Idieresis" unicode="&#xcf;" horiz-adv-x="268" 
d="M56 775q-28 0 -44.5 16.5t-16.5 44.5t16.5 44.5t44.5 16.5t44.5 -16.5t16.5 -44.5t-16.5 -44.5t-44.5 -16.5zM214 775q-28 0 -44.5 16.5t-16.5 44.5t16.5 44.5t44.5 16.5t44.5 -16.5t16.5 -44.5t-16.5 -44.5t-44.5 -16.5zM63 0v700h142v-700h-142z" />
    <glyph glyph-name="Eth" unicode="&#xd0;" horiz-adv-x="528" 
d="M252 700q108 0 171 -56t63 -156v-271q0 -103 -62.5 -160t-169.5 -57h-186v317h-63v83h63v300h184zM340 217v271q0 43 -19.5 60t-58.5 17h-52v-165h69v-83h-69v-182h52q40 0 59 17.5t19 64.5z" />
    <glyph glyph-name="Ntilde" unicode="&#xd1;" horiz-adv-x="570" 
d="M340 781q-23 0 -45.5 14t-32.5 14q-24 0 -28 -25h-77q3 51 28 78.5t63 27.5q24 0 46.5 -14t31.5 -14q23 0 28 25h77q-3 -49 -28 -77.5t-63 -28.5zM62 0v700h140l133 -304l50 -134l3 3q-20 147 -20 273v162h140v-700h-140l-118 271l-63 171l-3 -3q18 -144 18 -297v-142
h-140z" />
    <glyph glyph-name="Ograve" unicode="&#xd2;" horiz-adv-x="538" 
d="M343 767h-94l-113 137h113zM269 -12q-107 0 -167 63.5t-60 175.5v246q0 112 60 175.5t167 63.5t167 -63.5t60 -175.5v-246q0 -112 -60 -175.5t-167 -63.5zM269 126q80 0 80 101v246q0 101 -80 101t-80 -101v-246q0 -101 80 -101z" />
    <glyph glyph-name="Oacute" unicode="&#xd3;" horiz-adv-x="538" 
d="M199 767l94 137h113l-113 -137h-94zM269 -12q-107 0 -167 63.5t-60 175.5v246q0 112 60 175.5t167 63.5t167 -63.5t60 -175.5v-246q0 -112 -60 -175.5t-167 -63.5zM269 126q80 0 80 101v246q0 101 -80 101t-80 -101v-246q0 -101 80 -101z" />
    <glyph glyph-name="Ocircumflex" unicode="&#xd4;" horiz-adv-x="538" 
d="M268 834l-44 -67h-89l81 137h103l81 -137h-89zM269 712q107 0 167 -63.5t60 -175.5v-246q0 -112 -60 -175.5t-167 -63.5t-167 63.5t-60 175.5v246q0 112 60 175.5t167 63.5zM349 227v246q0 101 -80 101t-80 -101v-246q0 -101 80 -101t80 101z" />
    <glyph glyph-name="Otilde" unicode="&#xd5;" horiz-adv-x="538" 
d="M323 781q-23 0 -45.5 14t-32.5 14q-24 0 -28 -25h-77q3 51 28 78.5t63 27.5q24 0 46.5 -14t31.5 -14q23 0 28 25h77q-3 -49 -28 -77.5t-63 -28.5zM269 -12q-107 0 -167 63.5t-60 175.5v246q0 112 60 175.5t167 63.5t167 -63.5t60 -175.5v-246q0 -112 -60 -175.5
t-167 -63.5zM269 126q80 0 80 101v246q0 101 -80 101t-80 -101v-246q0 -101 80 -101z" />
    <glyph glyph-name="Odieresis" unicode="&#xd6;" horiz-adv-x="538" 
d="M187 775q-28 0 -44.5 16.5t-16.5 44.5t16.5 44.5t44.5 16.5t44.5 -16.5t16.5 -44.5t-16.5 -44.5t-44.5 -16.5zM349 775q-28 0 -44.5 16.5t-16.5 44.5t16.5 44.5t44.5 16.5t44.5 -16.5t16.5 -44.5t-16.5 -44.5t-44.5 -16.5zM269 -12q-107 0 -167 63.5t-60 175.5v246
q0 112 60 175.5t167 63.5t167 -63.5t60 -175.5v-246q0 -112 -60 -175.5t-167 -63.5zM269 126q80 0 80 101v246q0 101 -80 101t-80 -101v-246q0 -101 80 -101z" />
    <glyph glyph-name="multiply" unicode="&#xd7;" horiz-adv-x="478" 
d="M124 94l-88 89l115 115l-115 114l88 89l115 -115l115 115l88 -89l-114 -114l114 -115l-88 -89l-115 115z" />
    <glyph glyph-name="Oslash" unicode="&#xd8;" horiz-adv-x="548" 
d="M422 666q80 -62 80 -193v-246q0 -112 -60.5 -175.5t-167.5 -63.5q-30 0 -53 4l-18 -61h-106l30 101q-81 64 -81 195v246q0 112 60.5 175.5t167.5 63.5q26 0 54 -5l19 62h106zM354 227v246q0 101 -80 101t-80 -101v-246q0 -101 80 -101t80 101z" />
    <glyph glyph-name="Ugrave" unicode="&#xd9;" horiz-adv-x="540" 
d="M345 767h-94l-113 137h113zM270 -12q-103 0 -161.5 62.5t-58.5 172.5v477h145v-477q0 -97 75 -97t75 97v477h145v-477q0 -110 -58.5 -172.5t-161.5 -62.5z" />
    <glyph glyph-name="Uacute" unicode="&#xda;" horiz-adv-x="540" 
d="M201 767l94 137h113l-113 -137h-94zM270 -12q-103 0 -161.5 62.5t-58.5 172.5v477h145v-477q0 -97 75 -97t75 97v477h145v-477q0 -110 -58.5 -172.5t-161.5 -62.5z" />
    <glyph glyph-name="Ucircumflex" unicode="&#xdb;" horiz-adv-x="540" 
d="M270 834l-44 -67h-89l81 137h103l81 -137h-89zM345 700h145v-477q0 -110 -58.5 -172.5t-161.5 -62.5t-161.5 62.5t-58.5 172.5v477h145v-477q0 -97 75 -97t75 97v477z" />
    <glyph glyph-name="Udieresis" unicode="&#xdc;" horiz-adv-x="540" 
d="M189 775q-28 0 -44.5 16.5t-16.5 44.5t16.5 44.5t44.5 16.5t44.5 -16.5t16.5 -44.5t-16.5 -44.5t-44.5 -16.5zM351 775q-28 0 -44.5 16.5t-16.5 44.5t16.5 44.5t44.5 16.5t44.5 -16.5t16.5 -44.5t-16.5 -44.5t-44.5 -16.5zM270 -12q-103 0 -161.5 62.5t-58.5 172.5v477
h145v-477q0 -97 75 -97t75 97v477h145v-477q0 -110 -58.5 -172.5t-161.5 -62.5z" />
    <glyph glyph-name="Yacute" unicode="&#xdd;" horiz-adv-x="472" 
d="M167 767l94 137h113l-113 -137h-94zM165 0v208l-165 492h147l57 -194q21 -70 30 -112h4q11 47 32 115l55 191h147l-165 -492v-208h-142z" />
    <glyph glyph-name="Thorn" unicode="&#xde;" horiz-adv-x="511" 
d="M265 600q109 0 170 -63t61 -175t-61 -174.5t-170 -62.5h-61v-125h-142v700h142v-100h61zM263 260q87 0 87 102q0 103 -87 103h-59v-205h59z" />
    <glyph glyph-name="germandbls" unicode="&#xdf;" horiz-adv-x="497" 
d="M392 363q39 -27 62 -68t23 -83q0 -94 -58.5 -153t-150.5 -59h-29v135h4q88 0 88 77q0 82 -85 82h-7v130h6q72 0 72 75q0 39 -16 60t-45 21q-30 0 -47 -21t-17 -60v-499h-142v499q0 96 56.5 155.5t149.5 59.5q92 0 148.5 -59.5t56.5 -156.5q0 -79 -69 -135z" />
    <glyph glyph-name="agrave" unicode="&#xe0;" horiz-adv-x="462" 
d="M317 609h-94l-93 137h113zM230 543q94 0 138 -51.5t44 -154.5v-337h-108l-8 50q-34 -64 -115 -64q-72 0 -115 46.5t-43 119.5q0 82 55.5 124t147.5 42h49v19q0 38 -10.5 56.5t-36.5 18.5q-46 0 -53 -47h-137q4 84 54.5 131t137.5 47zM275 167v42h-46q-67 0 -67 -57
q0 -22 12.5 -36t39.5 -14q28 0 44.5 17.5t16.5 47.5z" />
    <glyph glyph-name="aacute" unicode="&#xe1;" horiz-adv-x="462" 
d="M354 746l-93 -137h-94l74 137h113zM230 543q94 0 138 -51.5t44 -154.5v-337h-108l-8 50q-34 -64 -115 -64q-72 0 -115 46.5t-43 119.5q0 82 55.5 124t147.5 42h49v19q0 38 -10.5 56.5t-36.5 18.5q-46 0 -53 -47h-137q4 84 54.5 131t137.5 47zM275 167v42h-46
q-67 0 -67 -57q0 -22 12.5 -36t39.5 -14q28 0 44.5 17.5t16.5 47.5z" />
    <glyph glyph-name="acircumflex" unicode="&#xe2;" horiz-adv-x="462" 
d="M233 676l-44 -67h-89l81 137h103l81 -137h-89zM230 543q94 0 138 -51.5t44 -154.5v-337h-108l-8 50q-34 -64 -115 -64q-72 0 -115 46.5t-43 119.5q0 82 55.5 124t147.5 42h49v19q0 38 -10.5 56.5t-36.5 18.5q-46 0 -53 -47h-137q4 84 54.5 131t137.5 47zM275 167v42h-46
q-67 0 -67 -57q0 -22 12.5 -36t39.5 -14q28 0 44.5 17.5t16.5 47.5z" />
    <glyph glyph-name="atilde" unicode="&#xe3;" horiz-adv-x="462" 
d="M201 639q-24 0 -28 -25h-77q3 51 28 78.5t63 27.5q24 0 46.5 -14t31.5 -14q23 0 28 25h77q-3 -49 -28 -77.5t-63 -28.5q-23 0 -45.5 14t-32.5 14zM230 543q94 0 138 -51.5t44 -154.5v-337h-108l-8 50q-34 -64 -115 -64q-72 0 -115 46.5t-43 119.5q0 82 55.5 124t147.5 42
h49v19q0 38 -10.5 56.5t-36.5 18.5q-46 0 -53 -47h-137q4 84 54.5 131t137.5 47zM275 167v42h-46q-67 0 -67 -57q0 -22 12.5 -36t39.5 -14q28 0 44.5 17.5t16.5 47.5z" />
    <glyph glyph-name="adieresis" unicode="&#xe4;" horiz-adv-x="462" 
d="M152 614q-28 0 -44.5 16.5t-16.5 44.5t16.5 44.5t44.5 16.5t44.5 -16.5t16.5 -44.5t-16.5 -44.5t-44.5 -16.5zM314 614q-28 0 -44.5 16.5t-16.5 44.5t16.5 44.5t44.5 16.5t44.5 -16.5t16.5 -44.5t-16.5 -44.5t-44.5 -16.5zM230 543q94 0 138 -51.5t44 -154.5v-337h-108
l-8 50q-34 -64 -115 -64q-72 0 -115 46.5t-43 119.5q0 82 55.5 124t147.5 42h49v19q0 38 -10.5 56.5t-36.5 18.5q-46 0 -53 -47h-137q4 84 54.5 131t137.5 47zM275 167v42h-46q-67 0 -67 -57q0 -22 12.5 -36t39.5 -14q28 0 44.5 17.5t16.5 47.5z" />
    <glyph glyph-name="aring" unicode="&#xe5;" horiz-adv-x="462" 
d="M233 606q-41 0 -66.5 25t-25.5 65q0 39 25.5 63.5t66.5 24.5t66.5 -24.5t25.5 -63.5q0 -40 -25.5 -65t-66.5 -25zM233 728q-15 0 -24 -9t-9 -24t9 -24t24 -9t24 9t9 24t-9 24t-24 9zM230 543q94 0 138 -51.5t44 -154.5v-337h-108l-8 50q-34 -64 -115 -64q-72 0 -115 46.5
t-43 119.5q0 82 55.5 124t147.5 42h49v19q0 38 -10.5 56.5t-36.5 18.5q-46 0 -53 -47h-137q4 84 54.5 131t137.5 47zM275 167v42h-46q-67 0 -67 -57q0 -22 12.5 -36t39.5 -14q28 0 44.5 17.5t16.5 47.5z" />
    <glyph glyph-name="ae" unicode="&#xe6;" horiz-adv-x="699" 
d="M530 167h138q-8 -85 -61 -132t-141 -47q-74 0 -127 57q-45 -59 -158 -59q-72 0 -115 46.5t-43 120.5q0 82 56 124.5t149 42.5h51v17q0 38 -10.5 56.5t-38.5 18.5q-48 0 -55 -47h-137q4 84 55 131t139 47q76 0 118 -49q47 49 117 49q92 0 143 -54t51 -151v-120h-249v-21
q0 -79 56 -79q29 0 42 11t20 38zM412 340v-29h114v29q0 77 -58 77q-56 0 -56 -77zM279 167v42h-48q-32 0 -50.5 -14.5t-18.5 -41.5q0 -22 13.5 -36.5t40.5 -14.5q29 0 46 17t17 48z" />
    <glyph glyph-name="ccedilla" unicode="&#xe7;" horiz-adv-x="442" 
d="M423 187q-2 -82 -42.5 -133t-111.5 -63l-11 -38h9q33 0 53.5 -19.5t20.5 -50.5q0 -41 -30.5 -65.5t-79.5 -24.5q-43 0 -75 24t-36 62h71q14 -22 40 -22q34 0 34 29q0 25 -33 25q-18 0 -33 -6l-20 20l17 65q-75 9 -116.5 60.5t-41.5 136.5v158q0 93 50 145.5t139 52.5
q93 0 142.5 -51.5t52.5 -146.5h-137q-3 68 -55 68q-54 0 -54 -68v-158q0 -69 54 -69q51 0 56 69h137z" />
    <glyph glyph-name="egrave" unicode="&#xe8;" horiz-adv-x="458" 
d="M314 609h-94l-93 137h113zM289 169h138q-8 -86 -60 -133.5t-139 -47.5q-89 0 -139.5 55.5t-50.5 153.5v141q0 97 50.5 151t141.5 54q92 0 143.5 -54t51.5 -151v-119h-250v-22q0 -79 55 -79q28 0 40 11t19 40zM231 417q-56 0 -56 -77v-28h115v28q0 77 -59 77z" />
    <glyph glyph-name="eacute" unicode="&#xe9;" horiz-adv-x="458" 
d="M351 746l-93 -137h-94l74 137h113zM289 169h138q-8 -86 -60 -133.5t-139 -47.5q-89 0 -139.5 55.5t-50.5 153.5v141q0 97 50.5 151t141.5 54q92 0 143.5 -54t51.5 -151v-119h-250v-22q0 -79 55 -79q28 0 40 11t19 40zM231 417q-56 0 -56 -77v-28h115v28q0 77 -59 77z" />
    <glyph glyph-name="ecircumflex" unicode="&#xea;" horiz-adv-x="458" 
d="M230 676l-44 -67h-89l81 137h103l81 -137h-89zM289 169h138q-8 -86 -60 -133.5t-139 -47.5q-89 0 -139.5 55.5t-50.5 153.5v141q0 97 50.5 151t141.5 54q92 0 143.5 -54t51.5 -151v-119h-250v-22q0 -79 55 -79q28 0 40 11t19 40zM231 417q-56 0 -56 -77v-28h115v28
q0 77 -59 77z" />
    <glyph glyph-name="edieresis" unicode="&#xeb;" horiz-adv-x="458" 
d="M149 614q-28 0 -44.5 16.5t-16.5 44.5t16.5 44.5t44.5 16.5t44.5 -16.5t16.5 -44.5t-16.5 -44.5t-44.5 -16.5zM311 614q-28 0 -44.5 16.5t-16.5 44.5t16.5 44.5t44.5 16.5t44.5 -16.5t16.5 -44.5t-16.5 -44.5t-44.5 -16.5zM289 169h138q-8 -86 -60 -133.5t-139 -47.5
q-89 0 -139.5 55.5t-50.5 153.5v141q0 97 50.5 151t141.5 54q92 0 143.5 -54t51.5 -151v-119h-250v-22q0 -79 55 -79q28 0 40 11t19 40zM231 417q-56 0 -56 -77v-28h115v28q0 77 -59 77z" />
    <glyph glyph-name="igrave" unicode="&#xec;" horiz-adv-x="237" 
d="M203 609h-94l-93 137h113zM50 0v530h137v-530h-137z" />
    <glyph glyph-name="iacute" unicode="&#xed;" horiz-adv-x="237" 
d="M53 609l74 137h113l-93 -137h-94zM50 0v530h137v-530h-137z" />
    <glyph glyph-name="icircumflex" unicode="&#xee;" horiz-adv-x="241" 
d="M121 675l-42 -66h-87l79 137h99l79 -137h-87zM52 0v530h137v-530h-137z" />
    <glyph glyph-name="idieresis" unicode="&#xef;" horiz-adv-x="266" 
d="M58 616q-26 0 -42 16t-16 43t16 43t42 16q27 0 43 -16t16 -43t-16 -43t-43 -16zM208 616q-27 0 -43 16t-16 43t16 43t43 16q26 0 42 -16t16 -43t-16 -43t-42 -16zM64 0v530h137v-530h-137z" />
    <glyph glyph-name="eth" unicode="&#xf0;" horiz-adv-x="472" 
d="M360 623q71 -100 72 -266v-158q0 -101 -52 -156t-145 -55t-145 55t-52 156v94q0 101 49 155.5t138 54.5q27 0 54 -11q-14 42 -38 72l-68 -33l-19 42l53 26q-26 22 -64 36l50 105q84 -25 137 -81l59 29l19 -42zM293 199v94q0 78 -58 78t-58 -78v-94q0 -79 58 -79t58 79z
" />
    <glyph glyph-name="ntilde" unicode="&#xf1;" horiz-adv-x="476" 
d="M207 639q-24 0 -28 -25h-77q3 51 28 78.5t63 27.5q24 0 46.5 -14t31.5 -14q23 0 28 25h77q-3 -49 -28 -77.5t-63 -28.5q-23 0 -45.5 14t-32.5 14zM275 543q74 0 115 -55.5t41 -162.5v-325h-137v325q0 88 -51 88q-57 0 -57 -78v-335h-136v530h90l10 -54q41 67 125 67z" />
    <glyph glyph-name="ograve" unicode="&#xf2;" horiz-adv-x="470" 
d="M319 609h-94l-93 137h113zM235 -13q-93 0 -145 55t-52 156v135q0 101 52 155.5t145 54.5t145 -54.5t52 -155.5v-135q0 -101 -52 -156t-145 -55zM235 119q58 0 58 79v135q0 78 -58 78t-58 -78v-135q0 -79 58 -79z" />
    <glyph glyph-name="oacute" unicode="&#xf3;" horiz-adv-x="470" 
d="M169 609l74 137h113l-93 -137h-94zM235 -13q-93 0 -145 55t-52 156v135q0 101 52 155.5t145 54.5t145 -54.5t52 -155.5v-135q0 -101 -52 -156t-145 -55zM235 119q58 0 58 79v135q0 78 -58 78t-58 -78v-135q0 -79 58 -79z" />
    <glyph glyph-name="ocircumflex" unicode="&#xf4;" horiz-adv-x="470" 
d="M235 676l-44 -67h-89l81 137h103l81 -137h-89zM235 543q93 0 145 -54.5t52 -155.5v-135q0 -101 -52 -156t-145 -55t-145 55t-52 156v135q0 101 52 155.5t145 54.5zM293 198v135q0 78 -58 78t-58 -78v-135q0 -79 58 -79t58 79z" />
    <glyph glyph-name="otilde" unicode="&#xf5;" horiz-adv-x="470" 
d="M281 611q-23 0 -45.5 14t-32.5 14q-24 0 -28 -25h-77q3 51 28 78.5t63 27.5q24 0 46.5 -14t31.5 -14q23 0 28 25h77q-3 -49 -28 -77.5t-63 -28.5zM235 -13q-93 0 -145 55t-52 156v135q0 101 52 155.5t145 54.5t145 -54.5t52 -155.5v-135q0 -101 -52 -156t-145 -55z
M235 119q58 0 58 79v135q0 78 -58 78t-58 -78v-135q0 -79 58 -79z" />
    <glyph glyph-name="odieresis" unicode="&#xf6;" horiz-adv-x="470" 
d="M154 614q-28 0 -44.5 16.5t-16.5 44.5t16.5 44.5t44.5 16.5t44.5 -16.5t16.5 -44.5t-16.5 -44.5t-44.5 -16.5zM316 614q-28 0 -44.5 16.5t-16.5 44.5t16.5 44.5t44.5 16.5t44.5 -16.5t16.5 -44.5t-16.5 -44.5t-44.5 -16.5zM235 -13q-93 0 -145 55t-52 156v135
q0 101 52 155.5t145 54.5t145 -54.5t52 -155.5v-135q0 -101 -52 -156t-145 -55zM235 119q58 0 58 79v135q0 78 -58 78t-58 -78v-135q0 -79 58 -79z" />
    <glyph glyph-name="divide" unicode="&#xf7;" horiz-adv-x="480" 
d="M242 393q-32 0 -51.5 19.5t-19.5 51.5t19.5 51.5t51.5 19.5t51.5 -19.5t19.5 -51.5t-19.5 -51.5t-51.5 -19.5zM40 244v115h400v-115h-400zM242 63q-32 0 -51.5 19.5t-19.5 51.5t19.5 51.5t51.5 19.5t51.5 -19.5t19.5 -51.5t-19.5 -51.5t-51.5 -19.5z" />
    <glyph glyph-name="oslash" unicode="&#xf8;" horiz-adv-x="456" 
d="M362 499q63 -54 63 -166v-134q0 -101 -52 -156t-145 -55q-31 0 -58 6l-26 -68h-86l39 103q-66 55 -66 170v134q0 101 52 155.5t145 54.5q35 0 62 -7l28 72h86zM286 199v134q0 78 -58 78t-58 -78v-134q0 -79 58 -79t58 79z" />
    <glyph glyph-name="ugrave" unicode="&#xf9;" horiz-adv-x="476" 
d="M318 609h-94l-93 137h113zM290 530h136v-530h-90l-10 54q-41 -67 -125 -67q-74 0 -115 55.5t-41 162.5v325h137v-325q0 -88 51 -88q57 0 57 78v335z" />
    <glyph glyph-name="uacute" unicode="&#xfa;" horiz-adv-x="476" 
d="M355 746l-93 -137h-94l74 137h113zM290 530h136v-530h-90l-10 54q-41 -67 -125 -67q-74 0 -115 55.5t-41 162.5v325h137v-325q0 -88 51 -88q57 0 57 78v335z" />
    <glyph glyph-name="ucircumflex" unicode="&#xfb;" horiz-adv-x="476" 
d="M234 676l-44 -67h-89l81 137h103l81 -137h-89zM290 530h136v-530h-90l-10 54q-41 -67 -125 -67q-74 0 -115 55.5t-41 162.5v325h137v-325q0 -88 51 -88q57 0 57 78v335z" />
    <glyph glyph-name="udieresis" unicode="&#xfc;" horiz-adv-x="476" 
d="M153 614q-28 0 -44.5 16.5t-16.5 44.5t16.5 44.5t44.5 16.5t44.5 -16.5t16.5 -44.5t-16.5 -44.5t-44.5 -16.5zM315 614q-28 0 -44.5 16.5t-16.5 44.5t16.5 44.5t44.5 16.5t44.5 -16.5t16.5 -44.5t-16.5 -44.5t-44.5 -16.5zM290 530h136v-530h-90l-10 54q-41 -67 -125 -67
q-74 0 -115 55.5t-41 162.5v325h137v-325q0 -88 51 -88q57 0 57 78v335z" />
    <glyph glyph-name="yacute" unicode="&#xfd;" horiz-adv-x="446" 
d="M348 749l-93 -137h-94l74 137h113zM309 530h137l-163 -546q-24 -81 -62.5 -126.5t-100.5 -45.5h-70v131h40q27 0 43.5 16t26.5 50l11 39l-171 482h144l49 -158l35 -123l35 121z" />
    <glyph glyph-name="thorn" unicode="&#xfe;" horiz-adv-x="473" 
d="M263 558q77 0 124.5 -57t47.5 -151v-155q0 -94 -47.5 -151t-124.5 -57q-43 0 -80 29v-196h-133v905h133v-196q37 29 80 29zM296 195v155q0 78 -53 78q-60 0 -60 -78v-155q0 -78 60 -78q53 0 53 78z" />
    <glyph glyph-name="ydieresis" unicode="&#xff;" horiz-adv-x="446" 
d="M146 617q-28 0 -44.5 16.5t-16.5 44.5t16.5 44.5t44.5 16.5t44.5 -16.5t16.5 -44.5t-16.5 -44.5t-44.5 -16.5zM308 617q-28 0 -44.5 16.5t-16.5 44.5t16.5 44.5t44.5 16.5t44.5 -16.5t16.5 -44.5t-16.5 -44.5t-44.5 -16.5zM309 530h137l-163 -546q-24 -81 -62.5 -126.5
t-100.5 -45.5h-70v131h40q27 0 43.5 16t26.5 50l11 39l-171 482h144l49 -158l35 -123l35 121z" />
    <glyph glyph-name="Amacron" unicode="&#x100;" horiz-adv-x="494" 
d="M361 876v-87h-220v87h220zM344 0l-23 116h-148l-23 -116h-147l168 700h152l168 -700h-147zM201 251h92l-16 80q-14 77 -28 192h-4q-17 -135 -28 -192z" />
    <glyph glyph-name="amacron" unicode="&#x101;" horiz-adv-x="462" 
d="M342 719v-87h-220v87h220zM230 543q94 0 138 -51.5t44 -154.5v-337h-108l-8 50q-34 -64 -115 -64q-72 0 -115 46.5t-43 119.5q0 82 55.5 124t147.5 42h49v19q0 38 -10.5 56.5t-36.5 18.5q-46 0 -53 -47h-137q4 84 54.5 131t137.5 47zM275 167v42h-46q-67 0 -67 -57
q0 -22 12.5 -36t39.5 -14q28 0 44.5 17.5t16.5 47.5z" />
    <glyph glyph-name="Abreve" unicode="&#x102;" horiz-adv-x="494" 
d="M251 770q-55 0 -91 33.5t-38 90.5h87q0 -19 12 -30t29 -11t29 11t12 30h87q-2 -59 -37.5 -91.5t-89.5 -32.5zM344 0l-23 116h-148l-23 -116h-147l168 700h152l168 -700h-147zM201 251h92l-16 80q-14 77 -28 192h-4q-17 -135 -28 -192z" />
    <glyph glyph-name="abreve" unicode="&#x103;" horiz-adv-x="462" 
d="M234 612q-55 0 -91 33.5t-38 90.5h87q0 -19 12 -30t29 -11t29 11t12 30h87q-2 -59 -37.5 -91.5t-89.5 -32.5zM230 543q94 0 138 -51.5t44 -154.5v-337h-108l-8 50q-34 -64 -115 -64q-72 0 -115 46.5t-43 119.5q0 82 55.5 124t147.5 42h49v19q0 38 -10.5 56.5t-36.5 18.5
q-46 0 -53 -47h-137q4 84 54.5 131t137.5 47zM275 167v42h-46q-67 0 -67 -57q0 -22 12.5 -36t39.5 -14q28 0 44.5 17.5t16.5 47.5z" />
    <glyph glyph-name="Aogonek" unicode="&#x104;" horiz-adv-x="494" 
d="M444 -93q15 0 27 3l1 -91q-28 -13 -83 -13q-47 0 -73.5 22.5t-26.5 62.5q0 61 55 109l-23 116h-148l-23 -116h-147l168 700h152l168 -700h-32q-21 -15 -33.5 -34.5t-12.5 -33.5q0 -25 31 -25zM201 251h92l-16 80q-14 77 -28 192h-4q-17 -135 -28 -192z" />
    <glyph glyph-name="aogonek" unicode="&#x105;" horiz-adv-x="466" 
d="M341 -194q-50 0 -74 24t-24 65q0 58 64 105l-8 50q-34 -64 -118 -64q-72 0 -115 46.5t-43 119.5q0 83 56 126t149 43h50v16q0 38 -10.5 56.5t-37.5 18.5q-48 0 -55 -47h-137q4 84 55 131t139 47q94 0 138.5 -51.5t44.5 -154.5v-337q-58 -36 -58 -73q0 -22 27 -22
q15 0 32 5v-92q-30 -12 -75 -12zM216 102q29 0 45.5 17t16.5 48v39h-47q-69 0 -69 -54q0 -21 13.5 -35.5t40.5 -14.5z" />
    <glyph glyph-name="Cacute" unicode="&#x106;" horiz-adv-x="504" 
d="M185 767l94 137h113l-113 -137h-94zM258 -12q-103 0 -159.5 58.5t-56.5 167.5v272q0 110 57 169t160 59q105 0 162 -58.5t61 -169.5h-142q-3 48 -22 69t-60 21q-68 0 -68 -90v-272q0 -88 68 -88q41 0 61 21t23 67h142q-2 -110 -60.5 -168t-165.5 -58z" />
    <glyph glyph-name="cacute" unicode="&#x107;" horiz-adv-x="442" 
d="M167 609l74 137h113l-93 -137h-94zM227 -12q-89 0 -139 52.5t-50 146.5v158q0 93 50 145.5t139 52.5q93 0 142.5 -51.5t52.5 -146.5h-137q-3 68 -55 68q-54 0 -54 -68v-158q0 -69 54 -69q51 0 56 69h137q-2 -94 -54 -146.5t-142 -52.5z" />
    <glyph glyph-name="Cdotaccent" unicode="&#x10a;" horiz-adv-x="504" 
d="M254 762q-33 0 -54 21.5t-21 53.5t21 53.5t54 21.5q32 0 53.5 -21.5t21.5 -53.5q0 -30 -22 -52.5t-53 -22.5zM258 -12q-103 0 -159.5 58.5t-56.5 167.5v272q0 110 57 169t160 59q105 0 162 -58.5t61 -169.5h-142q-3 48 -22 69t-60 21q-68 0 -68 -90v-272q0 -88 68 -88
q41 0 61 21t23 67h142q-2 -110 -60.5 -168t-165.5 -58z" />
    <glyph glyph-name="cdotaccent" unicode="&#x10b;" horiz-adv-x="442" 
d="M233 608q-33 0 -54 21.5t-21 53.5t21 53.5t54 21.5q32 0 53.5 -21.5t21.5 -53.5q0 -30 -22 -52.5t-53 -22.5zM227 -12q-89 0 -139 52.5t-50 146.5v158q0 93 50 145.5t139 52.5q93 0 142.5 -51.5t52.5 -146.5h-137q-3 68 -55 68q-54 0 -54 -68v-158q0 -69 54 -69
q51 0 56 69h137q-2 -94 -54 -146.5t-142 -52.5z" />
    <glyph glyph-name="Ccaron" unicode="&#x10c;" horiz-adv-x="504" 
d="M307 767h-103l-81 137h89l44 -67l43 67h89zM342 214h142q-2 -110 -60.5 -168t-165.5 -58q-103 0 -159.5 58.5t-56.5 167.5v272q0 110 57 169t160 59q105 0 162 -58.5t61 -169.5h-142q-3 48 -22 69t-60 21q-68 0 -68 -90v-272q0 -88 68 -88q41 0 61 21t23 67z" />
    <glyph glyph-name="ccaron" unicode="&#x10d;" horiz-adv-x="442" 
d="M284 609h-103l-81 137h89l44 -67l43 67h89zM286 187h137q-2 -94 -54 -146.5t-142 -52.5q-89 0 -139 52.5t-50 146.5v158q0 93 50 145.5t139 52.5q93 0 142.5 -51.5t52.5 -146.5h-137q-3 68 -55 68q-54 0 -54 -68v-158q0 -69 54 -69q51 0 56 69z" />
    <glyph glyph-name="Dcaron" unicode="&#x10e;" horiz-adv-x="520" 
d="M306 767h-103l-81 137h89l44 -67l43 67h89zM254 700q106 0 165 -61t59 -171v-231q0 -112 -58.5 -174.5t-163.5 -62.5h-194v700h192zM334 237v231q0 97 -78 97h-52v-430h52q78 0 78 102z" />
    <glyph glyph-name="dcaron" unicode="&#x10f;" horiz-adv-x="584" 
d="M492 780h114l-52 -201h-79zM290 514v211h133v-726h-93l-6 47q-51 -58 -114 -58q-78 0 -125 57.5t-47 151.5v138q0 94 47.5 151t124.5 57q43 0 80 -29zM290 197v138q0 78 -60 78q-53 0 -53 -78v-138q0 -79 53 -79q60 0 60 79z" />
    <glyph glyph-name="Dcroat" unicode="&#x110;" horiz-adv-x="528" 
d="M252 700q108 0 171 -56t63 -156v-271q0 -103 -62.5 -160t-169.5 -57h-186v317h-63v83h63v300h184zM340 217v271q0 43 -19.5 60t-58.5 17h-52v-165h69v-83h-69v-182h52q40 0 59 17.5t19 64.5z" />
    <glyph glyph-name="dcroat" unicode="&#x111;" horiz-adv-x="482" 
d="M493 652v-66h-70v-587h-93l-6 47q-51 -58 -114 -58q-78 0 -125 57.5t-47 151.5v138q0 94 47.5 151t124.5 57q43 0 80 -29v72h-101v66h101v73h133v-73h70zM290 197v138q0 78 -60 78q-53 0 -53 -78v-138q0 -79 53 -79q60 0 60 79z" />
    <glyph glyph-name="Emacron" unicode="&#x112;" horiz-adv-x="468" 
d="M361 876v-87h-220v87h220zM204 135h229v-135h-371v700h361v-135h-219v-145h199v-130h-199v-155z" />
    <glyph glyph-name="emacron" unicode="&#x113;" horiz-adv-x="458" 
d="M339 719v-87h-220v87h220zM289 169h138q-8 -86 -60 -133.5t-139 -47.5q-89 0 -139.5 55.5t-50.5 153.5v141q0 97 50.5 151t141.5 54q92 0 143.5 -54t51.5 -151v-119h-250v-22q0 -79 55 -79q28 0 40 11t19 40zM231 417q-56 0 -56 -77v-28h115v28q0 77 -59 77z" />
    <glyph glyph-name="Edotaccent" unicode="&#x116;" horiz-adv-x="468" 
d="M247 762q-33 0 -54 21.5t-21 53.5t21 53.5t54 21.5q32 0 53.5 -21.5t21.5 -53.5q0 -30 -22 -52.5t-53 -22.5zM204 135h229v-135h-371v700h361v-135h-219v-145h199v-130h-199v-155z" />
    <glyph glyph-name="edotaccent" unicode="&#x117;" horiz-adv-x="458" 
d="M230 608q-33 0 -54 21.5t-21 53.5t21 53.5t54 21.5q32 0 53.5 -21.5t21.5 -53.5q0 -30 -22 -52.5t-53 -22.5zM289 169h138q-8 -86 -60 -133.5t-139 -47.5q-89 0 -139.5 55.5t-50.5 153.5v141q0 97 50.5 151t141.5 54q92 0 143.5 -54t51.5 -151v-119h-250v-22
q0 -79 55 -79q28 0 40 11t19 40zM231 417q-56 0 -56 -77v-28h115v28q0 77 -59 77z" />
    <glyph glyph-name="Eogonek" unicode="&#x118;" horiz-adv-x="469" 
d="M433 -90l1 -91q-28 -13 -83 -13q-47 0 -73.5 22.5t-26.5 62.5q0 61 68 109h-257v700h361v-135h-219v-145h199v-130h-199v-155h229v-135q-27 -15 -42.5 -34.5t-15.5 -33.5q0 -25 31 -25q15 0 27 3z" />
    <glyph glyph-name="eogonek" unicode="&#x119;" horiz-adv-x="461" 
d="M301 -194q-47 0 -73.5 22.5t-26.5 63.5q0 53 60 98v2q-14 -4 -33 -4q-89 0 -139.5 55.5t-50.5 153.5v141q0 97 50.5 151t140.5 54q92 0 143 -54t51 -151v-119h-248v-22q0 -79 55 -79q29 0 42 11.5t20 40.5h138q-4 -38 -21 -76t-40 -60q-56 -54 -56 -91q0 -36 38 -36
q21 0 33 3v-91q-35 -13 -83 -13zM175 312h113v28q0 77 -58 77q-55 0 -55 -77v-28z" />
    <glyph glyph-name="Ecaron" unicode="&#x11a;" horiz-adv-x="468" 
d="M300 767h-103l-81 137h89l44 -67l43 67h89zM204 135h229v-135h-371v700h361v-135h-219v-145h199v-130h-199v-155z" />
    <glyph glyph-name="ecaron" unicode="&#x11b;" horiz-adv-x="458" 
d="M281 609h-103l-81 137h89l44 -67l43 67h89zM289 169h138q-8 -86 -60 -133.5t-139 -47.5q-89 0 -139.5 55.5t-50.5 153.5v141q0 97 50.5 151t141.5 54q92 0 143.5 -54t51.5 -151v-119h-250v-22q0 -79 55 -79q28 0 40 11t19 40zM231 417q-56 0 -56 -77v-28h115v28
q0 77 -59 77z" />
    <glyph glyph-name="Gbreve" unicode="&#x11e;" horiz-adv-x="517" 
d="M265 770q-55 0 -91 33.5t-38 90.5h87q0 -19 12 -30t29 -11t29 11t12 30h87q-2 -59 -37.5 -91.5t-89.5 -32.5zM263 -12q-105 0 -163 58.5t-58 167.5v272q0 109 58 167.5t164 58.5q101 0 155.5 -58t58.5 -168h-142q-2 48 -18.5 68.5t-53.5 20.5q-74 0 -74 -89v-272
q0 -89 75 -89q39 0 58 21t19 68v50h-84v126h224v-176q-3 -110 -59.5 -168t-159.5 -58z" />
    <glyph glyph-name="gbreve" unicode="&#x11f;" horiz-adv-x="477" 
d="M235 612q-55 0 -91 33.5t-38 90.5h87q0 -19 12 -30t29 -11t29 11t12 30h87q-2 -59 -37.5 -91.5t-89.5 -32.5zM334 530h93v-547q0 -81 -49.5 -129t-137.5 -48q-86 0 -134.5 47.5t-50.5 129.5h135q5 -50 50 -50q23 0 35.5 13.5t12.5 36.5v66q-36 -22 -80 -22
q-73 0 -121.5 56t-48.5 142v118q0 87 48 143.5t122 56.5q71 0 117 -44zM230 156q58 0 58 69v118q0 68 -58 68q-54 0 -54 -68v-118q0 -69 54 -69z" />
    <glyph glyph-name="Gdotaccent" unicode="&#x120;" horiz-adv-x="517" 
d="M261 762q-33 0 -54 21.5t-21 53.5t21 53.5t54 21.5q32 0 53.5 -21.5t21.5 -53.5q0 -30 -22 -52.5t-53 -22.5zM263 -12q-105 0 -163 58.5t-58 167.5v272q0 109 58 167.5t164 58.5q101 0 155.5 -58t58.5 -168h-142q-2 48 -18.5 68.5t-53.5 20.5q-74 0 -74 -89v-272
q0 -89 75 -89q39 0 58 21t19 68v50h-84v126h224v-176q-3 -110 -59.5 -168t-159.5 -58z" />
    <glyph glyph-name="gdotaccent" unicode="&#x121;" horiz-adv-x="477" 
d="M234 608q-33 0 -54 21.5t-21 53.5t21 53.5t54 21.5q32 0 53.5 -21.5t21.5 -53.5q0 -30 -22 -52.5t-53 -22.5zM334 530h93v-547q0 -81 -49.5 -129t-137.5 -48q-86 0 -134.5 47.5t-50.5 129.5h135q5 -50 50 -50q23 0 35.5 13.5t12.5 36.5v66q-36 -22 -80 -22
q-73 0 -121.5 56t-48.5 142v118q0 87 48 143.5t122 56.5q71 0 117 -44zM230 156q58 0 58 69v118q0 68 -58 68q-54 0 -54 -68v-118q0 -69 54 -69z" />
    <glyph glyph-name="uni0122" unicode="&#x122;" horiz-adv-x="517" 
d="M263 -12q-105 0 -163 58.5t-58 167.5v272q0 109 58 167.5t164 58.5q101 0 155.5 -58t58.5 -168h-142q-2 48 -18.5 68.5t-53.5 20.5q-74 0 -74 -89v-272q0 -89 75 -89q39 0 58 21t19 68v50h-84v126h224v-176q-3 -110 -59.5 -168t-159.5 -58zM194 -281l16 209h114l-51 -209
h-79z" />
    <glyph glyph-name="uni0123" unicode="&#x123;" horiz-adv-x="477" 
d="M286 601h-127l-17 216h84zM334 530h93v-547q0 -81 -49.5 -129t-137.5 -48q-86 0 -134.5 47.5t-50.5 129.5h135q5 -50 50 -50q23 0 35.5 13.5t12.5 36.5v66q-36 -22 -80 -22q-73 0 -121.5 56t-48.5 142v118q0 87 48 143.5t122 56.5q71 0 117 -44zM230 156q58 0 58 69v118
q0 68 -58 68q-54 0 -54 -68v-118q0 -69 54 -69z" />
    <glyph glyph-name="Hbar" unicode="&#x126;" horiz-adv-x="588" 
d="M574 587v-66h-65v-521h-143v285h-144v-285h-143v521h-65v66h65v113h143v-113h144v113h143v-113h65zM366 420v101h-144v-101h144z" />
    <glyph glyph-name="hbar" unicode="&#x127;" horiz-adv-x="475" 
d="M280 543q71 0 110.5 -55.5t39.5 -162.5v-325h-137v325q0 88 -51 88q-57 0 -57 -78v-335h-136v599h-63v66h63v60h136v-60h91v-66h-91v-106q39 50 95 50z" />
    <glyph glyph-name="Imacron" unicode="&#x12a;" horiz-adv-x="266" 
d="M28 789v87h220v-87h-220zM62 0v700h142v-700h-142z" />
    <glyph glyph-name="imacron" unicode="&#x12b;" horiz-adv-x="233" 
d="M19 630v90h195v-90h-195zM48 0v530h137v-530h-137z" />
    <glyph glyph-name="Iogonek" unicode="&#x12e;" horiz-adv-x="268" 
d="M190 -92q16 0 29 3v-91q-39 -14 -87 -14q-106 0 -106 91q0 28 16.5 56.5t43.5 46.5h-23v700h142v-700h-24q-34 -31 -34 -66q0 -26 43 -26z" />
    <glyph glyph-name="iogonek" unicode="&#x12f;" horiz-adv-x="235" 
d="M112 608q-33 0 -54 21.5t-21 53.5t21 53.5t54 21.5q32 0 53.5 -21.5t21.5 -53.5q0 -30 -22 -52.5t-53 -22.5zM167 -93q15 0 28 3v-91q-28 -13 -92 -13q-47 0 -73.5 22.5t-26.5 62.5q0 61 40 109v530h137v-530h-28q-26 -31 -26 -66q0 -27 41 -27z" />
    <glyph glyph-name="Idotaccent" unicode="&#x130;" horiz-adv-x="266" 
d="M134 762q-33 0 -54 21.5t-21 53.5t21 53.5t54 21.5q32 0 53.5 -21.5t21.5 -53.5q0 -30 -22 -52.5t-53 -22.5zM62 0v700h142v-700h-142z" />
    <glyph glyph-name="dotlessi" unicode="&#x131;" horiz-adv-x="237" 
d="M50 0v530h137v-530h-137z" />
    <glyph glyph-name="uni0136" unicode="&#x136;" horiz-adv-x="528" 
d="M320 394l208 -394h-160l-127 265l-39 -63v-202h-140v700h140v-268l36 78l98 190h162zM197 -281l16 209h114l-51 -209h-79z" />
    <glyph glyph-name="uni0137" unicode="&#x137;" horiz-adv-x="457" 
d="M300 320l163 -320h-152l-101 213l-25 -25v-188h-135v725h135v-358l98 163h157zM161 -281l16 209h114l-51 -209h-79z" />
    <glyph glyph-name="Lacute" unicode="&#x139;" horiz-adv-x="418" 
d="M284 904l-113 -137h-94l94 137h113zM204 135h208v-135h-350v700h142v-565z" />
    <glyph glyph-name="lacute" unicode="&#x13a;" horiz-adv-x="222" 
d="M43 767l94 137h113l-113 -137h-94zM43 0v725h136v-725h-136z" />
    <glyph glyph-name="uni013B" unicode="&#x13b;" horiz-adv-x="418" 
d="M204 135h208v-135h-350v700h142v-565zM167 -281l16 209h114l-51 -209h-79z" />
    <glyph glyph-name="uni013C" unicode="&#x13c;" horiz-adv-x="222" 
d="M43 0v725h136v-725h-136zM47 -281l16 209h114l-51 -209h-79z" />
    <glyph glyph-name="Lcaron" unicode="&#x13d;" horiz-adv-x="422" 
d="M204 700v-565h194v-135h-336v700h142zM416 700l-48 -200h-79l10 200h117z" />
    <glyph glyph-name="lcaron" unicode="&#x13e;" horiz-adv-x="340" 
d="M231 579l17 201h114l-52 -201h-79zM43 0v725h136v-725h-136z" />
    <glyph glyph-name="Lslash" unicode="&#x141;" horiz-adv-x="447" 
d="M233 135h208v-135h-350v280l-72 -27v117l72 27v303h142v-249l115 43v-117l-115 -43v-199z" />
    <glyph glyph-name="lslash" unicode="&#x142;" horiz-adv-x="283" 
d="M272 501v-103l-62 -21v-377h-136v332l-63 -21v103l63 21v290h136v-245z" />
    <glyph glyph-name="Nacute" unicode="&#x143;" horiz-adv-x="570" 
d="M216 767l94 137h113l-113 -137h-94zM62 0v700h140l133 -304l50 -134l3 3q-20 147 -20 273v162h140v-700h-140l-118 271l-63 171l-3 -3q18 -144 18 -297v-142h-140z" />
    <glyph glyph-name="nacute" unicode="&#x144;" horiz-adv-x="476" 
d="M360 746l-93 -137h-94l74 137h113zM275 543q74 0 115 -55.5t41 -162.5v-325h-137v325q0 88 -51 88q-57 0 -57 -78v-335h-136v530h90l10 -54q41 67 125 67z" />
    <glyph glyph-name="uni0145" unicode="&#x145;" horiz-adv-x="570" 
d="M62 0v700h140l133 -304l50 -134l3 3q-20 147 -20 273v162h140v-700h-140l-118 271l-63 171l-3 -3q18 -144 18 -297v-142h-140zM218 -281l16 209h114l-51 -209h-79z" />
    <glyph glyph-name="uni0146" unicode="&#x146;" horiz-adv-x="476" 
d="M275 543q74 0 115 -55.5t41 -162.5v-325h-137v325q0 88 -51 88q-57 0 -57 -78v-335h-136v530h90l10 -54q41 67 125 67zM143 -281l16 209h114l-51 -209h-79z" />
    <glyph glyph-name="Ncaron" unicode="&#x147;" horiz-adv-x="570" 
d="M338 767h-103l-81 137h89l44 -67l43 67h89zM368 700h140v-700h-140l-118 271l-63 171l-3 -3q18 -144 18 -297v-142h-140v700h140l133 -304l50 -134l3 3q-20 147 -20 273v162z" />
    <glyph glyph-name="ncaron" unicode="&#x148;" horiz-adv-x="476" 
d="M290 609h-103l-81 137h89l44 -67l43 67h89zM275 543q74 0 115 -55.5t41 -162.5v-325h-137v325q0 88 -51 88q-57 0 -57 -78v-335h-136v530h90l10 -54q41 67 125 67z" />
    <glyph glyph-name="Eng" unicode="&#x14a;" horiz-adv-x="570" 
d="M368 700h140v-700h-1q-4 -93 -57.5 -143.5t-144.5 -50.5v130q59 0 66 57l-121 278l-63 171l-3 -3q18 -144 18 -297v-142h-140v700h140l133 -304l50 -134l3 3q-20 147 -20 273v162z" />
    <glyph glyph-name="eng" unicode="&#x14b;" horiz-adv-x="476" 
d="M227 -194v130q67 0 67 74v315q0 88 -51 88q-57 0 -57 -78v-335h-136v530h90l10 -54q41 67 125 67q74 0 115 -55.5t41 -162.5v-306q0 -102 -54 -157.5t-150 -55.5z" />
    <glyph glyph-name="Omacron" unicode="&#x14c;" horiz-adv-x="538" 
d="M162 789v87h220v-87h-220zM269 -12q-107 0 -167 63.5t-60 175.5v246q0 112 60 175.5t167 63.5t167 -63.5t60 -175.5v-246q0 -112 -60 -175.5t-167 -63.5zM269 126q80 0 80 101v246q0 101 -80 101t-80 -101v-246q0 -101 80 -101z" />
    <glyph glyph-name="omacron" unicode="&#x14d;" horiz-adv-x="470" 
d="M124 632v87h220v-87h-220zM235 -13q-93 0 -145 55t-52 156v135q0 101 52 155.5t145 54.5t145 -54.5t52 -155.5v-135q0 -101 -52 -156t-145 -55zM235 119q58 0 58 79v135q0 78 -58 78t-58 -78v-135q0 -79 58 -79z" />
    <glyph glyph-name="Ohungarumlaut" unicode="&#x150;" horiz-adv-x="538" 
d="M131 768l77 137h102l-93 -137h-86zM280 768l83 137h102l-99 -137h-86zM269 -12q-107 0 -167 63.5t-60 175.5v246q0 112 60 175.5t167 63.5t167 -63.5t60 -175.5v-246q0 -112 -60 -175.5t-167 -63.5zM269 126q80 0 80 101v246q0 101 -80 101t-80 -101v-246q0 -101 80 -101
z" />
    <glyph glyph-name="ohungarumlaut" unicode="&#x151;" horiz-adv-x="470" 
d="M93 609l77 137h102l-93 -137h-86zM242 609l83 137h102l-99 -137h-86zM235 -13q-93 0 -145 55t-52 156v135q0 101 52 155.5t145 54.5t145 -54.5t52 -155.5v-135q0 -101 -52 -156t-145 -55zM235 119q58 0 58 79v135q0 78 -58 78t-58 -78v-135q0 -79 58 -79z" />
    <glyph glyph-name="OE" unicode="&#x152;" horiz-adv-x="755" 
d="M491 135h229v-135h-371v27q-45 -39 -101 -39q-96 0 -151 63.5t-55 175.5v246q0 112 55 175.5t151 63.5q56 0 101 -39v27h361v-135h-219v-145h199v-130h-199v-155zM261 126q88 0 88 101v246q0 101 -88 101q-72 0 -72 -101v-246q0 -101 72 -101z" />
    <glyph glyph-name="oe" unicode="&#x153;" horiz-adv-x="716" 
d="M548 169h137q-8 -86 -61 -133.5t-141 -47.5q-75 0 -122 51q-48 -51 -126 -51q-93 0 -145 55t-52 156v134q0 102 51.5 156t145.5 54q78 0 126 -50q47 50 123 50q92 0 143 -54t51 -151v-119h-249v-22q0 -79 56 -79q30 0 43 11.5t20 39.5zM429 340v-28h115v28q0 77 -59 77
q-56 0 -56 -77zM294 199v134q0 78 -59 78t-59 -78v-134q0 -79 59 -79t59 79z" />
    <glyph glyph-name="Racute" unicode="&#x154;" horiz-adv-x="526" 
d="M390 904l-113 -137h-94l94 137h113zM366 0l-112 235h-50v-235h-142v700h203q104 0 162.5 -61.5t58.5 -171.5q0 -144 -97 -202l132 -265h-155zM204 565v-195h59q77 0 77 97q0 98 -77 98h-59z" />
    <glyph glyph-name="racute" unicode="&#x155;" horiz-adv-x="349" 
d="M308 746l-93 -137h-94l74 137h113zM284 543q37 0 58 -12v-130q-30 14 -64 14q-92 0 -92 -102v-313h-136v530h90l11 -61q43 74 133 74z" />
    <glyph glyph-name="uni0156" unicode="&#x156;" horiz-adv-x="526" 
d="M389 265l132 -265h-155l-112 235h-50v-235h-142v700h203q104 0 162.5 -61.5t58.5 -171.5q0 -144 -97 -202zM204 565v-195h59q77 0 77 97q0 98 -77 98h-59zM205 -281l16 209h114l-51 -209h-79z" />
    <glyph glyph-name="uni0157" unicode="&#x157;" horiz-adv-x="349" 
d="M284 543q37 0 58 -12v-130q-30 14 -64 14q-92 0 -92 -102v-313h-136v530h90l11 -61q43 74 133 74zM62 -281l16 209h114l-51 -209h-79z" />
    <glyph glyph-name="Rcaron" unicode="&#x158;" horiz-adv-x="526" 
d="M305 767h-103l-81 137h89l44 -67l43 67h89zM366 0l-112 235h-50v-235h-142v700h203q104 0 162.5 -61.5t58.5 -171.5q0 -144 -97 -202l132 -265h-155zM204 565v-195h59q77 0 77 97q0 98 -77 98h-59z" />
    <glyph glyph-name="rcaron" unicode="&#x159;" horiz-adv-x="349" 
d="M238 609h-103l-81 137h89l44 -67l43 67h89zM284 543q37 0 58 -12v-130q-30 14 -64 14q-92 0 -92 -102v-313h-136v530h90l11 -61q43 74 133 74z" />
    <glyph glyph-name="Sacute" unicode="&#x15a;" horiz-adv-x="479" 
d="M168 767l94 137h113l-113 -137h-94zM236 -14q-101 0 -159 57t-58 161h146q0 -80 73 -80q34 0 52 17.5t18 44.5t-20.5 51t-50.5 42t-66 42.5t-66 50t-50.5 66.5t-20.5 91q0 82 54.5 133.5t149.5 51.5q97 0 152 -54.5t55 -151.5h-146q0 69 -62 69q-28 0 -43.5 -14
t-15.5 -38q0 -25 20.5 -48t51.5 -39.5t67 -40t67 -49.5t51.5 -68.5t20.5 -94.5q0 -88 -59 -143.5t-161 -55.5z" />
    <glyph glyph-name="sacute" unicode="&#x15b;" horiz-adv-x="432" 
d="M153 612l74 137h113l-93 -137h-94zM224 -15q-97 0 -150.5 53.5t-55.5 130.5h136q5 -60 65 -60q27 0 42 11.5t15 30.5q0 22 -25.5 38.5t-62 30t-73.5 31.5t-62.5 53t-25.5 85q0 72 49 113t134 41q90 0 135.5 -47.5t51.5 -128.5h-131q-5 56 -56 56q-22 0 -35 -9.5
t-13 -24.5q0 -20 26 -34t62.5 -26.5t73 -30.5t62.5 -55.5t26 -90.5q0 -76 -50 -121.5t-138 -45.5z" />
    <glyph glyph-name="Scedilla" unicode="&#x15e;" horiz-adv-x="479" 
d="M456 185q0 -79 -48.5 -133t-134.5 -64l-10 -35h9q33 0 53.5 -19.5t20.5 -50.5q0 -41 -30 -65.5t-80 -24.5q-43 0 -75 24t-36 62h71q14 -22 40 -22q34 0 34 29q0 25 -33 25q-18 0 -33 -6l-20 20l17 63q-86 10 -134 65.5t-48 150.5h146q0 -80 73 -80q34 0 52 17.5t18 44.5
t-20.5 51t-50.5 42t-66 42.5t-66 50t-50.5 66.5t-20.5 91q0 82 54.5 133.5t149.5 51.5q97 0 152 -54.5t55 -151.5h-146q0 69 -62 69q-28 0 -43.5 -14t-15.5 -38q0 -25 20.5 -48t51.5 -39.5t67 -40t67 -49.5t51.5 -68.5t20.5 -94.5z" />
    <glyph glyph-name="scedilla" unicode="&#x15f;" horiz-adv-x="432" 
d="M412 152q0 -69 -42 -113.5t-117 -52.5l-9 -33h9q33 0 53.5 -19.5t20.5 -50.5q0 -41 -30.5 -65.5t-79.5 -24.5q-43 0 -75 24t-36 62h71q14 -22 40 -22q34 0 34 29q0 25 -33 25q-18 0 -33 -6l-20 20l17 63q-78 11 -120 62t-44 119h136q5 -60 65 -60q27 0 42 11.5t15 30.5
q0 22 -25.5 38.5t-62 30t-73.5 31.5t-62.5 53t-25.5 85q0 72 49 113t134 41q90 0 135.5 -47.5t51.5 -128.5h-131q-5 56 -56 56q-22 0 -35 -9.5t-13 -24.5q0 -20 26 -34t62.5 -26.5t73 -30.5t62.5 -55.5t26 -90.5z" />
    <glyph glyph-name="Scaron" unicode="&#x160;" horiz-adv-x="479" 
d="M290 767h-103l-81 137h89l44 -67l43 67h89zM178 525q0 -25 20.5 -48t51.5 -39.5t67 -40t67 -49.5t51.5 -68.5t20.5 -94.5q0 -88 -59 -143.5t-161 -55.5q-101 0 -159 57t-58 161h146q0 -80 73 -80q34 0 52 17.5t18 44.5t-20.5 51t-50.5 42t-66 42.5t-66 50t-50.5 66.5
t-20.5 91q0 82 54.5 133.5t149.5 51.5q97 0 152 -54.5t55 -151.5h-146q0 69 -62 69q-28 0 -43.5 -14t-15.5 -38z" />
    <glyph glyph-name="scaron" unicode="&#x161;" horiz-adv-x="432" 
d="M270 612h-103l-81 137h89l44 -67l43 67h89zM162 389q0 -20 26 -34t62.5 -26.5t73 -30.5t62.5 -55.5t26 -90.5q0 -76 -50 -121.5t-138 -45.5q-97 0 -150.5 53.5t-55.5 130.5h136q5 -60 65 -60q27 0 42 11.5t15 30.5q0 22 -25.5 38.5t-62 30t-73.5 31.5t-62.5 53t-25.5 85
q0 72 49 113t134 41q90 0 135.5 -47.5t51.5 -128.5h-131q-5 56 -56 56q-22 0 -35 -9.5t-13 -24.5z" />
    <glyph glyph-name="uni0162" unicode="&#x162;" horiz-adv-x="450" 
d="M298 0h-34l-13 -47h9q33 0 53.5 -19.5t20.5 -50.5q0 -41 -30 -65.5t-80 -24.5q-43 0 -75 24t-36 62h71q14 -22 40 -22q34 0 34 29q0 25 -33 25q-18 0 -33 -6l-20 20l20 75h-40v565h-137v135h420v-135h-137v-565z" />
    <glyph glyph-name="uni0163" unicode="&#x163;" horiz-adv-x="335" 
d="M261 -8q-26 0 -45 4l-13 -43h9q33 0 53.5 -20.5t20.5 -54.5q0 -43 -30 -69t-80 -26q-43 0 -75 25.5t-36 65.5h71q14 -27 40 -27q34 0 34 34q0 29 -33 29q-20 0 -35 -8l-20 20l30 100q-76 51 -76 163v222h-69v123h69v128h135v-128h87v-123h-87v-224q0 -63 60 -63h34v-128
h-44z" />
    <glyph glyph-name="Tcaron" unicode="&#x164;" horiz-adv-x="450" 
d="M278 767h-103l-81 137h89l44 -67l43 67h89zM435 700v-135h-137v-565h-146v565h-137v135h420z" />
    <glyph glyph-name="tcaron" unicode="&#x165;" horiz-adv-x="430" 
d="M290 778h110l-50 -186h-82zM211 183q0 -63 60 -63h34v-128h-44q-85 0 -135 52t-50 141v222h-69v123h69v128h135v-128h87v-123h-87v-224z" />
    <glyph glyph-name="Tbar" unicode="&#x166;" horiz-adv-x="450" 
d="M435 565h-137v-177h77v-76h-77v-312h-146v312h-77v76h77v177h-137v135h420v-135z" />
    <glyph glyph-name="tbar" unicode="&#x167;" horiz-adv-x="335" 
d="M271 120h34v-128h-44q-85 0 -135 52t-50 141v47h-52v86h52v89h-69v123h69v128h135v-128h87v-123h-87v-89h60v-86h-60v-49q0 -63 60 -63z" />
    <glyph glyph-name="Umacron" unicode="&#x16a;" horiz-adv-x="540" 
d="M164 789v87h220v-87h-220zM270 -12q-103 0 -161.5 62.5t-58.5 172.5v477h145v-477q0 -97 75 -97t75 97v477h145v-477q0 -110 -58.5 -172.5t-161.5 -62.5z" />
    <glyph glyph-name="umacron" unicode="&#x16b;" horiz-adv-x="476" 
d="M343 719v-87h-220v87h220zM290 530h136v-530h-90l-10 54q-41 -67 -125 -67q-74 0 -115 55.5t-41 162.5v325h137v-325q0 -88 51 -88q57 0 57 78v335z" />
    <glyph glyph-name="Uring" unicode="&#x16e;" horiz-adv-x="540" 
d="M274 763q-41 0 -66.5 25t-25.5 65q0 39 25.5 63.5t66.5 24.5t66.5 -24.5t25.5 -63.5q0 -40 -25.5 -65t-66.5 -25zM274 819q15 0 24 9t9 24t-9 24t-24 9t-24 -9t-9 -24t9 -24t24 -9zM270 -12q-103 0 -161.5 62.5t-58.5 172.5v477h145v-477q0 -97 75 -97t75 97v477h145
v-477q0 -110 -58.5 -172.5t-161.5 -62.5z" />
    <glyph glyph-name="uring" unicode="&#x16f;" horiz-adv-x="476" 
d="M234 606q-41 0 -66.5 25t-25.5 65q0 39 25.5 63.5t66.5 24.5t66.5 -24.5t25.5 -63.5q0 -40 -25.5 -65t-66.5 -25zM234 728q-15 0 -24 -9t-9 -24t9 -24t24 -9t24 9t9 24t-9 24t-24 9zM290 530h136v-530h-90l-10 54q-41 -67 -125 -67q-74 0 -115 55.5t-41 162.5v325h137
v-325q0 -88 51 -88q57 0 57 78v335z" />
    <glyph glyph-name="Uhungarumlaut" unicode="&#x170;" horiz-adv-x="540" 
d="M133 768l77 137h102l-93 -137h-86zM282 768l83 137h102l-99 -137h-86zM270 -12q-103 0 -161.5 62.5t-58.5 172.5v477h145v-477q0 -97 75 -97t75 97v477h145v-477q0 -110 -58.5 -172.5t-161.5 -62.5z" />
    <glyph glyph-name="uhungarumlaut" unicode="&#x171;" horiz-adv-x="476" 
d="M271 746l-93 -137h-86l77 137h102zM327 609h-86l83 137h102zM290 530h136v-530h-90l-10 54q-41 -67 -125 -67q-74 0 -115 55.5t-41 162.5v325h137v-325q0 -88 51 -88q57 0 57 78v335z" />
    <glyph glyph-name="Uogonek" unicode="&#x172;" horiz-adv-x="546" 
d="M319 -194q-47 0 -73.5 22.5t-26.5 61.5q0 54 55 99l-1 2q-5 -3 -14 -3q-97 0 -153 64t-56 173v475h148v-475q0 -99 75 -99t75 99v475h148v-475q0 -125 -85 -197q-68 -56 -68 -95q0 -26 31 -26q14 0 28 3v-91q-33 -13 -83 -13z" />
    <glyph glyph-name="uogonek" unicode="&#x173;" horiz-adv-x="476" 
d="M426 0q-28 -16 -43.5 -35.5t-15.5 -35.5q0 -22 31 -22q14 0 28 3v-91q-28 -13 -83 -13q-42 0 -66 23t-24 61q0 62 83 110l-10 54q-41 -67 -125 -67q-74 0 -115 55.5t-41 162.5v325h137v-325q0 -88 51 -88q57 0 57 78v335h136v-530z" />
    <glyph glyph-name="Wcircumflex" unicode="&#x174;" horiz-adv-x="792" 
d="M406 834l-44 -67h-89l81 137h103l81 -137h-89zM642 700h147l-158 -700h-150l-50 234q-25 110 -33 229h-4q-8 -119 -33 -229l-50 -234h-150l-158 700h147l55 -331q24 -151 29 -195h4q5 44 29 195l55 321h148l55 -321q24 -151 29 -195h4q5 44 29 195z" />
    <glyph glyph-name="wcircumflex" unicode="&#x175;" horiz-adv-x="666" 
d="M330 676l-44 -67h-89l81 137h103l81 -137h-89zM525 530h141l-121 -530h-147l-26 118q-28 129 -36 239h-6q-8 -110 -36 -239l-26 -118h-147l-121 530h141l28 -185q24 -167 26 -198h6q6 48 28 185l32 188h144l32 -188q22 -137 28 -185h6q2 31 26 198z" />
    <glyph glyph-name="Ycircumflex" unicode="&#x176;" horiz-adv-x="472" 
d="M236 834l-44 -67h-89l81 137h103l81 -137h-89zM325 700h147l-165 -492v-208h-142v208l-165 492h147l57 -194q21 -70 30 -112h4q11 47 32 115z" />
    <glyph glyph-name="ycircumflex" unicode="&#x177;" horiz-adv-x="446" 
d="M227 679l-44 -67h-89l81 137h103l81 -137h-89zM309 530h137l-163 -546q-24 -81 -62.5 -126.5t-100.5 -45.5h-70v131h40q27 0 43.5 16t26.5 50l11 39l-171 482h144l49 -158l35 -123l35 121z" />
    <glyph glyph-name="Ydieresis" unicode="&#x178;" horiz-adv-x="472" 
d="M155 775q-28 0 -44.5 16.5t-16.5 44.5t16.5 44.5t44.5 16.5t44.5 -16.5t16.5 -44.5t-16.5 -44.5t-44.5 -16.5zM317 775q-28 0 -44.5 16.5t-16.5 44.5t16.5 44.5t44.5 16.5t44.5 -16.5t16.5 -44.5t-16.5 -44.5t-44.5 -16.5zM165 0v208l-165 492h147l57 -194
q21 -70 30 -112h4q11 47 32 115l55 191h147l-165 -492v-208h-142z" />
    <glyph glyph-name="Zacute" unicode="&#x179;" horiz-adv-x="433" 
d="M153 767l94 137h113l-113 -137h-94zM13 0v95l222 470h-205v135h379v-98l-220 -467h225v-135h-401z" />
    <glyph glyph-name="zacute" unicode="&#x17a;" horiz-adv-x="376" 
d="M117 609l74 137h113l-93 -137h-94zM3 0v83l178 322h-157v125h331v-83l-175 -322h185v-125h-362z" />
    <glyph glyph-name="Zdotaccent" unicode="&#x17b;" horiz-adv-x="433" 
d="M222 778q-33 0 -54 21.5t-21 53.5t21 53.5t54 21.5q32 0 53.5 -21.5t21.5 -53.5q0 -30 -22 -52.5t-53 -22.5zM13 0v95l222 470h-205v135h379v-98l-220 -467h225v-135h-401z" />
    <glyph glyph-name="zdotaccent" unicode="&#x17c;" horiz-adv-x="376" 
d="M183 608q-33 0 -54 21.5t-21 53.5t21 53.5t54 21.5q32 0 53.5 -21.5t21.5 -53.5q0 -30 -22 -52.5t-53 -22.5zM3 0v83l178 322h-157v125h331v-83l-175 -322h185v-125h-362z" />
    <glyph glyph-name="Zcaron" unicode="&#x17d;" horiz-adv-x="433" 
d="M275 767h-103l-81 137h89l44 -67l43 67h89zM189 135h225v-135h-401v95l222 470h-205v135h379v-98z" />
    <glyph glyph-name="zcaron" unicode="&#x17e;" horiz-adv-x="376" 
d="M234 609h-103l-81 137h89l44 -67l43 67h89zM180 125h185v-125h-362v83l178 322h-157v125h331v-83z" />
    <glyph glyph-name="uni0218" unicode="&#x218;" horiz-adv-x="479" 
d="M236 -14q-101 0 -159 57t-58 161h146q0 -80 73 -80q34 0 52 17.5t18 44.5t-20.5 51t-50.5 42t-66 42.5t-66 50t-50.5 66.5t-20.5 91q0 82 54.5 133.5t149.5 51.5q97 0 152 -54.5t55 -151.5h-146q0 69 -62 69q-28 0 -43.5 -14t-15.5 -38q0 -25 20.5 -48t51.5 -39.5t67 -40
t67 -49.5t51.5 -68.5t20.5 -94.5q0 -88 -59 -143.5t-161 -55.5zM172 -281l16 209h114l-51 -209h-79z" />
    <glyph glyph-name="uni0219" unicode="&#x219;" horiz-adv-x="432" 
d="M224 -15q-97 0 -150.5 53.5t-55.5 130.5h136q5 -60 65 -60q27 0 42 11.5t15 30.5q0 22 -25.5 38.5t-62 30t-73.5 31.5t-62.5 53t-25.5 85q0 72 49 113t134 41q90 0 135.5 -47.5t51.5 -128.5h-131q-5 56 -56 56q-22 0 -35 -9.5t-13 -24.5q0 -20 26 -34t62.5 -26.5
t73 -30.5t62.5 -55.5t26 -90.5q0 -76 -50 -121.5t-138 -45.5zM154 -281l16 209h114l-51 -209h-79z" />
    <glyph glyph-name="uni021A" unicode="&#x21a;" horiz-adv-x="450" 
d="M435 700v-135h-137v-565h-146v565h-137v135h420zM158 -281l16 209h114l-51 -209h-79z" />
    <glyph glyph-name="uni021B" unicode="&#x21b;" horiz-adv-x="335" 
d="M271 120h34v-128h-44q-85 0 -135 52t-50 141v222h-69v123h69v128h135v-128h87v-123h-87v-224q0 -63 60 -63zM117 -281l16 209h114l-51 -209h-79z" />
    <glyph glyph-name="gravecomb" unicode="&#x300;" 
d="M0 609h-94l-93 137h113z" />
    <glyph glyph-name="acutecomb" unicode="&#x301;" 
d="M-187 609l74 137h113l-93 -137h-94z" />
    <glyph glyph-name="uni0302" unicode="&#x302;" 
d="M2 609h-89l-43 67l-44 -67h-89l81 137h103z" />
    <glyph glyph-name="tildecomb" unicode="&#x303;" 
d="M-91 621q-23 0 -45.5 14t-32.5 14q-24 0 -28 -25h-77q3 51 28 78.5t63 27.5q24 0 46.5 -14t31.5 -14q23 0 28 25h77q-3 -49 -28 -77.5t-63 -28.5z" />
    <glyph glyph-name="uni0304" unicode="&#x304;" 
d="M-220 632v87h220v-87h-220z" />
    <glyph glyph-name="uni0306" unicode="&#x306;" 
d="M-127 612q-55 0 -91 33.5t-38 90.5h87q0 -19 12 -30t29 -11t29 11t12 30h87q-2 -59 -37.5 -91.5t-89.5 -32.5z" />
    <glyph glyph-name="uni0307" unicode="&#x307;" 
d="M-103 608q-33 0 -54 21.5t-21 53.5t21 53.5t54 21.5q32 0 53.5 -21.5t21.5 -53.5q0 -30 -22 -52.5t-53 -22.5z" />
    <glyph glyph-name="uni0308" unicode="&#x308;" 
d="M-223 614q-28 0 -44.5 16.5t-16.5 44.5t16.5 44.5t44.5 16.5t44.5 -16.5t16.5 -44.5t-16.5 -44.5t-44.5 -16.5zM-61 614q-28 0 -44.5 16.5t-16.5 44.5t16.5 44.5t44.5 16.5t44.5 -16.5t16.5 -44.5t-16.5 -44.5t-44.5 -16.5z" />
    <glyph glyph-name="uni030A" unicode="&#x30a;" 
d="M-92 606q-41 0 -66.5 25t-25.5 65q0 39 25.5 63.5t66.5 24.5t66.5 -24.5t25.5 -63.5q0 -40 -25.5 -65t-66.5 -25zM-92 662q15 0 24 9t9 24t-9 24t-24 9t-24 -9t-9 -24t9 -24t24 -9z" />
    <glyph glyph-name="uni030B" unicode="&#x30b;" 
d="M-334 609l77 137h102l-93 -137h-86zM-185 609l83 137h102l-99 -137h-86z" />
    <glyph glyph-name="uni030C" unicode="&#x30c;" 
d="M-79 746h89l-81 -137h-103l-81 137h89l44 -67z" />
    <glyph glyph-name="uni0312" unicode="&#x312;" 
d="M-127 601l-17 216h84l60 -216h-127z" />
    <glyph glyph-name="uni0326" unicode="&#x326;" 
d="M-130 -281l16 209h114l-51 -209h-79z" />
    <glyph glyph-name="uni0327" unicode="&#x327;" 
d="M-110 -207q-43 0 -75 24t-36 62h71q14 -22 40 -22q34 0 34 29q0 25 -33 25q-18 0 -33 -6l-20 20l20 75h72l-13 -47h9q33 0 53.5 -19.5t20.5 -50.5q0 -41 -30 -65.5t-80 -24.5z" />
    <glyph glyph-name="uni0328" unicode="&#x328;" 
d="M-93 -194q-47 0 -73.5 22.5t-26.5 62.5q0 61 60 109h115q-24 -15 -37.5 -34.5t-13.5 -33.5q0 -25 31 -25q14 0 28 3v-91q-28 -13 -83 -13z" />
    <glyph glyph-name="uni0335" unicode="&#x335;" 
d="M-210 372v66h200v-66h-200z" />
    <glyph glyph-name="uni0336" unicode="&#x336;" 
d="M-330 372v66h320v-66h-320z" />
    <glyph glyph-name="uni0337" unicode="&#x337;" 
d="M-298 -43l155 597h149l-155 -597h-149z" />
    <glyph glyph-name="uni0338" unicode="&#x338;" 
d="M-369 -39l210 778h146l-210 -778h-146z" />
    <glyph glyph-name="uni0401" unicode="&#x401;" horiz-adv-x="468" 
d="M173 775q-28 0 -44.5 16.5t-16.5 44.5t16.5 44.5t44.5 16.5t44.5 -16.5t16.5 -44.5t-16.5 -44.5t-44.5 -16.5zM335 775q-28 0 -44.5 16.5t-16.5 44.5t16.5 44.5t44.5 16.5t44.5 -16.5t16.5 -44.5t-16.5 -44.5t-44.5 -16.5zM204 135h229v-135h-371v700h361v-135h-219v-145
h199v-130h-199v-155z" />
    <glyph glyph-name="uni0402" unicode="&#x402;" horiz-adv-x="580" 
d="M338 -4v130q67 0 67 83v78q0 88 -51 88q-25 0 -40.5 -16.5t-15.5 -46.5v-312h-146v565h-137v135h420v-135h-137v-109q38 49 94 49q71 0 110.5 -55.5t39.5 -162.5v-80q-1 -101 -55 -156t-149 -55z" />
    <glyph glyph-name="uni0403" unicode="&#x403;" horiz-adv-x="430" 
d="M373 904l-113 -137h-94l94 137h113zM415 700v-135h-211v-565h-142v700h353z" />
    <glyph glyph-name="uni0404" unicode="&#x404;" horiz-adv-x="504" 
d="M342 214h142q-2 -110 -60.5 -168t-165.5 -58q-103 0 -159.5 58.5t-56.5 167.5v272q0 110 57 169t160 59q105 0 162 -58.5t61 -169.5h-142q-3 48 -22 69t-60 21q-68 0 -68 -90v-73h143v-116h-143v-83q0 -88 68 -88q41 0 61 21t23 67z" />
    <glyph glyph-name="uni0405" unicode="&#x405;" horiz-adv-x="479" 
d="M236 -14q-101 0 -159 57t-58 161h146q0 -80 73 -80q34 0 52 17.5t18 44.5t-20.5 51t-50.5 42t-66 42.5t-66 50t-50.5 66.5t-20.5 91q0 82 54.5 133.5t149.5 51.5q97 0 152 -54.5t55 -151.5h-146q0 69 -62 69q-28 0 -43.5 -14t-15.5 -38q0 -25 20.5 -48t51.5 -39.5t67 -40
t67 -49.5t51.5 -68.5t20.5 -94.5q0 -88 -59 -143.5t-161 -55.5z" />
    <glyph glyph-name="uni0406" unicode="&#x406;" horiz-adv-x="266" 
d="M62 0v700h142v-700h-142z" />
    <glyph glyph-name="uni0407" unicode="&#x407;" horiz-adv-x="266" 
d="M53 775q-28 0 -44.5 16.5t-16.5 44.5t16.5 44.5t44.5 16.5t44.5 -16.5t16.5 -44.5t-16.5 -44.5t-44.5 -16.5zM215 775q-28 0 -44.5 16.5t-16.5 44.5t16.5 44.5t44.5 16.5t44.5 -16.5t16.5 -44.5t-16.5 -44.5t-44.5 -16.5zM62 0v700h142v-700h-142z" />
    <glyph glyph-name="uni0408" unicode="&#x408;" horiz-adv-x="321" 
d="M0 -153v130q61 0 90.5 28.5t29.5 101.5v593h142v-594q0 -121 -67 -190t-195 -69z" />
    <glyph glyph-name="uni0409" unicode="&#x409;" horiz-adv-x="786" 
d="M0 -12v130q37 0 57 22.5t29 84.5q12 69 30 475h394v-266h41q110 0 163.5 -59.5t53.5 -166.5q0 -106 -53 -157t-164 -51h-188v566h-113q-15 -276 -33 -383q-21 -118 -69.5 -156.5t-147.5 -38.5zM510 130h29q42 0 61.5 20t19.5 64t-19.5 64.5t-61.5 20.5h-29v-169z" />
    <glyph glyph-name="uni040A" unicode="&#x40a;" horiz-adv-x="790" 
d="M62 0v700h142v-274h144v274h142v-272h61q112 0 166.5 -58.5t54.5 -158.5q0 -109 -52.5 -160t-168.5 -51h-203v291h-144v-291h-142zM490 130h49q44 0 64.5 19t20.5 62t-20.5 62.5t-64.5 19.5h-49v-163z" />
    <glyph glyph-name="uni040B" unicode="&#x40b;" horiz-adv-x="587" 
d="M152 0v565h-137v135h420v-135h-137v-109q38 49 94 49q71 0 110.5 -55.5t39.5 -162.5v-287h-137v287q0 88 -51 88q-48 0 -56 -60v-315h-146z" />
    <glyph glyph-name="uni040C" unicode="&#x40c;" horiz-adv-x="528" 
d="M363 904l-113 -137h-94l94 137h113zM368 0l-127 265l-39 -63v-202h-140v700h140v-268l36 78l98 190h162l-178 -306l208 -394h-160z" />
    <glyph glyph-name="uni040D" unicode="&#x40d;" horiz-adv-x="570" 
d="M360 767h-94l-113 137h113zM62 0v700h138v-162q0 -129 -18 -273l3 -3l21.5 58.5t29.5 75.5l133 304h139v-700h-138v142q0 156 16 297l-3 3q-57 -154 -64 -171l-118 -271h-139z" />
    <glyph glyph-name="uni040E" unicode="&#x40e;" horiz-adv-x="470" 
d="M237 770q-55 0 -91 33.5t-38 90.5h87q0 -19 12 -30t29 -11t29 11t12 30h87q-2 -59 -37.5 -91.5t-89.5 -32.5zM321 700h149l-163 -529q-35 -113 -82.5 -148t-147.5 -35h-26v126h31q38 0 57 14.5t35 62.5l-172 509h149l88 -286z" />
    <glyph glyph-name="uni040F" unicode="&#x40f;" horiz-adv-x="552" 
d="M206 -119v119h-144v700h142v-565h144v565h142v-700h-144v-119h-140z" />
    <glyph glyph-name="uni0410" unicode="&#x410;" horiz-adv-x="494" 
d="M344 0l-23 116h-148l-23 -116h-147l168 700h152l168 -700h-147zM201 251h92l-16 80q-14 77 -28 192h-4q-17 -135 -28 -192z" />
    <glyph glyph-name="uni0411" unicode="&#x411;" horiz-adv-x="516" 
d="M62 0v700h389v-133h-246v-134h66q108 0 163.5 -59t55.5 -158q0 -111 -53.5 -163.5t-165.5 -52.5h-209zM205 135h54q85 0 85 81q0 84 -85 84h-54v-165z" />
    <glyph glyph-name="uni0412" unicode="&#x412;" horiz-adv-x="519" 
d="M406 358q39 -22 61 -62t22 -87q0 -93 -57.5 -151t-148.5 -58h-221v700h218q81 0 133 -55t52 -144q0 -40 -16 -79t-43 -64zM255 566h-51v-146h56q61 0 61 75q0 71 -66 71zM258 134q85 0 85 76q0 77 -82 77h-57v-153h54z" />
    <glyph glyph-name="uni0413" unicode="&#x413;" horiz-adv-x="430" 
d="M415 700v-135h-211v-565h-142v700h353z" />
    <glyph glyph-name="uni0414" unicode="&#x414;" horiz-adv-x="598" 
d="M523 133h65v-252h-141v119h-303v-119h-140v252h45q75 81 83 276l11 291h380v-567zM383 133v433h-107l-8 -199q-5 -143 -54 -234h169z" />
    <glyph glyph-name="uni0415" unicode="&#x415;" horiz-adv-x="468" 
d="M204 135h229v-135h-371v700h361v-135h-219v-145h199v-130h-199v-155z" />
    <glyph glyph-name="uni0416" unicode="&#x416;" horiz-adv-x="758" 
d="M602 0l-121 263l-33 -53v-210h-138v210l-33 53l-121 -263h-156l202 386l-183 314h160l95 -190l36 -81v271h138v-271l36 81l95 190h160l-183 -314l202 -386h-156z" />
    <glyph glyph-name="uni0417" unicode="&#x417;" horiz-adv-x="491" 
d="M361 366q115 -34 115 -164q0 -98 -67 -157t-168 -59q-106 0 -168.5 66.5t-66.5 160.5h143q1 -35 24 -62.5t68 -27.5q38 0 64 23.5t26 64.5q0 87 -98 87h-48v123h38q47 0 67 20.5t20 63.5q0 34 -17.5 54t-49.5 20q-80 0 -84 -93h-140q6 104 63 166.5t160 62.5
q96 0 154 -56.5t58 -150.5q0 -53 -21.5 -87t-71.5 -55z" />
    <glyph glyph-name="uni0418" unicode="&#x418;" horiz-adv-x="570" 
d="M62 0v700h138v-162q0 -129 -18 -273l3 -3l21.5 58.5t29.5 75.5l133 304h139v-700h-138v142q0 156 16 297l-3 3q-57 -154 -64 -171l-118 -271h-139z" />
    <glyph glyph-name="uni0419" unicode="&#x419;" horiz-adv-x="570" 
d="M290 770q-55 0 -91 33.5t-38 90.5h87q0 -19 12 -30t29 -11t29 11t12 30h87q-2 -59 -37.5 -91.5t-89.5 -32.5zM62 0v700h138v-162q0 -129 -18 -273l3 -3l21.5 58.5t29.5 75.5l133 304h139v-700h-138v142q0 156 16 297l-3 3q-57 -154 -64 -171l-118 -271h-139z" />
    <glyph glyph-name="uni041A" unicode="&#x41a;" horiz-adv-x="528" 
d="M368 0l-127 265l-39 -63v-202h-140v700h140v-268l36 78l98 190h162l-178 -306l208 -394h-160z" />
    <glyph glyph-name="uni041B" unicode="&#x41b;" horiz-adv-x="569" 
d="M0 -12v128q34 0 51.5 20.5t29.5 83.5q14 75 33 480h393v-700h-142v566h-115q-14 -269 -33 -383q-19 -118 -69.5 -156.5t-147.5 -38.5z" />
    <glyph glyph-name="uni041C" unicode="&#x41c;" horiz-adv-x="726" 
d="M521 700h143v-700h-139v172q2 42 5.5 127t5.5 128l-5 2l-63 -184l-35 -95h-140l-35 95l-63 184l-5 -2q2 -42 5.5 -127t4.5 -128v-172h-138v700h143l110 -265q37 -92 46 -122h4q9 30 46 122z" />
    <glyph glyph-name="uni041D" unicode="&#x41d;" horiz-adv-x="554" 
d="M349 700h143v-700h-143v285h-144v-285h-143v700h143v-280h144v280z" />
    <glyph glyph-name="uni041E" unicode="&#x41e;" horiz-adv-x="538" 
d="M269 -12q-107 0 -167 63.5t-60 175.5v246q0 112 60 175.5t167 63.5t167 -63.5t60 -175.5v-246q0 -112 -60 -175.5t-167 -63.5zM269 126q80 0 80 101v246q0 101 -80 101t-80 -101v-246q0 -101 80 -101z" />
    <glyph glyph-name="uni041F" unicode="&#x41f;" horiz-adv-x="552" 
d="M490 700v-700h-142v565h-144v-565h-142v700h428z" />
    <glyph glyph-name="uni0420" unicode="&#x420;" horiz-adv-x="524" 
d="M265 700q109 0 170 -63t61 -175t-61 -174.5t-170 -62.5h-61v-225h-142v700h203zM263 360q87 0 87 102q0 103 -87 103h-59v-205h59z" />
    <glyph glyph-name="uni0421" unicode="&#x421;" horiz-adv-x="504" 
d="M258 -12q-103 0 -159.5 58.5t-56.5 167.5v272q0 110 57 169t160 59q105 0 162 -58.5t61 -169.5h-142q-3 48 -22 69t-60 21q-68 0 -68 -90v-272q0 -88 68 -88q41 0 61 21t23 67h142q-2 -110 -60.5 -168t-165.5 -58z" />
    <glyph glyph-name="uni0422" unicode="&#x422;" horiz-adv-x="450" 
d="M435 700v-135h-137v-565h-146v565h-137v135h420z" />
    <glyph glyph-name="uni0423" unicode="&#x423;" horiz-adv-x="470" 
d="M321 700h149l-163 -529q-35 -113 -82.5 -148t-147.5 -35h-26v126h31q38 0 57 14.5t35 62.5l-172 509h149l88 -286z" />
    <glyph glyph-name="uni0424" unicode="&#x424;" horiz-adv-x="690" 
d="M275 -69v79h-13q-104 0 -173.5 70.5t-69.5 191.5v148q0 124 69.5 196.5t173.5 72.5h13v75h140v-75h13q104 0 173.5 -72.5t69.5 -196.5v-148q0 -121 -69.5 -191.5t-173.5 -70.5h-13v-79h-140zM255 146h20v407h-20q-41 0 -68 -32.5t-27 -100.5v-148q0 -65 27 -95.5
t68 -30.5zM415 146h20q41 0 68 30.5t27 95.5v148q0 68 -27 100.5t-68 32.5h-20v-407z" />
    <glyph glyph-name="uni0425" unicode="&#x425;" horiz-adv-x="512" 
d="M500 0h-156l-88 223l-88 -223h-156l165 362l-155 338h155l79 -203l79 203h155l-155 -338z" />
    <glyph glyph-name="uni0426" unicode="&#x426;" horiz-adv-x="564" 
d="M414 -119v119h-352v700h143v-565h141v565h143v-565h65v-254h-140z" />
    <glyph glyph-name="uni0427" unicode="&#x427;" horiz-adv-x="528" 
d="M324 700h142v-705h-142v244q-40 -11 -88 -11q-96 0 -150 62.5t-54 174.5v235h142v-242q0 -50 20.5 -73.5t64.5 -23.5q32 0 65 9v330z" />
    <glyph glyph-name="uni0428" unicode="&#x428;" horiz-adv-x="820" 
d="M62 0v700h140v-565h138v565h140v-565h138v565h140v-700h-696z" />
    <glyph glyph-name="uni0429" unicode="&#x429;" horiz-adv-x="829" 
d="M679 -119v119h-617v700h140v-565h136v565h140v-565h136v565h140v-565h65v-254h-140z" />
    <glyph glyph-name="uni042A" unicode="&#x42a;" horiz-adv-x="585" 
d="M150 0v571h-138v129h281v-266h54q111 0 165.5 -59.5t54.5 -160.5q0 -111 -52.5 -162.5t-167.5 -51.5h-197zM293 130h42q45 0 65.5 20t20.5 64t-21 64.5t-65 20.5h-42v-169z" />
    <glyph glyph-name="uni042B" unicode="&#x42b;" horiz-adv-x="737" 
d="M62 0v700h147v-266h41q109 0 163 -59.5t54 -160.5q0 -111 -52 -162.5t-165 -51.5h-188zM533 0v700h142v-700h-142zM209 130h29q42 0 61.5 20t19.5 64t-19.5 64.5t-61.5 20.5h-29v-169z" />
    <glyph glyph-name="uni042C" unicode="&#x42c;" horiz-adv-x="499" 
d="M62 0v700h143v-266h54q112 0 167 -59.5t55 -160.5q0 -111 -53 -162.5t-169 -51.5h-197zM205 130h42q45 0 65.5 20t20.5 64t-21 64.5t-65 20.5h-42v-169z" />
    <glyph glyph-name="uni042D" unicode="&#x42d;" horiz-adv-x="504" 
d="M245 714q103 0 160 -59t57 -169v-272q0 -109 -56.5 -167.5t-159.5 -58.5q-107 0 -165.5 58t-60.5 168h142q3 -46 23 -67t61 -21q68 0 68 88v83h-143v116h143v73q0 90 -68 90q-41 0 -60 -21t-22 -69h-142q4 111 61 169.5t162 58.5z" />
    <glyph glyph-name="uni042E" unicode="&#x42e;" horiz-adv-x="790" 
d="M525 712q105 0 164 -63t59 -176v-246q0 -113 -59 -176t-164 -63t-164 63t-59 176v58h-99v-285h-141v700h141v-280h99v53q0 113 59 176t164 63zM602 227v246q0 101 -77 101t-77 -101v-246q0 -101 77 -101t77 101z" />
    <glyph glyph-name="uni042F" unicode="&#x42f;" horiz-adv-x="526" 
d="M5 0l132 258q-97 58 -97 205q0 112 58.5 174.5t162.5 62.5h203v-700h-142v227h-50l-112 -227h-155zM263 362h59v203h-59q-77 0 -77 -102q0 -101 77 -101z" />
    <glyph glyph-name="uni0430" unicode="&#x430;" horiz-adv-x="462" 
d="M230 543q94 0 138 -51.5t44 -154.5v-337h-108l-8 50q-34 -64 -115 -64q-72 0 -115 46.5t-43 119.5q0 82 55.5 124t147.5 42h49v19q0 38 -10.5 56.5t-36.5 18.5q-46 0 -53 -47h-137q4 84 54.5 131t137.5 47zM275 167v42h-46q-67 0 -67 -57q0 -22 12.5 -36t39.5 -14
q28 0 44.5 17.5t16.5 47.5z" />
    <glyph glyph-name="uni0431" unicode="&#x431;" horiz-adv-x="481" 
d="M246 -13q-93 0 -144.5 55t-51.5 156v262q0 86 40.5 137t128.5 87q49 20 65.5 30.5t35.5 37.5l94 -81q-25 -40 -52.5 -61.5t-68.5 -35.5q-25 -8 -39 -14t-32.5 -17.5t-27.5 -28.5t-9 -40v-15q38 21 86 21q78 0 125 -55.5t47 -154.5v-72q0 -101 -52 -156t-145 -55zM246 119
q58 0 58 79v72q0 78 -57 78q-59 0 -59 -78v-72q0 -79 58 -79z" />
    <glyph glyph-name="uni0432" unicode="&#x432;" horiz-adv-x="437" 
d="M346 281q80 -31 80 -126q0 -73 -49 -114t-148 -41h-179v531h179q83 0 126 -40t43 -113q0 -62 -52 -97zM181 423v-101h38q46 0 46 51q0 23 -12.5 36.5t-34.5 13.5h-37zM238 110q53 0 53 52t-53 52h-57v-104h57z" />
    <glyph glyph-name="uni0433" unicode="&#x433;" horiz-adv-x="351" 
d="M338 531v-130h-150v-401h-138v531h288z" />
    <glyph glyph-name="uni0434" unicode="&#x434;" horiz-adv-x="509" 
d="M0 -119v242h42q35 36 41 130q10 161 13 277h343v-407h62v-242h-130v119h-241v-119h-130zM199 123h105v282h-79q-2 -109 -8 -186q-4 -55 -18 -96z" />
    <glyph glyph-name="uni0435" unicode="&#x435;" horiz-adv-x="458" 
d="M289 169h138q-8 -86 -60 -133.5t-139 -47.5q-89 0 -139.5 55.5t-50.5 153.5v141q0 97 50.5 151t141.5 54q92 0 143.5 -54t51.5 -151v-119h-250v-22q0 -79 55 -79q28 0 40 11t19 40zM231 417q-56 0 -56 -77v-28h115v28q0 77 -59 77z" />
    <glyph glyph-name="uni0436" unicode="&#x436;" horiz-adv-x="674" 
d="M531 0l-104 202l-25 -26v-176h-130v176l-25 26l-104 -202h-149l166 308l-143 222h154l57 -111q19 -35 44 -87v198h130v-198q25 52 44 87l57 111h154l-143 -222l166 -308h-149z" />
    <glyph glyph-name="uni0437" unicode="&#x437;" horiz-adv-x="434" 
d="M343 281q29 -16 48.5 -47.5t19.5 -71.5q0 -83 -52.5 -129.5t-145.5 -46.5q-90 0 -142.5 46t-57.5 129h130q6 -51 70 -51q66 0 66 59q0 53 -61 53h-58v96h57q49 0 49 54q0 49 -53 49q-56 0 -61 -58h-130q5 85 54 132.5t133 47.5q88 0 137.5 -42.5t49.5 -119.5
q0 -64 -53 -100z" />
    <glyph glyph-name="uni0438" unicode="&#x438;" horiz-adv-x="480" 
d="M50 0v530h130v-140q0 -19 -0.5 -77t-0.5 -100l3 -1q10 39 76 224l34 94h138v-530h-130v117q0 121 5 201l-3 1q-4 -20 -32 -107.5t-45 -124.5l-37 -87h-138z" />
    <glyph glyph-name="uni0439" unicode="&#x439;" horiz-adv-x="480" 
d="M242 612q-55 0 -91 33.5t-38 90.5h87q0 -19 12 -30t29 -11t29 11t12 30h87q-2 -59 -37.5 -91.5t-89.5 -32.5zM50 0v530h130v-140q0 -19 -0.5 -77t-0.5 -100l3 -1q10 39 76 224l34 94h138v-530h-130v117q0 121 5 201l-3 1q-4 -20 -32 -107.5t-45 -124.5l-37 -87h-138z" />
    <glyph glyph-name="uni043A" unicode="&#x43a;" horiz-adv-x="460" 
d="M314 0l-104 201l-25 -26v-175h-135v530h135v-199l44 88l56 111h157l-143 -222l167 -308h-152z" />
    <glyph glyph-name="uni043B" unicode="&#x43b;" horiz-adv-x="474" 
d="M-5 -10v131q31 0 44 20t19 70q15 116 21 319h345v-530h-135v405h-80q-3 -123 -17 -219q-13 -101 -61.5 -148.5t-135.5 -47.5z" />
    <glyph glyph-name="uni043C" unicode="&#x43c;" horiz-adv-x="574" 
d="M389 530h135v-530h-125v125q0 61 7 182l-7 2l-40 -145l-12 -41h-120l-12 41l-40 145l-7 -2q7 -121 7 -182v-125h-125v530h135l54 -139q33 -86 46 -138h4q13 52 46 138z" />
    <glyph glyph-name="uni043D" unicode="&#x43d;" horiz-adv-x="464" 
d="M278 530h136v-530h-136v205h-92v-205h-136v530h136v-200h92v200z" />
    <glyph glyph-name="uni043E" unicode="&#x43e;" horiz-adv-x="470" 
d="M235 -13q-93 0 -145 55t-52 156v135q0 101 52 155.5t145 54.5t145 -54.5t52 -155.5v-135q0 -101 -52 -156t-145 -55zM235 119q58 0 58 79v135q0 78 -58 78t-58 -78v-135q0 -79 58 -79z" />
    <glyph glyph-name="uni043F" unicode="&#x43f;" horiz-adv-x="464" 
d="M50 0v530h364v-530h-136v405h-92v-405h-136z" />
    <glyph glyph-name="uni0440" unicode="&#x440;" horiz-adv-x="473" 
d="M263 542q78 0 125 -57.5t47 -151.5v-138q0 -94 -47.5 -151t-124.5 -57q-43 0 -80 29v-196h-133v711h93l6 -47q51 58 114 58zM296 195v138q0 79 -53 79q-60 0 -60 -79v-138q0 -78 60 -78q53 0 53 78z" />
    <glyph glyph-name="uni0441" unicode="&#x441;" horiz-adv-x="442" 
d="M227 -12q-89 0 -139 52.5t-50 146.5v158q0 93 50 145.5t139 52.5q93 0 142.5 -51.5t52.5 -146.5h-137q-3 68 -55 68q-54 0 -54 -68v-158q0 -69 54 -69q51 0 56 69h137q-2 -94 -54 -146.5t-142 -52.5z" />
    <glyph glyph-name="uni0442" unicode="&#x442;" horiz-adv-x="370" 
d="M363 530v-129h-110v-401h-136v401h-110v129h356z" />
    <glyph glyph-name="uni0443" unicode="&#x443;" horiz-adv-x="446" 
d="M309 530h137l-163 -546q-24 -81 -62.5 -126.5t-100.5 -45.5h-70v131h40q27 0 43.5 16t26.5 50l11 39l-171 482h144l49 -158l35 -123l35 121z" />
    <glyph glyph-name="uni0444" unicode="&#x444;" horiz-adv-x="632" 
d="M397 538q94 0 145.5 -53.5t51.5 -151.5v-124q0 -102 -52 -158t-145 -56h-15v-175h-132v175h-15q-93 0 -145 56t-52 158v124q0 98 51.5 151.5t145.5 53.5h15v187h132v-187h15zM235 127h15v279h-15q-58 0 -58 -73v-124q0 -82 58 -82zM455 209v124q0 73 -58 73h-15v-279h15
q58 0 58 82z" />
    <glyph glyph-name="uni0445" unicode="&#x445;" horiz-adv-x="436" 
d="M443 0h-153l-72 154l-72 -154h-153l140 267l-125 263h149l61 -144l61 144h149l-122 -263z" />
    <glyph glyph-name="uni0446" unicode="&#x446;" horiz-adv-x="488" 
d="M346 -119v119h-296v530h136v-407h92v407h136v-407h62v-242h-130z" />
    <glyph glyph-name="uni0447" unicode="&#x447;" horiz-adv-x="440" 
d="M263 0v170q-33 -17 -72 -17q-166 0 -166 219v158h127v-158q0 -54 13 -73.5t40 -19.5q37 0 58 15v236h127v-530h-127z" />
    <glyph glyph-name="uni0448" unicode="&#x448;" horiz-adv-x="677" 
d="M45 0v530h134v-405h90v405h134v-405h90v405h134v-530h-582z" />
    <glyph glyph-name="uni0449" unicode="&#x449;" horiz-adv-x="706" 
d="M564 -119v119h-514v530h134v-405h90v405h134v-405h90v405h134v-407h62v-242h-130z" />
    <glyph glyph-name="uni044A" unicode="&#x44a;" horiz-adv-x="503" 
d="M317 359q79 0 127.5 -49t48.5 -129q0 -82 -48.5 -131.5t-127.5 -49.5h-205v404h-105v126h241v-171h69zM298 121q58 0 58 61q0 56 -58 56h-50v-117h50z" />
    <glyph glyph-name="uni044B" unicode="&#x44b;" horiz-adv-x="667" 
d="M255 357q79 0 127.5 -48.5t48.5 -128.5q0 -81 -48.5 -130.5t-127.5 -49.5h-205v530h136v-173h69zM480 530h137v-530h-137v530zM236 121q58 0 58 60q0 55 -58 55h-50v-115h50z" />
    <glyph glyph-name="uni044C" unicode="&#x44c;" horiz-adv-x="441" 
d="M255 359q79 0 127.5 -49t48.5 -129q0 -82 -48.5 -131.5t-127.5 -49.5h-205v530h136v-171h69zM236 121q58 0 58 61q0 56 -58 56h-50v-117h50z" />
    <glyph glyph-name="uni044D" unicode="&#x44d;" horiz-adv-x="443" 
d="M216 543q89 0 139 -52.5t50 -145.5v-158q0 -94 -50 -146.5t-139 -52.5q-91 0 -143 50t-54 139h137q5 -59 57 -59q54 0 54 69v38h-135v85h135v35q0 68 -54 68q-50 0 -53 -58h-137q3 90 52 139t141 49z" />
    <glyph glyph-name="uni044E" unicode="&#x44e;" horiz-adv-x="659" 
d="M429 543q91 0 141.5 -54.5t50.5 -155.5v-134q0 -101 -50.5 -156t-141.5 -55q-90 0 -140.5 55t-50.5 156v6h-58v-205h-130v530h130v-200h58v3q0 101 50 155.5t141 54.5zM485 199v134q0 78 -56 78t-56 -78v-134q0 -79 56 -79t56 79z" />
    <glyph glyph-name="uni044F" unicode="&#x44f;" horiz-adv-x="435" 
d="M211 530h179v-530h-130v164h-33l-70 -164h-152l99 191q-82 50 -82 161q0 84 52 131t137 47zM260 276v133h-41q-65 0 -65 -63q0 -70 66 -70h40z" />
    <glyph glyph-name="uni0451" unicode="&#x451;" horiz-adv-x="458" 
d="M142 614q-28 0 -44.5 16.5t-16.5 44.5t16.5 44.5t44.5 16.5t44.5 -16.5t16.5 -44.5t-16.5 -44.5t-44.5 -16.5zM304 614q-28 0 -44.5 16.5t-16.5 44.5t16.5 44.5t44.5 16.5t44.5 -16.5t16.5 -44.5t-16.5 -44.5t-44.5 -16.5zM289 169h138q-8 -86 -60 -133.5t-139 -47.5
q-89 0 -139.5 55.5t-50.5 153.5v141q0 97 50.5 151t141.5 54q92 0 143.5 -54t51.5 -151v-119h-250v-22q0 -79 55 -79q28 0 40 11t19 40zM231 417q-56 0 -56 -77v-28h115v28q0 77 -59 77z" />
    <glyph glyph-name="uni0452" unicode="&#x452;" horiz-adv-x="473" 
d="M214 -194v130q77 0 77 74v315q0 88 -51 88q-57 0 -57 -78v-335h-136v602h-63v66h63v57h136v-57h91v-66h-91v-109q39 50 95 50q71 0 110.5 -55.5t39.5 -162.5v-306q0 -102 -55.5 -157.5t-158.5 -55.5z" />
    <glyph glyph-name="uni0453" unicode="&#x453;" horiz-adv-x="351" 
d="M312 746l-93 -137h-94l74 137h113zM338 531v-130h-150v-401h-138v531h288z" />
    <glyph glyph-name="uni0454" unicode="&#x454;" horiz-adv-x="443" 
d="M287 177h137q-2 -89 -54 -139t-143 -50q-89 0 -139 52.5t-50 146.5v158q0 93 50 145.5t139 52.5q92 0 141 -49t52 -139h-137q-3 58 -53 58q-54 0 -54 -68v-35h135v-85h-135v-38q0 -69 54 -69q52 0 57 59z" />
    <glyph glyph-name="uni0455" unicode="&#x455;" horiz-adv-x="432" 
d="M224 -15q-97 0 -150.5 53.5t-55.5 130.5h136q5 -60 65 -60q27 0 42 11.5t15 30.5q0 22 -25.5 38.5t-62 30t-73.5 31.5t-62.5 53t-25.5 85q0 72 49 113t134 41q90 0 135.5 -47.5t51.5 -128.5h-131q-5 56 -56 56q-22 0 -35 -9.5t-13 -24.5q0 -20 26 -34t62.5 -26.5
t73 -30.5t62.5 -55.5t26 -90.5q0 -76 -50 -121.5t-138 -45.5z" />
    <glyph glyph-name="uni0456" unicode="&#x456;" horiz-adv-x="237" 
d="M119 608q-33 0 -54 21.5t-21 53.5t21 53.5t54 21.5q32 0 53.5 -21.5t21.5 -53.5q0 -30 -22 -52.5t-53 -22.5zM50 0v530h137v-530h-137z" />
    <glyph glyph-name="uni0457" unicode="&#x457;" horiz-adv-x="266" 
d="M58 616q-26 0 -42 16t-16 43t16 43t42 16q27 0 43 -16t16 -43t-16 -43t-43 -16zM208 616q-27 0 -43 16t-16 43t16 43t43 16q26 0 42 -16t16 -43t-16 -43t-42 -16zM64 0v530h137v-530h-137z" />
    <glyph glyph-name="uni0458" unicode="&#x458;" horiz-adv-x="260" 
d="M135 607q-33 0 -54 21.5t-21 53.5t21 53.5t54 21.5q32 0 53.5 -21.5t21.5 -53.5q0 -30 -22 -52.5t-53 -22.5zM-9 -194v130q77 0 77 74v520h136v-511q0 -102 -55 -157.5t-158 -55.5z" />
    <glyph glyph-name="uni0459" unicode="&#x459;" horiz-adv-x="678" 
d="M-5 -10v131q31 0 44 20t19 70q15 116 21 319h344v-173h69q79 0 127.5 -48.5t48.5 -128.5q0 -81 -48.5 -130.5t-127.5 -49.5h-203v405h-80q-2 -111 -17 -219q-13 -101 -61.5 -148.5t-135.5 -47.5zM423 121h50q58 0 58 60q0 55 -58 55h-50v-115z" />
    <glyph glyph-name="uni045A" unicode="&#x45a;" horiz-adv-x="669" 
d="M50 0v530h136v-186h92v186h136v-186h69q79 0 127.5 -46.5t48.5 -123.5q0 -78 -48.5 -126t-127.5 -48h-205v219h-92v-219h-136zM414 121h50q58 0 58 54q0 48 -58 48h-50v-102z" />
    <glyph glyph-name="uni045B" unicode="&#x45b;" horiz-adv-x="475" 
d="M280 543q71 0 110.5 -55.5t39.5 -162.5v-325h-137v325q0 88 -51 88q-57 0 -57 -78v-335h-136v599h-63v66h63v60h136v-60h91v-66h-91v-106q39 50 95 50z" />
    <glyph glyph-name="uni045C" unicode="&#x45c;" horiz-adv-x="460" 
d="M358 746l-93 -137h-94l74 137h113zM314 0l-104 201l-25 -26v-175h-135v530h135v-199l44 88l56 111h157l-143 -222l167 -308h-152z" />
    <glyph glyph-name="uni045D" unicode="&#x45d;" horiz-adv-x="480" 
d="M322 609h-94l-93 137h113zM50 0v530h130v-140q0 -19 -0.5 -77t-0.5 -100l3 -1q10 39 76 224l34 94h138v-530h-130v117q0 121 5 201l-3 1q-4 -20 -32 -107.5t-45 -124.5l-37 -87h-138z" />
    <glyph glyph-name="uni045E" unicode="&#x45e;" horiz-adv-x="446" 
d="M231 615q-55 0 -91 33.5t-38 90.5h87q0 -19 12 -30t29 -11t29 11t12 30h87q-2 -59 -37.5 -91.5t-89.5 -32.5zM309 530h137l-163 -546q-24 -81 -62.5 -126.5t-100.5 -45.5h-70v131h40q27 0 43.5 16t26.5 50l11 39l-171 482h144l49 -158l35 -123l35 121z" />
    <glyph glyph-name="uni045F" unicode="&#x45f;" horiz-adv-x="464" 
d="M414 530v-530h-119v-119h-125v119h-120v530h136v-405h92v405h136z" />
    <glyph glyph-name="uni0490" unicode="&#x490;" horiz-adv-x="430" 
d="M299 830h116v-265h-211v-565h-142v700h237v130z" />
    <glyph glyph-name="uni0491" unicode="&#x491;" horiz-adv-x="352" 
d="M232 629h107v-229h-151v-400h-138v530h182v99z" />
    <glyph glyph-name="Wgrave" unicode="&#x1e80;" horiz-adv-x="792" 
d="M481 767h-94l-113 137h113zM161 0l-158 700h147l55 -331q24 -151 29 -195h4q5 44 29 195l55 321h148l55 -321q24 -151 29 -195h4q5 44 29 195l55 331h147l-158 -700h-150l-50 234q-25 110 -33 229h-4q-8 -119 -33 -229l-50 -234h-150z" />
    <glyph glyph-name="wgrave" unicode="&#x1e81;" horiz-adv-x="666" 
d="M414 609h-94l-93 137h113zM525 530h141l-121 -530h-147l-26 118q-28 129 -36 239h-6q-8 -110 -36 -239l-26 -118h-147l-121 530h141l28 -185q24 -167 26 -198h6q6 48 28 185l32 188h144l32 -188q22 -137 28 -185h6q2 31 26 198z" />
    <glyph glyph-name="Wacute" unicode="&#x1e82;" horiz-adv-x="792" 
d="M337 767l94 137h113l-113 -137h-94zM161 0l-158 700h147l55 -331q24 -151 29 -195h4q5 44 29 195l55 321h148l55 -321q24 -151 29 -195h4q5 44 29 195l55 331h147l-158 -700h-150l-50 234q-25 110 -33 229h-4q-8 -119 -33 -229l-50 -234h-150z" />
    <glyph glyph-name="wacute" unicode="&#x1e83;" horiz-adv-x="666" 
d="M451 746l-93 -137h-94l74 137h113zM525 530h141l-121 -530h-147l-26 118q-28 129 -36 239h-6q-8 -110 -36 -239l-26 -118h-147l-121 530h141l28 -185q24 -167 26 -198h6q6 48 28 185l32 188h144l32 -188q22 -137 28 -185h6q2 31 26 198z" />
    <glyph glyph-name="Wdieresis" unicode="&#x1e84;" horiz-adv-x="792" 
d="M325 775q-28 0 -44.5 16.5t-16.5 44.5t16.5 44.5t44.5 16.5t44.5 -16.5t16.5 -44.5t-16.5 -44.5t-44.5 -16.5zM487 775q-28 0 -44.5 16.5t-16.5 44.5t16.5 44.5t44.5 16.5t44.5 -16.5t16.5 -44.5t-16.5 -44.5t-44.5 -16.5zM161 0l-158 700h147l55 -331q24 -151 29 -195h4
q5 44 29 195l55 321h148l55 -321q24 -151 29 -195h4q5 44 29 195l55 331h147l-158 -700h-150l-50 234q-25 110 -33 229h-4q-8 -119 -33 -229l-50 -234h-150z" />
    <glyph glyph-name="wdieresis" unicode="&#x1e85;" horiz-adv-x="666" 
d="M249 614q-28 0 -44.5 16.5t-16.5 44.5t16.5 44.5t44.5 16.5t44.5 -16.5t16.5 -44.5t-16.5 -44.5t-44.5 -16.5zM411 614q-28 0 -44.5 16.5t-16.5 44.5t16.5 44.5t44.5 16.5t44.5 -16.5t16.5 -44.5t-16.5 -44.5t-44.5 -16.5zM525 530h141l-121 -530h-147l-26 118
q-28 129 -36 239h-6q-8 -110 -36 -239l-26 -118h-147l-121 530h141l28 -185q24 -167 26 -198h6q6 48 28 185l32 188h144l32 -188q22 -137 28 -185h6q2 31 26 198z" />
    <glyph glyph-name="Ygrave" unicode="&#x1ef2;" horiz-adv-x="472" 
d="M311 767h-94l-113 137h113zM165 0v208l-165 492h147l57 -194q21 -70 30 -112h4q11 47 32 115l55 191h147l-165 -492v-208h-142z" />
    <glyph glyph-name="ygrave" unicode="&#x1ef3;" horiz-adv-x="446" 
d="M311 612h-94l-93 137h113zM309 530h137l-163 -546q-24 -81 -62.5 -126.5t-100.5 -45.5h-70v131h40q27 0 43.5 16t26.5 50l11 39l-171 482h144l49 -158l35 -123l35 121z" />
    <glyph glyph-name="endash" unicode="&#x2013;" horiz-adv-x="410" 
d="M30 199v116h350v-116h-350z" />
    <glyph glyph-name="emdash" unicode="&#x2014;" horiz-adv-x="550" 
d="M30 199v116h490v-116h-490z" />
    <glyph glyph-name="quoteleft" unicode="&#x2018;" horiz-adv-x="181" 
d="M11 437l68 263h79l-20 -263h-127z" />
    <glyph glyph-name="quoteright" unicode="&#x2019;" horiz-adv-x="181" 
d="M23 437l20 263h127l-68 -263h-79z" />
    <glyph glyph-name="quotesinglbase" unicode="&#x201a;" horiz-adv-x="191" 
d="M22 -143l20 263h127l-68 -263h-79z" />
    <glyph glyph-name="quotedblleft" unicode="&#x201c;" horiz-adv-x="341" 
d="M11 437l68 263h79l-20 -263h-127zM171 437l68 263h79l-20 -263h-127z" />
    <glyph glyph-name="quotedblright" unicode="&#x201d;" horiz-adv-x="341" 
d="M23 437l20 263h127l-68 -263h-79zM183 437l20 263h127l-68 -263h-79z" />
    <glyph glyph-name="quotedblbase" unicode="&#x201e;" horiz-adv-x="351" 
d="M22 -143l20 263h127l-68 -263h-79zM182 -143l20 263h127l-68 -263h-79z" />
    <glyph glyph-name="dagger" unicode="&#x2020;" horiz-adv-x="370" 
d="M355 520v-120h-107v-500h-126v500h-107v120h107v180h126v-180h107z" />
    <glyph glyph-name="daggerdbl" unicode="&#x2021;" horiz-adv-x="376" 
d="M357 400h-107v-155h107v-120h-107v-225h-126v225h-107v120h107v155h-107v120h107v180h126v-180h107v-120z" />
    <glyph glyph-name="bullet" unicode="&#x2022;" horiz-adv-x="240" 
d="M119 151q-45 0 -72.5 27.5t-27.5 72.5q0 44 27.5 71.5t72.5 27.5q44 0 71.5 -27.5t27.5 -71.5q0 -45 -27.5 -72.5t-71.5 -27.5z" />
    <glyph glyph-name="ellipsis" unicode="&#x2026;" horiz-adv-x="586" 
d="M103 -10q-34 0 -54.5 20.5t-20.5 54.5t20.5 54.5t54.5 20.5t54.5 -20.5t20.5 -54.5t-20.5 -54.5t-54.5 -20.5zM293 -10q-34 0 -54.5 20.5t-20.5 54.5t20.5 54.5t54.5 20.5t54.5 -20.5t20.5 -54.5t-20.5 -54.5t-54.5 -20.5zM483 -10q-34 0 -54.5 20.5t-20.5 54.5
t20.5 54.5t54.5 20.5t54.5 -20.5t20.5 -54.5t-20.5 -54.5t-54.5 -20.5z" />
    <glyph glyph-name="perthousand" unicode="&#x2030;" horiz-adv-x="829" 
d="M131 386q-50 0 -79 28.5t-29 81.5v105q0 53 29 82t79 29t78.5 -29t28.5 -82v-105q0 -53 -28.5 -81.5t-78.5 -28.5zM14 0l482 700h90l-482 -700h-90zM131 457q15 0 21 8t6 29v109q0 21 -6 29.5t-21 8.5q-28 0 -28 -38v-109q0 -37 28 -37zM452 -9q-50 0 -79 28.5t-29 81.5
v105q0 53 29 82t79 29t78.5 -29t28.5 -82v-105q0 -53 -28.5 -81.5t-78.5 -28.5zM712 -9q-50 0 -79 28.5t-29 81.5v105q0 53 29 82t79 29t78.5 -29t28.5 -82v-105q0 -53 -28.5 -81.5t-78.5 -28.5zM452 62q15 0 21 8t6 29v109q0 21 -6 29.5t-21 8.5q-28 0 -28 -38v-109
q0 -37 28 -37zM712 62q15 0 21 8t6 29v109q0 21 -6 29.5t-21 8.5q-28 0 -28 -38v-109q0 -37 28 -37z" />
    <glyph glyph-name="guilsinglleft" unicode="&#x2039;" horiz-adv-x="304" 
d="M141 85l-111 150v44l111 150h133l-125 -172l125 -172h-133z" />
    <glyph glyph-name="guilsinglright" unicode="&#x203a;" horiz-adv-x="304" 
d="M163 85h-133l125 172l-125 172h133l111 -150v-44z" />
    <glyph glyph-name="fraction" unicode="&#x2044;" horiz-adv-x="575" 
d="M8 0l459 700h100l-460 -700h-99z" />
    <glyph glyph-name="Euro" unicode="&#x20ac;" horiz-adv-x="568" 
d="M406 214h142q-2 -110 -60.5 -168t-165.5 -58q-103 0 -159.5 58.5t-56.5 167.5v43h-78v75h78v45h-78v75h78v34q0 110 57 169t160 59q105 0 162 -58.5t61 -169.5h-142q-3 48 -22 69t-60 21q-68 0 -68 -90v-34h113v-75h-113v-45h113v-75h-113v-43q0 -88 68 -88q41 0 61 21
t23 67z" />
    <glyph glyph-name="trademark" unicode="&#x2122;" horiz-adv-x="475" 
d="M16 640v60h170v-60h-52v-213h-64v213h-54zM384 700h69v-273h-62v37q0 55 6 130l-4 1q-11 -34 -21 -70l-9 -33h-58l-9 33q-10 36 -21 70l-4 -1q6 -75 6 -130v-37h-62v273h69l15 -37q27 -69 35 -113q7 38 35 113z" />
    <glyph glyph-name="partialdiff" unicode="&#x2202;" horiz-adv-x="470" 
d="M193 740q236 -72 239 -383v-158q0 -101 -52 -156t-145 -55t-145 55t-52 156v94q0 101 49 155.5t138 54.5q27 0 54 -11q-38 106 -136 143zM293 199v94q0 78 -58 78t-58 -78v-94q0 -79 58 -79t58 79z" />
    <glyph glyph-name="emptyset" unicode="&#x2205;" horiz-adv-x="782" 
d="M652 608q92 -98 92 -258q0 -163 -97 -262.5t-256 -99.5q-89 0 -159 32l-39 -54h-152l90 126q-93 99 -93 258q0 163 97 262.5t256 99.5q90 0 160 -32l39 54h152zM158 350q0 -93 46 -157l277 388q-39 16 -90 16q-105 0 -169 -68t-64 -179zM391 103q105 0 169 68t64 179
q0 92 -45 156l-277 -388q40 -15 89 -15z" />
    <glyph glyph-name="product" unicode="&#x220f;" horiz-adv-x="522" 
d="M62 -100v800h398v-800h-140v665h-118v-665h-140z" />
    <glyph glyph-name="summation" unicode="&#x2211;" horiz-adv-x="387" 
d="M30 -5v111l144 244l-144 244v111h327v-126h-172l103 -187v-84l-103 -187h172v-126h-327z" />
    <glyph glyph-name="minus" unicode="&#x2212;" horiz-adv-x="480" 
d="M40 248v125h400v-125h-400z" />
    <glyph glyph-name="radical" unicode="&#x221a;" horiz-adv-x="520" 
d="M177 0l-85 380h-85v120h194l65 -383l111 672h133l-153 -789h-180z" />
    <glyph glyph-name="infinity" unicode="&#x221e;" horiz-adv-x="622" 
d="M436 418q63 0 105.5 -46t42.5 -120q0 -73 -41 -118.5t-104 -45.5q-77 0 -128 67q-51 -67 -128 -67q-63 0 -104 45.5t-41 118.5q0 74 42.5 120t105.5 46q73 0 125 -59q52 59 125 59zM196 206q29 0 47 47q-18 47 -47 47q-17 0 -27.5 -12.5t-10.5 -34.5t10.5 -34.5
t27.5 -12.5zM426 206q17 0 27.5 12.5t10.5 34.5t-10.5 34.5t-27.5 12.5q-29 0 -47 -47q18 -47 47 -47z" />
    <glyph glyph-name="integral" unicode="&#x222b;" horiz-adv-x="350" 
d="M32 -191v130q74 0 74 64v495q0 102 54.5 157.5t157.5 55.5v-130q-74 0 -74 -64v-495q0 -102 -54.5 -157.5t-157.5 -55.5z" />
    <glyph glyph-name="approxequal" unicode="&#x2248;" horiz-adv-x="480" 
d="M340 317q-38 0 -99 17.5t-89 17.5q-32 0 -56 -26l-65 92q43 51 109 51q38 0 99 -17.5t89 -17.5q32 0 56 26l65 -92q-43 -51 -109 -51zM340 133q-38 0 -99 17.5t-89 17.5q-32 0 -56 -26l-65 92q43 51 109 51q38 0 99 -17.5t89 -17.5q32 0 56 26l65 -92q-43 -51 -109 -51z
" />
    <glyph glyph-name="notequal" unicode="&#x2260;" horiz-adv-x="480" 
d="M440 332h-129l-27 -65h156v-125h-208l-26 -63h-115l26 63h-77v125h129l27 65h-156v125h208l26 64h115l-26 -64h77v-125z" />
    <glyph glyph-name="lessequal" unicode="&#x2264;" horiz-adv-x="450" 
d="M410 596v-126l-228 -74l228 -75v-126l-370 136v129zM40 54v117h370v-117h-370z" />
    <glyph glyph-name="greaterequal" unicode="&#x2265;" horiz-adv-x="450" 
d="M40 596l370 -136v-129l-370 -136v126l228 75l-228 74v126zM40 54v117h370v-117h-370z" />
    <glyph glyph-name="lozenge" unicode="&#x25ca;" horiz-adv-x="480" 
d="M167 0l-129 335v32l129 333h147l128 -333v-32l-128 -335h-147zM240 142l71 209l-71 207l-71 -207z" />
    <glyph glyph-name="i.loclTRK" horiz-adv-x="237" 
d="M119 608q-33 0 -54 21.5t-21 53.5t21 53.5t54 21.5q32 0 53.5 -21.5t21.5 -53.5q0 -30 -22 -52.5t-53 -22.5zM50 0v530h137v-530h-137z" />
    <glyph glyph-name="uni0414.loclBGR" horiz-adv-x="560" 
d="M0 -119v252h63l142 567h150l142 -567h63v-252h-141v119h-279v-119h-140zM205 133h150l-44 198q-14 72 -29 195h-4q-15 -123 -29 -195z" />
    <glyph glyph-name="uni041B.loclBGR" horiz-adv-x="488" 
d="M169 700h150l166 -700h-147l-63 331q-14 72 -29 195h-4q-15 -123 -29 -195l-63 -331h-147z" />
    <glyph glyph-name="uni0432.loclBGR" horiz-adv-x="456" 
d="M329 398q101 -53 101 -188q0 -102 -55.5 -162.5t-151.5 -60.5q-88 0 -136 55.5t-48 156.5v336q0 95 50 149.5t134 54.5q86 0 133 -50t47 -137q0 -104 -74 -154zM223 607q-24 0 -37.5 -18.5t-13.5 -53.5v-106l26 3q71 9 71 103q0 72 -46 72zM224 118q70 0 70 94
q0 49 -19 74t-60 22l-43 -4v-120q0 -66 52 -66z" />
    <glyph glyph-name="uni0433.loclBGR" horiz-adv-x="432" 
d="M208 -15q-88 0 -138 45.5t-50 121.5q0 52 25.5 88t62 53t73 29.5t62 28t25.5 38.5q0 32 -46 32q-52 0 -57 -53h-131q7 80 51.5 127.5t135.5 47.5q84 0 133 -41t49 -115q0 -52 -25.5 -87.5t-61.5 -53t-72.5 -30t-62 -28t-25.5 -37.5q0 -39 56 -39q63 0 66 57h136
q-2 -77 -55.5 -130.5t-150.5 -53.5z" />
    <glyph glyph-name="uni0434.loclBGR" horiz-adv-x="477" 
d="M334 530h93v-547q0 -81 -49.5 -129t-137.5 -48q-86 0 -134.5 47.5t-50.5 129.5h135q5 -50 50 -50q23 0 35.5 13.5t12.5 36.5v66q-36 -22 -80 -22q-73 0 -121.5 56t-48.5 142v118q0 87 48 143.5t122 56.5q71 0 117 -44zM230 156q58 0 58 69v118q0 68 -58 68q-54 0 -54 -68
v-118q0 -69 54 -69z" />
    <glyph glyph-name="uni0436.loclBGR" horiz-adv-x="668" 
d="M525 0l-102 208l-24 -25v-183h-130v183l-24 25l-102 -208h-149l164 313l-141 217h152l73 -136l27 -55v386h130v-386l27 55l73 136h152l-141 -217l164 -313h-149z" />
    <glyph glyph-name="uni0437.loclBGR" horiz-adv-x="465" 
d="M333 191q101 -42 101 -170q0 -101 -57 -157.5t-158 -56.5q-94 0 -148 53.5t-57 150.5h130q3 -76 80 -76q72 0 72 93q0 95 -81 95h-60v121h47q78 0 78 96q0 37 -16.5 58t-45.5 21q-27 0 -44 -18.5t-21 -51.5h-130q5 92 57.5 143t142.5 51q89 0 139 -51t50 -143
q0 -56 -16.5 -93.5t-62.5 -64.5z" />
    <glyph glyph-name="uni0438.loclBGR" horiz-adv-x="476" 
d="M290 530h136v-530h-90l-10 54q-41 -67 -125 -67q-74 0 -115 55.5t-41 162.5v325h137v-325q0 -88 51 -88q57 0 57 78v335z" />
    <glyph glyph-name="uni0439.loclBGR" horiz-adv-x="476" 
d="M232 612q-55 0 -91 33.5t-38 90.5h87q0 -19 12 -30t29 -11t29 11t12 30h87q-2 -59 -37.5 -91.5t-89.5 -32.5zM290 530h136v-530h-90l-10 54q-41 -67 -125 -67q-74 0 -115 55.5t-41 162.5v325h137v-325q0 -88 51 -88q57 0 57 78v335z" />
    <glyph glyph-name="uni045D.loclBGR" horiz-adv-x="481" 
d="M271 609h-94l-93 137h113zM295 530h136v-530h-90l-10 54q-41 -67 -125 -67q-74 0 -115 55.5t-41 162.5v325h137v-325q0 -88 51 -88q57 0 57 78v335z" />
    <glyph glyph-name="uni043A.loclBGR" horiz-adv-x="457" 
d="M311 0l-101 213l-25 -25v-188h-135v725h135v-358l98 163h157l-140 -210l163 -320h-152z" />
    <glyph glyph-name="uni043B.loclBGR" horiz-adv-x="436" 
d="M141 530h154l141 -530h-145l-32 165q-29 152 -38 207h-6q-10 -67 -38 -207l-32 -165h-145z" />
    <glyph glyph-name="uni043F.loclBGR" horiz-adv-x="476" 
d="M275 543q74 0 115 -55.5t41 -162.5v-325h-137v325q0 88 -51 88q-57 0 -57 -78v-335h-136v530h90l10 -54q41 67 125 67z" />
    <glyph glyph-name="uni0442.loclBGR" horiz-adv-x="708" 
d="M511 543q73 0 112.5 -55.5t39.5 -162.5v-325h-135v325q0 88 -49 88q-55 0 -55 -78v-335h-135v325q0 88 -49 88q-25 0 -40 -20t-15 -58v-335h-135v530h89l9 -54q41 67 124 67q79 0 118 -63q40 63 121 63z" />
    <glyph glyph-name="uni0446.loclBGR" horiz-adv-x="500" 
d="M358 -119v119q-13 5 -24 21.5t-13 32.5q-36 -67 -120 -67q-74 0 -115 55.5t-41 162.5v325h137v-325q0 -88 51 -88q57 0 57 78v335h136v-356q0 -28 12.5 -44.5t49.5 -16.5v-232h-130z" />
    <glyph glyph-name="uni0448.loclBGR" horiz-adv-x="708" 
d="M523 530h135v-530h-89l-9 54q-41 -67 -124 -67q-79 0 -118 63q-40 -63 -121 -63q-73 0 -112.5 55.5t-39.5 162.5v325h135v-325q0 -88 49 -88q55 0 55 78v335h135v-325q0 -88 49 -88q25 0 40 20t15 58v335z" />
    <glyph glyph-name="uni0449.loclBGR" horiz-adv-x="737" 
d="M595 -119v119q-13 5 -24 21.5t-13 32.5q-36 -67 -118 -67q-81 0 -120 65q-41 -65 -123 -65q-72 0 -112 55.5t-40 162.5v325h135v-325q0 -88 49 -88q57 0 57 78v335h135v-325q0 -88 51 -88q55 0 55 78v335h135v-356q0 -28 13 -44.5t50 -16.5v-232h-130z" />
    <glyph glyph-name="uni044C.loclBGR" horiz-adv-x="439" 
d="M257 374q77 0 124.5 -51.5t47.5 -136.5q0 -90 -53.5 -145t-140.5 -55q-89 0 -139.5 49t-50.5 136v359h135v-183q33 27 77 27zM235 113q56 0 56 73q0 63 -55 63q-56 0 -56 -63q0 -73 55 -73z" />
    <glyph glyph-name="uni044A.loclBGR" horiz-adv-x="501" 
d="M319 374q77 0 124.5 -51.5t47.5 -136.5q0 -90 -53.5 -145t-140.5 -55q-89 0 -139.5 49t-50.5 136v233h-105v126h240v-183q33 27 77 27zM297 113q56 0 56 73q0 63 -55 63q-56 0 -56 -63q0 -73 55 -73z" />
    <glyph glyph-name="uni044E.loclBGR" horiz-adv-x="652" 
d="M422 543q91 0 141.5 -54.5t50.5 -155.5v-134q0 -101 -50.5 -156t-141.5 -55q-90 0 -140.5 55t-50.5 156v6h-58v-205h-130v725h130v-395h58v3q0 101 50 155.5t141 54.5zM478 199v134q0 78 -56 78t-56 -78v-134q0 -79 56 -79t56 79z" />
    <glyph glyph-name="uni0432.ss01" horiz-adv-x="456" 
d="M329 398q101 -53 101 -188q0 -102 -55.5 -162.5t-151.5 -60.5q-88 0 -136 55.5t-48 156.5v336q0 95 50 149.5t134 54.5q86 0 133 -50t47 -137q0 -104 -74 -154zM223 607q-24 0 -37.5 -18.5t-13.5 -53.5v-106l26 3q71 9 71 103q0 72 -46 72zM224 118q70 0 70 94
q0 49 -19 74t-60 22l-43 -4v-120q0 -66 52 -66z" />
    <glyph glyph-name="uni0433.ss01" horiz-adv-x="432" 
d="M208 -15q-88 0 -138 45.5t-50 121.5q0 52 25.5 88t62 53t73 29.5t62 28t25.5 38.5q0 32 -46 32q-52 0 -57 -53h-131q7 80 51.5 127.5t135.5 47.5q84 0 133 -41t49 -115q0 -52 -25.5 -87.5t-61.5 -53t-72.5 -30t-62 -28t-25.5 -37.5q0 -39 56 -39q63 0 66 57h136
q-2 -77 -55.5 -130.5t-150.5 -53.5z" />
    <glyph glyph-name="uni0434.ss01" horiz-adv-x="477" 
d="M334 530h93v-547q0 -81 -49.5 -129t-137.5 -48q-86 0 -134.5 47.5t-50.5 129.5h135q5 -50 50 -50q23 0 35.5 13.5t12.5 36.5v66q-36 -22 -80 -22q-73 0 -121.5 56t-48.5 142v118q0 87 48 143.5t122 56.5q71 0 117 -44zM230 156q58 0 58 69v118q0 68 -58 68q-54 0 -54 -68
v-118q0 -69 54 -69z" />
    <glyph glyph-name="uni0436.ss01" horiz-adv-x="668" 
d="M525 0l-102 208l-24 -25v-183h-130v183l-24 25l-102 -208h-149l164 313l-141 217h152l73 -136l27 -55v386h130v-386l27 55l73 136h152l-141 -217l164 -313h-149z" />
    <glyph glyph-name="uni0437.ss01" horiz-adv-x="465" 
d="M333 191q101 -42 101 -170q0 -101 -57 -157.5t-158 -56.5q-94 0 -148 53.5t-57 150.5h130q3 -76 80 -76q72 0 72 93q0 95 -81 95h-60v121h47q78 0 78 96q0 37 -16.5 58t-45.5 21q-27 0 -44 -18.5t-21 -51.5h-130q5 92 57.5 143t142.5 51q89 0 139 -51t50 -143
q0 -56 -16.5 -93.5t-62.5 -64.5z" />
    <glyph glyph-name="uni0438.ss01" horiz-adv-x="476" 
d="M290 530h136v-530h-90l-10 54q-41 -67 -125 -67q-74 0 -115 55.5t-41 162.5v325h137v-325q0 -88 51 -88q57 0 57 78v335z" />
    <glyph glyph-name="uni0439.ss01" horiz-adv-x="476" 
d="M232 612q-55 0 -91 33.5t-38 90.5h87q0 -19 12 -30t29 -11t29 11t12 30h87q-2 -59 -37.5 -91.5t-89.5 -32.5zM290 530h136v-530h-90l-10 54q-41 -67 -125 -67q-74 0 -115 55.5t-41 162.5v325h137v-325q0 -88 51 -88q57 0 57 78v335z" />
    <glyph glyph-name="uni045D.ss01" horiz-adv-x="481" 
d="M271 609h-94l-93 137h113zM295 530h136v-530h-90l-10 54q-41 -67 -125 -67q-74 0 -115 55.5t-41 162.5v325h137v-325q0 -88 51 -88q57 0 57 78v335z" />
    <glyph glyph-name="uni043A.ss01" horiz-adv-x="457" 
d="M311 0l-101 213l-25 -25v-188h-135v725h135v-358l98 163h157l-140 -210l163 -320h-152z" />
    <glyph glyph-name="uni043B.ss01" horiz-adv-x="436" 
d="M141 530h154l141 -530h-145l-32 165q-29 152 -38 207h-6q-10 -67 -38 -207l-32 -165h-145z" />
    <glyph glyph-name="uni043F.ss01" horiz-adv-x="476" 
d="M275 543q74 0 115 -55.5t41 -162.5v-325h-137v325q0 88 -51 88q-57 0 -57 -78v-335h-136v530h90l10 -54q41 67 125 67z" />
    <glyph glyph-name="uni0442.ss01" horiz-adv-x="708" 
d="M511 543q73 0 112.5 -55.5t39.5 -162.5v-325h-135v325q0 88 -49 88q-55 0 -55 -78v-335h-135v325q0 88 -49 88q-25 0 -40 -20t-15 -58v-335h-135v530h89l9 -54q41 67 124 67q79 0 118 -63q40 63 121 63z" />
    <glyph glyph-name="uni0446.ss01" horiz-adv-x="500" 
d="M358 -119v119q-13 5 -24 21.5t-13 32.5q-36 -67 -120 -67q-74 0 -115 55.5t-41 162.5v325h137v-325q0 -88 51 -88q57 0 57 78v335h136v-356q0 -28 12.5 -44.5t49.5 -16.5v-232h-130z" />
    <glyph glyph-name="uni0448.ss01" horiz-adv-x="708" 
d="M523 530h135v-530h-89l-9 54q-41 -67 -124 -67q-79 0 -118 63q-40 -63 -121 -63q-73 0 -112.5 55.5t-39.5 162.5v325h135v-325q0 -88 49 -88q55 0 55 78v335h135v-325q0 -88 49 -88q25 0 40 20t15 58v335z" />
    <glyph glyph-name="uni0449.ss01" horiz-adv-x="737" 
d="M595 -119v119q-13 5 -24 21.5t-13 32.5q-36 -67 -118 -67q-81 0 -120 65q-41 -65 -123 -65q-72 0 -112 55.5t-40 162.5v325h135v-325q0 -88 49 -88q57 0 57 78v335h135v-325q0 -88 51 -88q55 0 55 78v335h135v-356q0 -28 13 -44.5t50 -16.5v-232h-130z" />
    <glyph glyph-name="uni044C.ss01" horiz-adv-x="439" 
d="M257 374q77 0 124.5 -51.5t47.5 -136.5q0 -90 -53.5 -145t-140.5 -55q-89 0 -139.5 49t-50.5 136v359h135v-183q33 27 77 27zM235 113q56 0 56 73q0 63 -55 63q-56 0 -56 -63q0 -73 55 -73z" />
    <glyph glyph-name="uni044A.ss01" horiz-adv-x="501" 
d="M319 374q77 0 124.5 -51.5t47.5 -136.5q0 -90 -53.5 -145t-140.5 -55q-89 0 -139.5 49t-50.5 136v233h-105v126h240v-183q33 27 77 27zM297 113q56 0 56 73q0 63 -55 63q-56 0 -56 -63q0 -73 55 -73z" />
    <glyph glyph-name="uni044E.ss01" horiz-adv-x="652" 
d="M422 543q91 0 141.5 -54.5t50.5 -155.5v-134q0 -101 -50.5 -156t-141.5 -55q-90 0 -140.5 55t-50.5 156v6h-58v-205h-130v725h130v-395h58v3q0 101 50 155.5t141 54.5zM478 199v134q0 78 -56 78t-56 -78v-134q0 -79 56 -79t56 79z" />
    <glyph glyph-name="zero.lf" horiz-adv-x="487" 
d="M243 -10q-95 0 -148 55.5t-53 155.5v296q0 100 53 156.5t148 56.5t148.5 -56.5t53.5 -156.5v-296q0 -100 -53.5 -155.5t-148.5 -55.5zM243 115q70 0 70 85v296q0 87 -70 87q-69 0 -69 -87v-296q0 -85 69 -85z" />
    <glyph glyph-name="one.lf" horiz-adv-x="316" 
d="M169 700h85v-700h-135v519l-96 -55v146z" />
    <glyph glyph-name="two.lf" horiz-adv-x="439" 
d="M23 0v84q0 52 18.5 101.5t46.5 85.5t60 72t60 63.5t46.5 58.5t18.5 58q0 25 -14 43t-41 18q-57 0 -60 -73h-128q4 99 52 150t134 51q93 0 142.5 -54.5t49.5 -127.5q0 -50 -25 -100t-60.5 -90l-71 -76.5t-60.5 -72.5t-25 -65h245v-126h-388z" />
    <glyph glyph-name="three.lf" horiz-adv-x="436" 
d="M275 431q57 -9 91 -60t34 -117v-43q0 -112 -45.5 -167.5t-148.5 -55.5q-92 0 -141 53t-54 152h134q3 -38 16.5 -55.5t43.5 -17.5q35 0 47 21.5t12 72.5v35q0 48 -17 65.5t-54 17.5h-66v88l95 157h-187v123h350v-89z" />
    <glyph glyph-name="four.lf" horiz-adv-x="459" 
d="M457 282v-122h-72v-160h-131v160h-248v72l128 468h133l-116 -418h105l21 213h108v-213h72z" />
    <glyph glyph-name="five.lf" horiz-adv-x="460" 
d="M264 484q70 0 114.5 -52.5t44.5 -145.5v-91q0 -98 -52 -152.5t-140 -54.5q-85 0 -135.5 54t-52.5 148h135q2 -39 14.5 -54.5t38.5 -15.5q27 0 40.5 17.5t13.5 61.5v77q0 44 -12 61.5t-35 17.5q-46 0 -57 -57h-128v402h346v-120h-216v-116q38 20 81 20z" />
    <glyph glyph-name="six.lf" horiz-adv-x="462" 
d="M261 458q77 0 125.5 -50.5t48.5 -127.5v-99q0 -87 -54.5 -140t-142.5 -53t-142 53t-54 140v338q0 88 53.5 140.5t141.5 52.5q86 0 139 -52t55 -140h-133q-8 60 -62 60q-60 0 -60 -61v-91q34 30 85 30zM301 182v88q0 30 -16.5 47t-45.5 17q-30 0 -46.5 -17t-16.5 -47v-88
q0 -29 16.5 -45.5t45.5 -16.5t46 16.5t17 45.5z" />
    <glyph glyph-name="seven.lf" horiz-adv-x="388" 
d="M47 0l175 576h-227v124h379v-101l-186 -599h-141z" />
    <glyph glyph-name="eight.lf" horiz-adv-x="468" 
d="M366 369q67 -51 67 -143v-32q0 -96 -54.5 -151t-144.5 -55t-144.5 55t-54.5 151v32q0 91 66 142q-54 57 -54 131v21q0 86 51.5 139t135.5 53t135.5 -53t51.5 -139v-21q0 -72 -55 -130zM180 514v-19q0 -71 54 -71t54 71v19q0 67 -54 67t-54 -67zM298 195v30q0 73 -64 73
t-64 -73v-30q0 -74 64 -74t64 74z" />
    <glyph glyph-name="nine.lf" horiz-adv-x="462" 
d="M224 712q88 0 142 -53t54 -140v-338q0 -88 -53.5 -140.5t-141.5 -52.5q-86 0 -139 52t-55 140h133q8 -60 62 -60q60 0 60 61v91q-34 -30 -85 -30q-77 0 -125.5 50.5t-48.5 127.5v99q0 87 54.5 140t142.5 53zM223 366q30 0 46.5 17t16.5 47v88q0 29 -16.5 45.5t-45.5 16.5
t-46 -16.5t-17 -45.5v-88q0 -30 16.5 -47t45.5 -17z" />
    <glyph glyph-name="zero.lf.zero" horiz-adv-x="487" 
d="M243 710q95 0 148.5 -56.5t53.5 -156.5v-296q0 -100 -53.5 -155.5t-148.5 -55.5t-148 55.5t-53 155.5v296q0 100 53 156.5t148 56.5zM243 583q-69 0 -69 -87v-182l139 191q-5 78 -70 78zM243 115q70 0 70 85v183l-139 -192q3 -76 69 -76z" />
    <glyph glyph-name="zero.tf" horiz-adv-x="460" 
d="M230 -10q-95 0 -148 55t-53 152v304q0 98 53.5 153.5t147.5 55.5t147.5 -55.5t53.5 -153.5v-304q0 -97 -53 -152t-148 -55zM230 116q69 0 69 85v296q0 87 -69 87t-69 -87v-296q0 -85 69 -85z" />
    <glyph glyph-name="one.tf" horiz-adv-x="460" 
d="M305 126h104v-126h-345v126h106v393l-96 -55v146l146 90h85v-574z" />
    <glyph glyph-name="two.tf" horiz-adv-x="460" 
d="M37 0v84q0 52 18.5 101.5t46.5 85.5t60 72t60 63.5t46.5 58.5t18.5 58q0 25 -14 43t-41 18q-57 0 -60 -73h-128q4 99 52 150t134 51q93 0 142.5 -54.5t49.5 -127.5q0 -50 -25 -100t-60.5 -90l-71 -76.5t-60.5 -72.5t-25 -65h245v-126h-388z" />
    <glyph glyph-name="three.tf" horiz-adv-x="460" 
d="M286 431q60 -10 95 -61t35 -116v-43q0 -113 -47 -168t-152 -55q-92 0 -141 53t-54 152h134q3 -38 16.5 -55.5t43.5 -17.5q38 0 51 21.5t13 72.5v35q0 48 -18 65.5t-58 17.5h-66v88l100 157h-192v123h355v-89z" />
    <glyph glyph-name="four.tf" horiz-adv-x="460" 
d="M456 282v-122h-64v-160h-131v160h-248v72l128 468h133l-116 -418h105l21 213h108v-213h64z" />
    <glyph glyph-name="five.tf" horiz-adv-x="460" 
d="M264 484q70 0 114.5 -52.5t44.5 -145.5v-91q0 -98 -52 -152.5t-140 -54.5q-85 0 -135.5 54t-52.5 148h135q2 -39 14.5 -54.5t38.5 -15.5q27 0 40.5 17.5t13.5 61.5v77q0 44 -12 61.5t-35 17.5q-46 0 -57 -57h-128v402h346v-120h-216v-116q38 20 81 20z" />
    <glyph glyph-name="six.tf" horiz-adv-x="460" 
d="M255 458q77 0 125.5 -50.5t48.5 -127.5v-99q0 -87 -54.5 -140t-142.5 -53t-142 53t-54 140v338q0 88 53.5 140.5t141.5 52.5q86 0 139 -52t55 -140h-133q-8 60 -62 60q-60 0 -60 -61v-91q34 30 85 30zM295 182v88q0 30 -16.5 47t-45.5 17q-30 0 -46.5 -17t-16.5 -47v-88
q0 -29 16.5 -45.5t45.5 -16.5t46 16.5t17 45.5z" />
    <glyph glyph-name="seven.tf" horiz-adv-x="460" 
d="M88 0l186 576h-240v124h386v-101l-190 -599h-142z" />
    <glyph glyph-name="eight.tf" horiz-adv-x="460" 
d="M356 369q35 -23 55.5 -61t20.5 -82v-32q0 -96 -55 -151t-147 -55t-147 55t-55 151v32q0 43 20 80.5t54 61.5q-62 57 -62 131v21q0 86 52.5 139t137.5 53t137.5 -53t52.5 -139v-21q0 -72 -64 -130zM173 514v-19q0 -71 57 -71t57 71v19q0 67 -57 67t-57 -67zM297 195v30
q0 73 -67 73t-67 -73v-30q0 -74 67 -74t67 74z" />
    <glyph glyph-name="nine.tf" horiz-adv-x="460" 
d="M228 717q88 0 142 -53t54 -140v-338q0 -88 -53.5 -140.5t-141.5 -52.5q-86 0 -139 52t-55 140h133q8 -60 62 -60q60 0 60 61v91q-34 -30 -85 -30q-77 0 -125.5 50.5t-48.5 127.5v99q0 87 54.5 140t142.5 53zM227 371q30 0 46.5 17t16.5 47v88q0 29 -16.5 45.5t-45.5 16.5
t-46 -16.5t-17 -45.5v-88q0 -30 16.5 -47t45.5 -17z" />
    <glyph glyph-name="zero.tf.zero" horiz-adv-x="460" 
d="M230 710q94 0 147.5 -55.5t53.5 -153.5v-304q0 -97 -53 -152t-148 -55t-148 55t-53 152v304q0 98 53.5 153.5t147.5 55.5zM230 584q-69 0 -69 -87v-181l138 190q-5 78 -69 78zM230 116q69 0 69 85v183l-138 -190q3 -78 69 -78z" />
    <glyph glyph-name="zero.zero" horiz-adv-x="487" 
d="M243 710q95 0 148.5 -56.5t53.5 -156.5v-296q0 -100 -53.5 -155.5t-148.5 -55.5t-148 55.5t-53 155.5v296q0 100 53 156.5t148 56.5zM243 583q-69 0 -69 -87v-182l139 191q-5 78 -70 78zM243 115q70 0 70 85v183l-139 -192q3 -76 69 -76z" />
    <glyph glyph-name="hyphen.case" horiz-adv-x="310" 
d="M30 299v116h250v-116h-250z" />
    <glyph glyph-name="endash.case" horiz-adv-x="410" 
d="M30 299v116h350v-116h-350z" />
    <glyph glyph-name="emdash.case" horiz-adv-x="550" 
d="M30 299v116h490v-116h-490z" />
    <glyph glyph-name="guillemotleft.case" horiz-adv-x="505" 
d="M141 145l-111 150v44l111 150h133l-125 -172l125 -172h-133zM342 145l-111 150v44l111 150h133l-125 -172l125 -172h-133z" />
    <glyph glyph-name="guillemotright.case" horiz-adv-x="505" 
d="M163 145h-133l125 172l-125 172h133l111 -150v-44zM364 145h-133l125 172l-125 172h133l111 -150v-44z" />
    <glyph glyph-name="guilsinglleft.case" horiz-adv-x="304" 
d="M141 145l-111 150v44l111 150h133l-125 -172l125 -172h-133z" />
    <glyph glyph-name="guilsinglright.case" horiz-adv-x="304" 
d="M163 145h-133l125 172l-125 172h133l111 -150v-44z" />
    <glyph glyph-name="uni0308.case" 
d="M-223 775q-28 0 -44.5 16.5t-16.5 44.5t16.5 44.5t44.5 16.5t44.5 -16.5t16.5 -44.5t-16.5 -44.5t-44.5 -16.5zM-61 775q-28 0 -44.5 16.5t-16.5 44.5t16.5 44.5t44.5 16.5t44.5 -16.5t16.5 -44.5t-16.5 -44.5t-44.5 -16.5z" />
    <glyph glyph-name="uni0307.case" 
d="M-75 762q-33 0 -54 21.5t-21 53.5t21 53.5t54 21.5q32 0 53.5 -21.5t21.5 -53.5q0 -30 -22 -52.5t-53 -22.5z" />
    <glyph glyph-name="gravecomb.case" 
d="M-15 767h-94l-113 137h113z" />
    <glyph glyph-name="acutecomb.case" 
d="M-207 767l94 137h113l-113 -137h-94z" />
    <glyph glyph-name="uni030B.case" 
d="M-334 768l77 137h102l-93 -137h-86zM-185 768l83 137h102l-99 -137h-86z" />
    <glyph glyph-name="uni0302.case" 
d="M6 767h-89l-43 67l-44 -67h-89l81 137h103z" />
    <glyph glyph-name="uni030C.case" 
d="M-83 904h89l-81 -137h-103l-81 137h89l44 -67z" />
    <glyph glyph-name="uni0306.case" 
d="M-119 770q-55 0 -91 33.5t-38 90.5h87q0 -19 12 -30t29 -11t29 11t12 30h87q-2 -59 -37.5 -91.5t-89.5 -32.5z" />
    <glyph glyph-name="uni030A.case" 
d="M-84 763q-41 0 -66.5 25t-25.5 65q0 39 25.5 63.5t66.5 24.5t66.5 -24.5t25.5 -63.5q0 -40 -25.5 -65t-66.5 -25zM-84 819q15 0 24 9t9 24t-9 24t-24 9t-24 -9t-9 -24t9 -24t24 -9z" />
    <glyph glyph-name="tildecomb.case" 
d="M-74 781q-23 0 -45.5 14t-32.5 14q-24 0 -28 -25h-77q3 51 28 78.5t63 27.5q24 0 46.5 -14t31.5 -14q23 0 28 25h77q-3 -49 -28 -77.5t-63 -28.5z" />
    <glyph glyph-name="uni0304.case" 
d="M-211 789v87h220v-87h-220z" />
    <glyph glyph-name="uni0312.case" 
d="M-111 783l-17 216h84l60 -216h-127z" />
    <glyph glyph-name="uni0326.case" 
d="M-131 -281l16 209h114l-51 -209h-79z" />
    <glyph glyph-name="uni0327.case" 
d="M-100 -207q-43 0 -75 24t-36 62h71q14 -22 40 -22q34 0 34 29q0 25 -33 25q-18 0 -33 -6l-20 20l20 75h72l-13 -47h9q33 0 53.5 -19.5t20.5 -50.5q0 -41 -30.5 -65.5t-79.5 -24.5z" />
    <glyph glyph-name="uni0328.case" 
d="M-93 -194q-47 0 -73.5 22.5t-26.5 62.5q0 61 60 109h115q-24 -15 -37.5 -34.5t-13.5 -33.5q0 -25 31 -25q14 0 28 3v-91q-28 -13 -83 -13z" />
    <glyph glyph-name="uni0337.case" 
d="M-313 -43l155 597h149l-155 -597h-149z" />
    <glyph glyph-name="uni0338.case" 
d="M-579 -39l210 778h146l-210 -778h-146z" />
    <glyph glyph-name="brevecombcy" 
d="M-121 612q-55 0 -91 33.5t-38 90.5h87q0 -19 12 -30t29 -11t29 11t12 30h87q-2 -59 -37.5 -91.5t-89.5 -32.5z" />
    <glyph glyph-name="brevecombcy.case" 
d="M-119 770q-55 0 -91 33.5t-38 90.5h87q0 -19 12 -30t29 -11t29 11t12 30h87q-2 -59 -37.5 -91.5t-89.5 -32.5z" />
    </font>
</defs>
</svg>
